#TITLE:Poseidon (kors k mix);
#SUBTITLE:[Yosefu's DDR Edit];
#ARTIST:NAOKI underground;
#TITLETRANSLIT:;
#SUBTITLETRANSLIT:;
#ARTISTTRANSLIT:;
#GENRE:;
#CREDIT:;
#BANNER:Poseidon (kors k mix) [Yosefu's DDR Edit].png;
#BACKGROUND:Poseidon (kors k mix) [Yosefu's DDR Edit]-bg.png;
#LYRICSPATH:;
#CDTITLE:../_YSD cdtitles/ysd ddr edits cdtitle.png;
#MUSIC:Poseidon (kors k mix) [Yosefu's DDR Edit].ogg;
#OFFSET:0.000000;
#SAMPLESTART:66.309998;
#SAMPLELENGTH:15.000000;
#SELECTABLE:YES;
#DISPLAYBPM:152.000000;
#BPMS:0.000000=152.000000
,131.000000=76.000000
,132.000000=152.000000
;
#STOPS:70.000000=0.395000,
127.000000=0.197000,
127.500000=0.197000,
128.000000=0.197000,
128.500000=0.197000
;
#BGCHANGES:;
#KEYSOUNDS:;
#ATTACKS:;
#LASTSECONDHINT:104.209;

//---------------dance-single - This might be an 18...IDK----------------
#NOTES:
     dance-single:
     -YOSEFU-:
     Challenge:
     17:
     0.787627,0.965774,0.102445,0.931315,1.289872,592.000000,581.000000,11.000000,100.000000,0.000000,0.000000,0.787627,0.965774,0.102445,0.931315,1.289872,592.000000,581.000000,11.000000,100.000000,0.000000,0.000000:
// measure 0
0000
0000
0000
0000
,  // measure 1
0000
0000
0000
0000
,  // measure 2
0000
0000
0000
0000
,  // measure 3
0000
0000
0000
0000
,  // measure 4
0000
0000
0000
0000
,  // measure 5
0000
0000
0000
0000
,  // measure 6
2000
0000
3001
0010
0100
0010
2000
3020
0000
0130
1000
0001
0100
0020
0000
1030
,  // measure 7
0001
1000
0001
0020
0000
0130
0002
0103
0010
0001
0100
2000
0000
3100
0002
0000
,  // measure 8
2003
0000
3001
0010
0100
0010
2000
3020
0000
0130
1000
0001
0100
0020
0000
1030
,  // measure 9
0001
0100
0001
0010
0100
0010
2000
3020
0000
0130
1000
0001
0200
0000
0320
0000
,  // measure 10
2030
0000
3001
0100
0010
0100
2000
3200
0000
0310
1000
0001
0010
0200
0001
0000
,  // measure 11
1300
0001
0100
0020
0000
0130
2000
3100
0010
1000
0100
0002
0000
0103
2000
0000
,  // measure 12
3002
0000
1003
0010
0100
0010
0002
0023
0000
0130
0001
1000
0100
0020
1000
0000
,  // measure 13
0031
1000
0001
0100
0010
0100
2000
3200
0000
0310
1000
0001
0010
0100
0001
0100
,  // measure 14
2000
0000
3001
0100
0010
0100
2000
3200
0000
0310
1000
0001
0010
0200
0001
0000
,  // measure 15
1300
0001
0100
0020
0000
0130
2000
3100
0010
1000
0100
0002
0000
0103
2000
0000
,  // measure 16
3002
0000
1003
0010
0100
0010
0002
0023
0000
0130
0001
1000
0100
0020
1000
0000
,  // measure 17
0031
1000
0000
0010
1000
0001
0010
0100
2000
0000
3000
0000
1001
0000
0000
0001
,  // measure 18
0000
0000
0001
0000
1000
0010
0000
0100
0000
0000
0100
0000
0001
1000
0000
0100
,  // measure 19
0000
0000
0100
1000
0100
1000
0000
0001
1000
0000
0001
0100
0001
0100
0000
0001
,  // measure 20
0000
0000
0001
0000
1000
0000
0000
0100
0000
0000
0010
0000
0010
0001
0000
0010
,  // measure 21
0001
0000
0100
0000
0200
0000
0000
0000
0010
0000
0000
0000
0301
0000
0000
0001
,  // measure 22
0000
0000
0001
1000
0001
1000
0000
0100
0000
0000
0100
0000
0010
0001
0000
1000
,  // measure 23
0000
0000
0010
1000
0010
1000
0000
0001
0000
0000
0010
0000
0100
1000
0000
1000
,  // measure 24
0000
0000
1000
0001
1000
0001
0000
0100
0000
0000
0010
0000
0010
1000
0000
0010
,  // measure 25
1000
0000
0100
0000
0200
0000
0000
0000
0010
0000
0000
0000
1300
0000
0000
1000
,  // measure 26
0000
0000
1000
0000
0001
0010
0000
0100
0000
0000
0100
0000
1000
0001
0000
0100
,  // measure 27
0000
0000
0100
0001
0100
0001
0000
1000
0001
0000
1000
0100
1000
0100
0000
1000
,  // measure 28
0000
0000
1000
0000
0001
0000
0000
0100
0000
0000
0010
0000
0010
1000
0000
0010
,  // measure 29
1000
0100
0200
0000
0010
0000
1300
0001
,  // measure 30
0100
0001
1000
0010
0100
0010
1000
0001
,  // measure 31
0010
0000
0000
0000
0001
0000
0000
0000
1000
0000
0100
0000
0010
0000
0001
0000
0100
0000
0010
0000
1000
0000
0000
0000
2020
3030
0000
0000
2002
3003
0000
0000
,  // measure 32
0022
0033
0000
0000
2002
3003
0000
0000
2010
0000
0000
0000
0000
0000
0000
0000
0001
0000
0000
0000
0001
0000
0000
0000
3200
0000
0000
0000
0010
0000
0310
0000
,  // measure 33
1001
0000
0001
0100
0000
0001
0100
0000
0100
0001
0000
1000
0000
0200
0000
0000
,  // measure 34
0310
0100
0002
0003
0002
0003
0100
0010
0001
0100
1000
0100
0020
0000
1030
0001
,  // measure 35
0020
0031
0200
0301
0000
1000
0200
0300
0010
0001
1000
0010
0100
0001
0010
0100
,  // measure 36
2000
0000
0000
0000
0000
0000
3002
0000
0000
0000
0000
0000
1003
0010
0100
0001
1000
0010
0200
0000
0000
0320
0000
0000
,  // measure 37
1030
0000
0001
0010
0000
0001
0010
0000
0010
0001
0000
1000
0000
0020
0000
0000
,  // measure 38
0130
0010
0002
0003
0002
0003
0010
0100
0001
0010
1000
0010
0200
0000
1300
0001
,  // measure 39
0200
0301
0020
0031
1000
0100
0020
0130
1000
0001
0100
0000
1001
0000
0000
0000
,  // measure 40
1001
1000
0001
0102
0003
0002
0023
0130
,  // measure 41
1000
0000
0100
0002
0003
0100
1000
0001
1000
0000
0100
0002
0003
0100
1000
0001
,  // measure 42
1000
0000
0100
0002
0003
0100
1000
0001
0100
0010
1000
0001
1000
0100
0010
0001
,  // measure 43
1000
0000
0010
0002
0003
0010
1000
0001
1000
0000
0010
0002
0003
0010
1000
0001
,  // measure 44
1000
0000
0010
0002
0003
0010
1000
0001
1000
0100
0010
0001
0100
0010
1000
0001
,  // measure 45
1000
0000
0100
0002
0003
0100
1000
0001
1000
0000
0010
0002
0003
0010
1000
0001
,  // measure 46
1000
0000
0100
0002
0003
0100
1000
0001
1000
0010
0100
0001
0010
0100
1000
0001
,  // measure 47
1000
0000
0100
0002
0003
0100
0010
0001
1000
0000
0010
0002
0003
0010
0100
0001
,  // measure 48
1000
0000
0100
0002
0003
0100
1000
0001
0100
0010
1000
0100
0010
0001
1000
0010
,  // measure 49
0100
0000
0010
0002
0003
0010
0100
0001
0010
0000
0100
0002
0003
0100
0010
0001
,  // measure 50
0100
0000
0010
0002
0003
0010
0100
0001
0010
0100
1000
0010
0100
0001
1000
0100
,  // measure 51
0010
0000
0100
0002
0003
0100
0010
0001
0100
0000
0010
0002
0003
0010
0100
0001
,  // measure 52
0010
0000
0100
0002
0003
0100
0010
0001
1000
0010
0100
0001
0010
0100
1000
0001
,  // measure 53
0100
0000
0010
0002
0003
0010
1000
0001
1000
0000
0100
0002
0003
0100
0010
0001
,  // measure 54
0100
0000
0010
0002
0003
0010
1000
0001
0010
0100
1000
0010
0100
0001
1000
0100
,  // measure 55
0010
0001
1000
0010
0100
0001
1000
0100
0010
0001
0100
0010
1000
0001
0010
0100
,  // measure 56
1000
0001
0100
0001
0010
0001
1000
0010
1000
0100
1000
0001
0010
0100
1000
0001
,  // measure 57
2002
0000
0000
0000
,  // measure 58
0000
0000
0000
0000
,  // measure 59
0000
0000
0000
0000
,  // measure 60
0000
0000
0000
0000
,  // measure 61
3003
0000
0000
0000
;
