#VERSION:0.83;
#TITLE:POLKAMANIA;
#SUBTITLE:;
#ARTIST:かめりあ feat. ななひら;
#TITLETRANSLIT:;
#SUBTITLETRANSLIT:;
#ARTISTTRANSLIT:Camellia feat. Nanahira;
#GENRE:ポルカ2020;
#ORIGIN:beatmania IIDX 28 BISTROVER;
#TAGS:;
#CREDIT:;
#BANNER:POLKAMANIA.png;
#BACKGROUND:POLKAMANIA-bg.png;
#PREVIEWVID:;
#JACKET:POLKAMANIA-jacket.png;
#CDIMAGE:;
#DISCIMAGE:;
#LYRICSPATH:;
#CDTITLE:../_YSD cdtitles/ysd sc2022 cdtitle.png;
#MUSIC:POLKAMANIA.ogg;
#OFFSET:-0.001000;
#SAMPLESTART:51.188000;
#SAMPLELENGTH:24.000000;
#SELECTABLE:YES;
#BPMS:0.000000=160.000000
;
#STOPS:;
#DELAYS:;
#WARPS:;
#TIMESIGNATURES:0.000000=10=4
,10.000000=4=4
,198.000000=6=4
,204.000000=4=4
;
#TICKCOUNTS:0.000000=4
;
#COMBOS:0.000000=1
;
#SPEEDS:0.000000=1.000000=0.000000=0
;
#SCROLLS:0.000000=1.000000
;
#LABELS:0.000000=Song Start
;
#KEYSOUNDS:;
#ATTACKS:
;

//---------------dance-single - ----------------
#NOTEDATA:;
#CHARTNAME:;
#CHARTHASH:3823395120;
#STEPSTYPE:dance-single;
#BANNER:;
#DESCRIPTION:;
#CHARTSTYLE:;
#DIFFICULTY:Beginner;
#METER:7;
#METERF:7.000000;
#LASTSECONDHINT:115.125999;
#RADARVALUES:0.283293,0.455297,0.372881,0.008475,0.000000,234.000000,190.000000,44.000000,1.000000,0.000000,0.000000,0.000000,0.000000,0.000000,0.283293,0.455297,0.372881,0.008475,0.000000,234.000000,190.000000,44.000000,1.000000,0.000000,0.000000,0.000000,0.000000,0.000000;
#CREDIT:YOSEFU;
#NOTES:
// measure 0
0000
0000
0000
0000
,  // measure 1
0000
0000
0000
0000
,  // measure 2
0000
0000
1000
0000
,  // measure 3
0010
0000
0100
0000
,  // measure 4
0001
0000
1000
0000
,  // measure 5
0100
0000
0010
0000
,  // measure 6
0001
0001
0001
0000
,  // measure 7
1000
0000
0010
0000
,  // measure 8
0100
0000
0001
0000
,  // measure 9
1000
0000
0100
0000
,  // measure 10
0100
0000
0110
0000
,  // measure 11
0010
0000
0001
0000
,  // measure 12
1000
0000
0010
0000
,  // measure 13
0100
0000
0001
0000
,  // measure 14
1000
0000
1001
0000
,  // measure 15
0001
0000
0010
0010
,  // measure 16
0010
0000
1000
0000
,  // measure 17
0001
0000
0100
0100
,  // measure 18
0100
0000
1001
0001
,  // measure 19
0001
0000
1000
1000
,  // measure 20
1000
0000
1001
0001
,  // measure 21
0001
0000
1000
1000
,  // measure 22
1000
0000
0110
0010
,  // measure 23
0010
0000
1000
1000
,  // measure 24
1000
0000
0001
0001
,  // measure 25
0001
0001
0001
0000
,  // measure 26
1000
0000
1001
0001
,  // measure 27
0000
0001
0000
0100
,  // measure 28
0000
0010
0000
1000
,  // measure 29
0000
0001
0001
0000
,  // measure 30
0010
0000
0110
0100
,  // measure 31
0000
1000
0000
0001
,  // measure 32
0000
0100
0100
0100
,  // measure 33
0100
0100
0100
0000
,  // measure 34
0001
0000
1001
1000
,  // measure 35
1000
0000
0010
0010
,  // measure 36
0010
0000
0100
0100
,  // measure 37
0100
0000
0001
0001
,  // measure 38
0001
0000
1000
1000
,  // measure 39
1000
0000
0100
0100
,  // measure 40
0100
0000
0010
0000
,  // measure 41
0010
0000
0001
0001
,  // measure 42
0001
0001
0001
0100
,  // measure 43
0000
0001
0000
1000
,  // measure 44
0000
0001
1001
0000
,  // measure 45
0110
0000
1001
0000
,  // measure 46
0110
0000
0001
0001
,  // measure 47
0000
1000
0000
0100
,  // measure 48
0000
0010
0110
0000
,  // measure 49
1001
0000
0110
0000
,  // measure 50
0000
1001
0000
0000
0000
0000
0000
0000
,  // measure 51
1001
0000
0000
0000
,  // measure 52
0110
0000
0000
0000
,  // measure 53
1001
0000
0000
0000
,  // measure 54
0110
0000
0000
0000
,  // measure 55
1000
1000
1000
0000
,  // measure 56
0001
0001
0001
0000
,  // measure 57
0100
0100
0100
0100
,  // measure 58
0100
0100
0100
0100
,  // measure 59
0110
0000
0000
0000
,  // measure 60
0001
0000
0001
0000
,  // measure 61
1001
1001
1001
0000
,  // measure 62
0110
0110
0110
0000
,  // measure 63
1001
1001
1001
0000
,  // measure 64
0001
0001
0001
0001
,  // measure 65
1001
1001
1001
0000
,  // measure 66
0110
0110
0110
0000
,  // measure 67
0100
0100
0100
0100
,  // measure 68
0100
0100
0200
0300
,  // measure 69
0000
1001
0000
0110
,  // measure 70
0000
1001
0000
0110
,  // measure 71
0010
0010
0010
0010
,  // measure 72
1000
1000
1000
1000
,  // measure 73
0000
0110
0000
1001
,  // measure 74
0000
0110
0110
0000
,  // measure 75
1000
0001
1000
0001
,  // measure 76
0100
0000
0000
0010
;

//---------------dance-single - ----------------
#NOTEDATA:;
#CHARTNAME:;
#CHARTHASH:694578277;
#STEPSTYPE:dance-single;
#BANNER:;
#DESCRIPTION:;
#CHARTSTYLE:Pad;
#DIFFICULTY:Easy;
#METER:10;
#METERF:10.000000;
#LASTSECONDHINT:115.125999;
#RADARVALUES:0.458838,0.552860,0.449153,0.076271,0.008475,379.000000,326.000000,53.000000,9.000000,0.000000,0.000000,0.000000,0.000000,0.000000,0.458838,0.552860,0.449153,0.076271,0.008475,379.000000,326.000000,53.000000,9.000000,0.000000,0.000000,0.000000,0.000000,0.000000;
#CREDIT:YOSEFU;
#NOTES:
0000
0000
0000
0000
,
0000
0000
0000
0000
,
0000
0000
1000
0010
,
1000
0001
0010
0001
,
1000
0100
0010
0001
,
1000
0010
0100
0001
,
1000
0010
1000
0000
0001
0000
0010
0000
,
0001
1000
0010
1000
,
0001
0010
0100
1000
,
0001
0100
0010
0010
,
0110
0110
1001
0000
,
0001
0001
1000
0010
,
0100
0001
1000
0000
,
0100
0100
0010
0001
,
1000
0010
0100
0001
,
0100
0001
1000
0100
,
1000
0000
0100
0000
0010
0100
0010
0000
,
0001
1000
0001
0000
0100
0000
0010
0000
,
1000
0001
1001
1000
,
1000
1000
0010
0100
,
0001
1000
0001
0010
,
0010
0010
0100
1000
,
0001
0100
1001
0001
,
0001
0001
1000
0100
,
0010
0000
0001
0000
1000
0000
0010
1000
,
0010
0000
1000
0001
1000
0000
0001
0010
,
0001
0000
1001
0000
1001
0000
1000
0010
,
1000
0000
0001
0000
0100
0000
0010
1000
,
0010
0000
0100
0001
0100
0000
0001
1000
,
0001
1000
0100
0010
,
0001
0000
1000
0000
1001
0000
0001
0100
,
0001
0000
1000
0100
1000
0000
0001
0010
,
0001
0000
1000
0010
1000
0000
1000
0000
,
0001
1000
0001
1000
0000
0000
0000
0000
,
0000
0001
1001
1001
,
1001
0000
1000
0010
1000
0000
0001
0000
,
0010
0000
0100
1000
0100
0000
0010
0000
,
0001
0000
1000
0010
1000
0000
0001
0000
,
0010
0100
0010
0000
0110
0000
0110
0000
,
0110
0000
0100
1000
0100
0000
0010
0000
,
0001
0000
1000
0001
1000
0000
0010
0000
,
0100
0001
1000
1000
,
1000
1000
1000
1001
,
0001
1001
1000
0010
,
0100
0110
1001
1001
,
0001
1001
2000
3002
,
2003
3002
0103
0110
,
0010
0110
0100
0001
,
1000
1001
1001
0000
,
0110
0000
1001
0000
,
0000
0220
0000
0000
0000
0000
0330
0000
,
1001
0000
0001
1001
,
0110
0000
0100
0110
,
1001
0000
1000
1001
,
0110
0000
0010
0100
,
0001
1000
0001
1000
,
0100
0010
0001
1000
,
0010
0100
0010
0000
1000
0001
1000
0000
,
0001
0010
0001
0010
0001
1000
0010
0000
,
1001
0000
0000
0000
,
1000
1000
0010
0010
,
1010
1001
1010
1001
,
0011
0000
1001
0000
0011
0000
0010
0001
,
1000
0001
1000
0000
1001
0000
0101
0000
,
0001
1000
0100
0010
0001
0000
1001
0000
,
0101
1001
1100
1001
,
0101
0000
1001
0000
1010
0000
0010
1000
,
0001
0000
0000
0001
0000
0000
0001
0000
1000
0000
0000
1000
0000
0000
1000
0000
,
0001
0100
0001
0000
1000
0100
0020
0000
,
0031
0000
0010
0100
0000
1000
0000
0001
,
0000
0100
0000
0010
0000
1000
0000
0100
,
0010
0001
1000
0000
0010
0100
0001
0000
,
1000
0001
1000
0000
0001
0010
0100
1000
,
1001
0000
0001
0100
0000
0010
0000
1000
,
0000
0100
0000
0010
0002
0000
2003
0000
,
3001
0100
0010
1000
0001
0010
0100
1000
,
0001
0000
1000
0010
;

//---------------dance-single - ----------------
#NOTEDATA:;
#CHARTNAME:;
#CHARTHASH:3761304214;
#STEPSTYPE:dance-single;
#BANNER:;
#DESCRIPTION:;
#CHARTSTYLE:;
#DIFFICULTY:Medium;
#METER:13;
#METERF:13.000000;
#LASTSECONDHINT:115.125999;
#RADARVALUES:0.613801,0.747987,0.508475,0.118644,0.139831,507.000000,447.000000,60.000000,14.000000,0.000000,0.000000,0.000000,0.000000,0.000000,0.613801,0.747987,0.508475,0.118644,0.139831,507.000000,447.000000,60.000000,14.000000,0.000000,0.000000,0.000000,0.000000,0.000000;
#CREDIT:YOSEFU;
#NOTES:
0000
0000
0000
0000
,
0000
0000
0000
0000
,
0000
0000
0000
0000
1000
0010
1000
0000
,
0001
0000
0010
0000
0001
0000
2000
0000
0000
0000
3100
0000
0010
0000
0000
0200
,
0000
1300
0001
0100
0000
0010
0100
0001
,
0000
1000
0100
0010
0000
0001
1000
0010
,
0100
0000
0101
0000
0001
0100
0001
0000
,
1000
0000
0100
0000
1000
0000
0002
0000
0000
0000
0103
0000
0010
0000
0000
2000
,
0000
3001
0010
0100
1000
0001
0100
0000
,
0001
1000
0100
0000
0110
0000
0011
0000
,
1001
1010
0110
0100
,
0001
1000
0001
1000
0000
0001
0010
0001
,
0010
0100
1000
0000
0001
0100
0001
0000
,
1000
0100
1000
0100
0000
0010
0001
1000
,
0010
0100
0001
0000
1000
0000
0100
0000
,
0010
0000
0001
0000
1000
0010
0100
0010
,
1000
0001
0010
0000
0100
1000
0001
0100
,
0010
1000
0100
0010
0001
1000
0010
0100
,
0010
0100
0001
0000
1001
0000
0001
0100
,
0001
0100
0001
0000
1000
0100
1000
0000
,
0001
0000
0000
0001
0000
0000
0001
0000
0101
0000
0000
0000
1000
0000
0100
0000
,
1000
0100
1000
0000
0001
0100
0010
1000
,
0001
0000
1001
0000
1010
0000
1000
0100
,
1000
0100
1000
0000
0001
0100
0001
0000
,
0010
0000
0000
0000
0000
0000
0000
0000
0000
0010
0000
0000
0000
0000
0000
0000
0000
0000
0010
0000
0000
0000
0000
0000
0011
0000
0000
0000
0000
0000
0000
0000
0000
0000
0000
0000
0001
0000
0000
0000
0000
0000
0000
0000
0001
0000
0000
0000
,
1000
0000
0000
0000
1000
0000
0010
0000
0000
0000
0010
0000
1000
0000
0000
0001
0000
0000
0010
0000
0000
0001
0000
0000
,
1000
0000
0000
0000
0100
0000
0000
0000
1100
0000
0000
0000
1000
0001
1000
0000
,
0010
0000
0000
0100
0000
0000
0100
0000
0001
0000
1000
0000
0100
0000
0010
0000
,
0001
0000
0010
0000
0100
0000
1000
0000
0001
0000
0000
0000
0100
0001
0100
0000
,
0001
0000
0000
1000
0000
0000
1000
0000
0010
0000
0100
0000
0001
0000
0010
0000
,
0100
0000
0000
0000
1100
0000
0000
0000
1001
0000
0000
0000
0001
0100
0001
0000
,
1000
0000
0000
0100
0000
0000
0100
0000
0010
0000
0001
0000
1000
0000
0010
0000
,
0100
0001
0010
0100
1000
0010
0100
0010
,
1000
0000
0001
0000
0010
0100
0010
0000
0002
0000
0000
0000
0000
0000
0000
0000
,
0000
1003
0010
0100
0110
0000
0101
0000
,
1001
0000
0000
0000
1000
0000
0100
0000
0000
0000
1000
0000
0001
0000
0000
0100
,
0000
0000
0100
0000
0010
0000
0000
1000
0000
0000
1000
0000
0100
0000
0010
0000
,
0000
0100
1000
0001
0000
0100
0010
1000
,
0001
0010
0010
0000
0011
0000
1001
0000
,
1010
0000
0000
0000
1000
0000
0001
0000
0000
0000
0100
0000
0001
0000
0000
0001
,
0000
0000
1000
0000
0100
0000
0000
0100
0000
0000
0010
0000
0001
0000
1000
0000
,
0010
1000
0001
0010
0011
0000
1001
0000
,
1010
0000
0110
0000
0100
0001
1000
0000
,
0100
1000
0001
0000
0100
0010
1000
0001
,
0010
0100
0100
0000
1000
0100
0010
0000
,
0001
0100
0010
0000
2000
0000
3002
0000
,
0020
0003
0230
0000
1300
0100
0010
0000
,
0001
0100
0010
0000
1000
0001
0010
0100
,
1000
0100
0100
0000
0110
0000
0000
0010
,
0011
0000
1001
0000
,
1000
2020
0000
0000
0000
0000
3030
0000
,
1001
0000
0000
0011
0000
0000
0110
0000
,
1100
0000
0000
1001
0000
0000
0001
0100
,
0101
0000
0000
1001
0000
0000
1100
0000
,
0110
0000
0000
0011
0000
0000
1001
0000
,
1000
0010
1000
0000
0001
0100
0001
0100
,
0000
0001
1000
0100
0010
0001
1000
0000
,
0001
0010
0001
0000
1000
0010
1000
0000
,
0001
0010
0100
1000
0010
0100
0001
0000
,
1001
0000
0000
0000
,
1000
0000
0100
0000
0010
0000
0001
1000
,
1001
0000
0101
0000
0110
0000
1010
1000
,
1001
0000
0000
0000
0011
0000
0000
0000
0110
0000
0000
0100
1000
0000
0000
1000
,
0001
0100
0101
0000
1001
0000
1100
0100
,
0110
0010
0001
1000
0010
0100
0001
1000
,
0100
0000
1100
0000
1001
0000
0101
0100
,
0110
0000
0000
0000
1010
0000
0000
0000
1001
0000
0000
0001
0100
0000
0000
0100
,
0010
0000
0000
1000
0000
0010
1000
0000
0001
0000
0000
0100
0000
0001
0100
0000
,
0001
1000
0100
0010
0100
1000
0002
0000
,
1003
0000
0001
0100
1000
0100
0001
1000
,
0100
0010
0001
0010
1000
0010
0001
1000
,
0010
1000
0010
0000
0100
0000
0000
0100
0001
0000
0000
0001
1000
0000
0010
0000
,
1010
0000
1000
0000
1001
0000
0001
0010
0001
0000
1000
0010
1000
0000
0001
0000
,
0011
0000
0010
1000
0010
0001
0100
0010
,
0001
0010
0100
0001
2000
0000
3020
0000
,
1030
0000
0000
0001
1000
0000
0010
0000
0100
0000
0000
0001
1000
0000
0100
0000
,
0010
0001
0000
1000
0010
0100
0001
0000
;

//---------------dance-single - ----------------
#NOTEDATA:;
#CHARTNAME:;
#CHARTHASH:194943935;
#STEPSTYPE:dance-single;
#BANNER:;
#DESCRIPTION:;
#CHARTSTYLE:Pad;
#DIFFICULTY:Hard;
#METER:16;
#METERF:16.000000;
#LASTSECONDHINT:115.125999;
#RADARVALUES:0.800242,0.878072,0.406780,0.237288,0.580508,661.000000,613.000000,48.000000,28.000000,0.000000,0.000000,2.000000,0.000000,0.000000,0.800242,0.878072,0.406780,0.237288,0.580508,661.000000,613.000000,48.000000,28.000000,0.000000,0.000000,2.000000,0.000000,0.000000;
#CREDIT:YOSEFU;
#NOTES:
0000
0000
0000
0000
,
0000
0000
0000
0000
,
0000
1000
0100
0010
0001
1000
0010
0100
,
0010
0000
1000
0000
0001
0000
0020
0000
0000
0000
0031
0000
1000
0000
0000
0020
,
0000
0130
0001
2000
0000
3100
0010
0001
,
0100
0010
1000
0002
0000
0103
0010
1000
,
0001
0010
0010
0000
0001
0100
0010
0100
,
0001
0000
1000
0000
0100
0000
0020
0000
0000
0000
0031
0000
1000
0000
0000
0020
,
0000
0130
0001
2000
0000
3100
0010
0100
,
1000
0001
0100
0010
1000
0001
0010
0100
,
1100
0000
0000
1001
0000
0000
0101
0000
0001
0000
0010
0000
0002
0000
0000
0000
,
1003
0010
1000
0020
0000
0130
0100
0100
,
0100
0001
1000
0000
0100
0010
0200
0000
,
1300
0001
1000
0002
0000
0103
0100
0100
,
0100
0010
1000
0000
0001
0010
0100
1000
,
0001
0100
0010
0100
0001
1000
0100
0010
,
0001
0000
1000
0000
0010
0000
0100
0000
0001
0100
0001
0100
0001
0000
1000
0000
,
0001
0010
0001
0010
0001
0000
1000
0000
0010
0000
0100
0000
0100
0000
0100
0000
,
0100
0000
0001
0000
1000
0000
0000
0000
1001
0000
0000
0000
0001
0100
0001
0000
,
1000
0100
1000
0000
0001
0010
0001
1000
0010
0000
1000
0001
0010
0000
0100
0000
,
1100
0000
0000
1001
0000
0000
0101
0000
1001
0000
0000
0000
1000
0010
1000
0000
,
0001
0010
0001
0000
1000
0100
1000
0001
0100
0000
0010
0000
1000
0000
0001
0000
,
0010
0000
0100
0000
0010
0000
0001
0000
1001
0000
0000
0000
1000
0010
0100
0000
,
0001
1000
0100
0000
1000
0010
0100
0001
1000
0000
0001
0010
0100
0000
1000
0000
,
1100
0000
0000
0000
0000
0000
0000
0000
0000
1001
0000
0000
0000
0000
0000
0000
0000
0000
1010
0000
0000
0000
0000
0000
0110
0000
0000
0000
0000
0000
0000
0000
0000
0000
0000
0000
0010
0000
0000
0000
1000
0000
0000
0000
0100
0000
0000
0000
,
0001
0000
0100
0000
0010
0000
0001
0000
0100
0000
0010
0000
1000
0000
0000
0100
0000
0000
0010
0000
0000
0001
0000
0000
,
0011
0000
0000
1001
0000
0000
1010
0000
1001
0000
0000
0000
0001
0010
0001
0010
,
0001
0000
1000
0010
0000
1000
0001
0000
0100
0000
0001
1000
0001
1000
0001
0000
,
1000
0000
0100
0010
0100
0010
0100
0000
1100
0000
0000
0000
1000
0001
1000
0001
,
1000
0000
0001
0100
0000
0001
1000
0000
0001
0000
0010
0000
0100
0000
1000
0000
,
0010
0000
0010
0000
0100
0000
0100
0000
0101
0000
0000
0000
0001
0100
0010
1000
,
0100
0000
0010
0001
0000
1000
0010
0000
0100
0000
0001
1000
0100
0010
0100
1000
,
0001
0000
1000
0010
0100
0001
0100
0010
1000
0000
1000
0000
0010
0000
0010
0000
,
0100
0001
1000
0100
0010
0001
1000
0010
0200
0000
0000
0000
0000
0000
0000
0000
,
0000
0301
0010
0100
1100
1000
0001
1000
,
0010
0000
1000
0000
0001
0000
0020
0000
0000
0000
0130
0000
1000
0000
0000
0002
,
0000
0103
0010
2000
0000
3001
0010
0100
,
0010
0001
1000
0020
0000
0130
0001
1000
,
0100
0010
0010
0000
0011
0001
1000
0001
,
0010
0000
0001
0000
1000
0000
0020
0000
0000
0000
0130
0000
0001
0000
0000
2000
,
0000
0000
3100
0000
0010
0000
0001
0000
0011
0000
0000
0001
0000
0000
1000
0000
,
1010
0000
0000
0010
0000
0000
0100
0000
0102
0000
0000
0000
0203
0000
0000
0000
,
0320
0000
2030
0000
3001
0100
0010
0000
,
1000
0100
0010
0000
0001
0010
0100
1000
,
0001
0100
0010
0000
1010
1000
0001
0000
,
0011
0001
1000
0000
0002
0000
0023
0000
,
0230
0000
2300
0000
3001
0100
0010
0000
,
1000
0001
0010
0000
0100
1000
0001
0100
,
0010
1000
0001
0010
0011
0001
1000
0010
,
1010
1000
0100
0010
0011
0001
1000
0010
,
0100
0102
0000
0000
0000
0000
0003
0000
,
1001
0000
0000
1000
0000
0000
1100
0000
0000
0100
0000
0000
0110
0000
0000
0000
,
0011
0000
0000
0001
0000
0000
1001
0000
0000
1000
0000
0000
1010
0000
1000
0001
,
0010
0000
0000
0001
0000
0000
1001
0000
0000
1000
0000
0000
1010
0000
0010
0000
,
0110
0000
0000
0100
0000
0000
0101
0000
0000
0001
0000
0000
1001
0000
0000
0000
,
1000
0100
0010
0100
1000
0001
0100
0010
,
1000
0001
0001
0001
0001
0010
0100
1000
,
0001
0100
0001
0100
0001
0000
1000
0000
0001
0010
0001
0010
0001
0000
1000
0000
,
0001
0100
0001
0100
0010
0100
0010
0100
0010
1000
0010
1000
0100
0000
0000
0000
,
0110
0000
0010
0010
0001
0001
1000
0000
,
0001
0000
0100
0000
0010
0000
0100
0000
0001
0000
0000
0000
1000
0000
0100
0010
,
0001
0000
0000
0000
1000
0010
0100
0000
0001
0010
0100
0000
1000
0001
0100
0001
,
1000
0000
0100
0010
0001
0000
1000
0000
1010
0000
0000
1000
0001
0100
0000
0001
,
0010
0000
0010
0000
0001
1000
0100
0000
1000
0001
0010
0000
0100
1000
0001
0100
,
0010
0000
0010
0000
1000
0001
0010
0100
1000
0000
0010
0000
0100
0000
0001
0000
,
1001
0000
0000
0000
1000
0100
0010
0000
0100
1000
0001
0000
0100
0010
1000
0001
,
0010
0000
0001
1000
0010
0000
0100
0000
0101
0000
0000
0001
1000
0100
0000
0010
,
0001
0000
0100
0010
0000
0001
0010
0000
1000
0000
0100
0010
0000
1000
0010
0100
,
1000
0000
0001
0000
0100
0000
0010
0000
1000
0100
0010
0001
0200
0000
0000
0000
,
0301
0000
0000
0000
0001
0100
0000
0001
0000
1000
0100
0010
0001
0000
1000
0010
,
0100
0000
0001
1000
0100
0000
0010
0100
1000
0000
0001
0100
0010
1000
0010
0000
,
0100
0001
0010
0001
0100
0000
0000
0001
1000
0010
0000
0000
0100
0000
0100
0000
,
0101
0000
0001
0000
1001
0000
0000
1000
0100
0010
0100
1000
0001
0100
0000
0000
,
1001
0000
0000
0000
0001
0010
0000
0001
0000
1000
0010
0100
0001
0000
1000
0100
,
0010
0000
0100
1000
0001
0000
0100
0010
4000
0000
0000
0000
0000
0000
0000
0000
,
3001
0010
0000
0001
1000
0000
0040
0000
0130
0000
0001
1000
0000
0100
0010
0000
,
0001
0010
0100
1000
0010
0100
0001
0000
;

//---------------dance-single - ----------------
#NOTEDATA:;
#CHARTNAME:;
#CHARTHASH:2407974538;
#STEPSTYPE:dance-single;
#BANNER:;
#DESCRIPTION:;
#CHARTSTYLE:;
#DIFFICULTY:Challenge;
#METER:18;
#METERF:18.000000;
#LASTSECONDHINT:115.125999;
#RADARVALUES:1.004843,1.105720,0.466102,0.279661,1.101695,830.000000,775.000000,55.000000,33.000000,0.000000,0.000000,1.000000,0.000000,0.000000,1.004843,1.105720,0.466102,0.279661,1.101695,830.000000,775.000000,55.000000,33.000000,0.000000,0.000000,1.000000,0.000000,0.000000;
#CREDIT:ヨセフ2022;
#NOTES:
0000
0000
0000
0000
,
0000
0000
0000
0000
,
0000
0001
0010
0100
1000
0001
0100
0001
,
1000
0000
0100
0000
0010
0000
0002
0000
0000
0000
1003
0000
0010
0100
0000
0002
,
0000
0000
1003
0000
0100
0010
0002
0000
0000
0000
1003
0000
0010
0000
0100
0000
,
0001
0010
0100
0020
0000
0031
1000
0010
,
0100
0001
0002
0000
1003
0010
0100
0010
,
1000
0000
0100
0000
0010
0000
0002
0000
0000
0000
1003
0000
0010
0100
0000
0002
,
0000
0000
1003
0000
0100
0010
0000
0002
0000
0000
1003
0000
0010
0000
0100
0000
,
0010
0000
1000
0000
0001
0000
0010
0000
0100
0000
0010
0000
0001
0000
1000
0010
,
0100
0000
0001
1000
0000
0010
1000
0000
0100
0000
0010
0000
0001
0000
1000
0000
,
0010
0100
0010
0100
0001
1000
1000
1000
,
1000
0100
0010
0001
1000
0010
0100
0001
,
1000
0100
1000
0100
0010
0001
0001
0001
,
0001
0000
1000
0001
0010
0000
0010
0000
0100
0000
1000
0000
0001
0000
0100
0000
,
0010
1000
0001
0010
0100
0010
0010
0010
,
0010
0000
0001
0000
1000
0000
0010
0100
0001
1000
0001
1000
0100
1000
0100
1000
,
0100
0010
0100
0010
0001
0010
0001
1000
0010
0000
0100
0000
0100
0000
0100
0000
,
0100
0000
0000
0000
0001
0000
0000
0000
1000
0000
0000
0000
0000
0000
0000
0000
2002
0000
0000
0000
3003
0000
0000
0000
0001
0000
0010
0001
0010
0000
0000
0000
,
0001
0000
1000
0001
1000
0000
0000
0000
0001
0000
0100
0001
0100
0000
0001
0000
1000
0000
0000
0000
0100
0000
0010
0000
0001
0000
1000
0000
0010
0000
0000
0000
,
0100
0000
0001
0000
0000
0000
1000
0000
0100
0000
0000
0000
0110
0000
0000
0000
0022
0000
0000
0000
0033
0000
0000
0000
0001
0000
0100
0001
0100
0000
0000
0000
,
0001
0000
1000
0001
1000
0000
0000
0000
0001
0000
0010
0001
0010
0000
0001
0000
1000
0000
0010
0000
1000
0000
0010
0000
0100
0000
0001
0000
0100
0000
0001
0000
,
1000
0000
0100
0000
0010
0000
0001
0000
1000
0000
0001
0000
0010
0000
0100
0000
2000
0000
0000
0000
3000
0000
0000
0000
0001
0000
0100
0001
0100
0000
0000
0000
,
0001
0000
1000
0001
1000
0000
0000
0000
0100
0000
1000
0100
1000
0000
0001
0000
0100
0000
0000
0000
0010
0000
1000
0000
0001
0000
0010
0000
0100
0000
0000
0000
,
0010
0000
0000
0001
0000
0000
0000
0000
0000
1000
0000
0000
0010
0000
0000
0000
0000
0000
0110
0000
0000
0000
0000
0000
0202
0000
0000
0000
0000
0000
0303
0000
0000
0000
0000
0000
0100
0000
0000
0000
0001
0000
1000
0000
0001
0000
0000
0000
,
0010
0000
0000
0000
0100
0000
1000
0000
0100
0000
0000
0000
0010
0000
0000
0000
0001
0000
1000
0000
0001
0000
0000
0000
0100
0000
0000
0001
0000
0000
0100
0000
0000
0001
0000
0000
1000
0000
0000
0100
0000
0000
1000
0000
0000
0100
0000
0000
,
0010
0000
0000
0000
0001
0000
1000
0000
0000
0000
0010
0000
0100
0000
0000
0000
0101
0000
0000
0000
0000
0000
0000
0000
0001
0010
0001
0000
1000
0000
0001
0000
,
0010
0000
0001
0100
0000
0100
0010
1000
0001
0000
0010
0100
1000
0010
0100
0001
,
1000
0000
0000
0000
0100
0000
0010
0000
0001
0000
1000
0000
0020
0000
0000
0000
0130
0000
0000
0000
0000
0000
0000
0000
0001
1000
0001
0000
1000
0000
0100
0000
,
0010
0000
0001
1000
0000
0010
0100
0001
1000
0100
1000
0100
0010
0001
0010
0001
,
1000
0000
0000
0000
0000
0000
1000
0000
0001
0000
0000
0000
0000
0000
0001
0000
0100
0000
0000
0000
0000
0000
0000
0000
0001
0100
0001
0000
1000
0000
0100
0000
,
0010
0000
0100
0001
0000
0100
1000
0010
0100
0000
0001
1000
0001
0100
0010
0100
,
0001
1000
0100
1000
0001
1000
0010
0100
0001
1000
0001
1000
0100
1000
0100
1000
,
0001
0100
0010
1000
0001
0010
0100
1000
0020
0000
0000
0000
0000
0000
0000
0000
,
0000
1030
0010
1000
1010
1000
1001
1000
,
1010
1000
1001
0002
0013
0100
0010
0001
,
1000
0000
0010
0000
0100
0001
1000
0100
0010
0000
0100
0000
1000
0000
0001
0000
,
0100
0010
1000
0100
0010
0001
0010
0100
,
1000
0001
0002
0103
0101
0001
1001
0001
,
0101
0001
1001
2000
3100
0010
0100
1000
,
0001
0000
0100
0000
0010
1000
0001
0010
0100
0000
1000
0001
0000
0100
0001
0000
,
1000
0000
0010
0100
0000
0001
1000
0000
0200
0000
0000
0000
0320
0000
0000
0000
,
0032
0000
2003
0000
3010
0100
1000
0100
,
0010
0100
1000
0100
0010
1000
0001
0010
,
0100
1000
0001
1000
0010
0100
0001
0010
0011
0000
0001
0000
0010
0000
0001
0000
,
1001
1000
0100
0010
0021
0000
0230
0000
,
2300
0001
3002
0103
0010
0100
1000
0100
,
0010
0100
1000
0100
0010
1000
0001
0010
,
0100
1000
0001
0100
0010
1000
0001
1000
1001
0000
0001
0000
0010
0000
0100
0000
,
1100
0000
1000
0100
0010
0001
1000
0010
1010
0000
1000
0001
0010
0100
1000
0001
,
0100
0102
0000
0000
0000
0000
1003
0000
,
1100
0000
0000
0110
0000
0000
0011
0000
0000
1001
0000
0000
1010
0000
0000
0000
,
0110
0000
0000
0101
0000
0000
1001
0000
0000
1100
0000
0000
0110
0000
0010
0001
,
0011
0000
0000
1001
0000
0000
1010
0000
0000
0110
0000
0000
0101
0000
0001
0000
,
1001
0000
0000
1100
0000
0000
0110
0000
0000
0011
0000
0000
0001
1000
0100
0010
,
0001
1000
0010
1000
0100
0010
0001
1000
,
0010
0000
0100
0000
0100
0000
0100
0000
0100
0000
0001
0000
1000
0000
0100
0010
,
0001
1000
0001
1000
0010
1000
0010
1000
0010
0100
0010
0100
0001
0100
0001
0100
,
0001
1000
0100
0010
0001
0100
0010
1000
0001
0010
0100
1000
0010
0000
0000
0000
,
0110
0000
0100
1000
0100
0001
1000
0000
,
0100
0000
0001
0000
0100
0000
1000
0000
0001
0000
0100
0000
0010
0000
1000
0001
,
0011
0000
0000
0000
0000
0000
0000
0000
0010
0000
0001
1000
0001
0000
0000
0000
0100
0000
0010
1000
0010
0000
0000
0000
0100
0000
0001
1000
0001
0000
0010
0000
,
0100
0000
1000
0001
0100
0000
0010
0000
1000
0001
0000
0010
0100
1000
0000
0001
,
0101
0000
0000
0000
1001
0000
0000
0000
1100
0000
0000
0000
1000
0000
0000
0000
0001
0000
0100
0001
0100
0000
0000
0000
0010
0000
1000
0001
1000
0000
0100
0000
,
0010
0001
1000
0010
0100
0001
0010
0100
1000
0010
0100
0001
0010
0100
0010
0001
,
1001
0000
0000
0000
0000
0000
0000
0000
1000
0000
0100
0010
0100
0000
0000
0000
0010
0000
0001
1000
0001
0000
0000
0000
0100
0000
0010
1000
0010
0000
0100
0000
,
0001
0000
0010
0100
1000
0000
0020
0000
0130
0001
0000
1000
0100
0010
0000
0100
,
1100
0000
0001
0100
0000
0010
1000
0001
0011
0000
0010
0100
0000
1000
0001
0100
,
1000
0100
0010
1000
0100
0010
0001
1000
0010
0001
1000
0100
0002
0000
0000
0000
,
0023
0000
0030
0000
0001
0100
0010
0100
0001
1000
0100
0010
0100
0001
0100
1000
,
0000
0000
0001
0100
0010
0100
0001
1000
0010
0100
1000
0100
0010
1000
0001
0010
,
0100
0000
1000
0000
0001
0100
0001
0000
1000
0000
0000
0000
0000
0000
0001
0000
0010
0000
0100
0000
0000
0000
1000
0000
1001
0000
0000
0000
0101
0000
0000
0000
,
1001
0000
0000
0000
1100
0000
0000
0000
0110
0000
0000
0000
0010
0001
0010
0000
0100
0000
1000
0000
0001
0000
0100
0001
0100
0000
0001
1000
0001
0000
1000
0000
,
0200
0000
0300
0000
0010
0100
1000
0010
0100
0001
1000
0100
0010
1000
0010
0100
,
0000
0000
0000
0000
0000
0000
1000
0000
0000
0001
0000
0000
0100
0000
0000
0010
0000
0000
1000
0000
0000
0001
0000
0000
0040
0000
0000
0000
0000
0000
0000
0000
0000
0000
0000
0000
0130
0000
1000
0000
0001
0000
0100
0000
0010
0000
1000
0000
,
0001
0000
0010
0000
0000
0000
0001
0000
1001
0000
0000
0000
0001
0010
0001
0010
0001
0000
0000
0000
1000
0000
0010
0000
0000
0000
1000
0000
1001
0000
0000
0000
,
0001
0100
0010
1000
0100
0000
0010
0000
0001
0000
0100
0000
0010
0000
0000
0000
;

//---------------dance-single - BR+, BU, DS-, FS, JA, XO----------------
#NOTEDATA:;
#CHARTNAME:me when polka;
#CHARTHASH:1077936128;
#STEPSTYPE:dance-single;
#BANNER:;
#DESCRIPTION:BR+, BU, DS-, FS, JA, XO;
#CHARTSTYLE:Pad;
#DIFFICULTY:Edit;
#METER:19;
#METERF:19.000000;
#LASTSECONDHINT:115.125999;
#RADARVALUES:1.159806,1.463453,1.101695,0.279661,1.317797,958.000000,828.000000,130.000000,33.000000,9.000000,1.000000,3.000000,0.000000,0.000000,1.159806,1.463453,1.101695,0.279661,1.317797,958.000000,828.000000,130.000000,33.000000,9.000000,1.000000,3.000000,0.000000,0.000000;
#CREDIT:ヨセフ2022;
#NOTES:
0000
0000
0000
0000
,
0000
0000
0000
0000
,
0000
0001
0010
0100
1000
0001
0100
0001
,
2000
0000
3010
0000
0100
0000
0020
0000
1030
0000
0001
0000
0010
0100
0000
0020
,
0000
0000
0031
0000
1000
0010
0100
0000
0001
0000
1000
0000
0100
0000
0010
0000
,
0001
0100
0010
2000
3010
0100
0001
1000
,
0200
0010
0320
0000
0031
1000
0100
1000
,
0001
0000
0100
0000
0010
0000
0200
0000
0301
0000
1000
0000
0100
0010
0000
0002
,
0000
0000
1003
0000
0010
0100
0000
0001
1000
0000
0100
0000
0010
0000
0100
0000
,
1000
0000
0001
0000
0100
0000
0010
0000
1000
0000
0001
0000
0010
0000
0100
0000
1000
0000
0100
0000
0010
0000
0001
0000
1000
0000
0010
0000
0100
0000
0001
1000
,
0101
0000
1000
0101
0000
1000
0101
0000
1001
0000
1000
0000
0100
0000
1000
0000
,
0001
0100
0001
0100
0010
1000
1000
1000
,
1000
0001
0010
0001
1000
0100
0010
0001
,
1000
0010
1000
0010
0100
0001
0001
0001
,
0001
0000
1000
0001
0100
0000
0100
0000
0010
0000
1000
0000
0001
0000
0010
0000
,
0100
1000
0100
0010
0001
1000
1000
1000
,
1000
0000
0000
0000
0000
0000
0010
0000
0000
0000
0000
0000
0100
0000
0000
0000
0000
0000
0001
0000
1000
0000
0100
0000
0010
0000
0000
0001
0000
0000
1000
0000
0000
0010
0000
0000
0100
0000
0000
0001
0000
0000
1000
0000
0000
0100
0000
0000
,
0010
0001
1000
0010
1000
0001
0010
0001
1000
0000
0010
0000
0010
0000
0010
0000
,
0010
0000
0000
0000
0100
0000
0000
0000
0001
0000
0000
0000
0000
0000
0000
0000
1002
0000
0000
0000
0003
0000
0000
0000
1000
0000
0001
0010
0001
0000
0000
0000
,
1000
0000
0001
0100
0001
0000
0000
0000
1000
0000
0001
0010
0001
0000
1000
0000
0001
0000
0000
0000
0100
000M
0100
0000
1000
0000
0001
0000
0010
0000
0100
0000
,
1010
0000
0001
0000
0000
0000
1010
0000
0001
0000
0000
0000
1010
0000
0000
0000
0102
0000
0000
0000
0003
0000
0000
0000
1000
0000
0001
0010
0001
0000
0000
0000
,
1000
0000
0001
0100
0001
0000
0000
0000
1000
0000
0001
0010
0001
0000
1000
0000
0010
0000
0100
0000
0001
0000
1000
0000
0100
0000
0010
0000
0100
0000
1000
0000
,
0001
0000
0100
0000
0010
0000
0100
0000
0001
0000
1000
0000
0100
0000
0010
0000
0102
0000
0000
0000
0003
0000
0000
0000
1000
0000
0001
0010
0001
0000
0000
0000
,
1000
0000
0010
0100
0010
0000
0000
0000
1000
0000
0001
0100
0001
0000
1000
0000
0001
0000
0000
0000
0100
000M
0100
0000
1000
0000
0001
0000
0100
0000
0010
0000
,
1100
0000
0000
0001
0000
0000
0000
0000
0000
1100
0000
0000
0001
0000
0000
0000
0000
0000
1100
0000
0000
0000
0000
0000
0012
0000
0000
0000
0000
0000
0003
0000
0000
0000
0000
0000
1000
0000
0000
0000
0100
0000
0010
0000
0001
0000
0000
0000
,
0100
0000
0000
0000
0010
0000
1000
0000
0100
0000
0000
0000
0010
0000
0000
0000
0100
0000
0001
0000
0100
0000
0000
0000
0010
0000
0000
0000
0000
0000
0100
0000
0000
0000
0000
0000
1000
0000
0000
0000
0000
0000
0001
0000
0000
1000
0000
0000
,
0011
0000
0000
0000
1000
0000
0101
0000
0000
0000
1000
0000
0011
0000
0000
0000
2100
0000
0000
0000
3000
0000
0000
0000
0001
0100
0001
0100
0001
0000
1000
0000
,
0011
0000
1000
0100
M000
0100
0001
1000
0010
0000
0001
0010
0100
0001
0010
0100
,
1010
0000
0000
0000
0001
0000
0010
0000
0100
0000
1000
0000
0010
0000
0000
0000
0200
0000
0000
0000
0300
0000
0000
0000
0001
1000
0001
1000
0001
0000
0100
0000
,
0011
0000
1000
0100
M000
0100
0001
1000
0010
0100
0001
1000
0100
1000
0010
0100
,
0001
0000
0000
1000
0000
0000
0100
0000
0010
0000
0000
0100
0000
0000
1000
0000
0012
0000
0000
0000
0003
0000
0000
0000
1000
0010
1000
0010
0100
0000
0001
0000
,
1010
0000
0100
0010
0M00
0010
1000
0001
0010
0000
1000
0010
0100
1000
0010
0100
,
0011
1000
0001
0100
0010
1000
0010
0000
1000
0010
0100
0001
1000
0001
0010
0100
,
1000
0000
0000
0001
0000
0000
0100
0000
0000
0010
0000
0000
1000
0000
0100
0000
0010
0000
0001
0000
1000
0000
0010
0000
0200
0000
0000
0000
0000
0000
0000
0000
0000
0000
0000
0000
0000
0000
0000
0000
0000
0000
0000
0000
0000
0000
0000
0000
,
0000
0301
0010
0100
1100
1000
1001
1000
,
1100
0000
1000
0000
1001
0000
0002
0000
0103
0000
0010
1000
0001
0000
1000
0100
,
0000
1000
0100
0000
1000
0010
0100
0001
1000
0000
0001
0010
0100
0000
0010
0000
,
0001
0100
1000
0200
0301
1000
0100
0010
,
0100
1000
1000
0001
0101
0001
1001
0001
,
0101
0000
0001
0000
1001
0000
2000
0000
3100
0000
0010
0001
1000
0010
0000
0200
,
0001
0000
0310
0000
1000
0001
0010
0100
1000
0000
0001
0100
0000
0001
1000
0000
,
0001
0000
1000
0100
0000
1000
0001
0000
0020
0000
0000
0000
0230
0000
0000
0000
,
2300
0000
3002
0000
1003
0010
0001
0010
,
1000
0000
0010
0000
0001
0000
0010
0000
1000
0000
0100
0000
0010
0000
0001
1000
,
0010
0100
0001
1000
0100
0010
0100
1000
0101
0000
0010
0000
0001
0000
0001
0100
,
0021
0000
0100
0000
1030
0000
0010
1000
0002
0000
0000
0000
0023
0000
0000
0000
,
0231
0000
0010
0000
2300
0000
3010
1000
0100
0000
0010
0000
1000
0000
0010
0100
,
1000
0000
0010
0000
0001
0000
0010
0000
1000
0000
0100
0000
0010
0000
0001
1000
,
0010
0100
0010
1000
0100
0010
0001
1000
0011
0000
1000
0000
0001
0000
0010
0000
,
0101
0000
0000
0000
1000
0001
0100
0000
0010
0000
1000
0000
0001
0000
0010
0000
0101
0000
0000
0000
1000
0100
0010
0000
0001
0000
1000
0000
0010
0000
0100
0000
,
0001
1020
0000
0000
0000
0000
0031
0000
,
0011
0000
0000
1001
0000
0000
1010
0000
0000
0110
0000
0000
0101
0000
0000
0000
,
0011
0000
0000
0000
0000
0000
0000
0000
0000
1001
0000
0000
0000
0000
0000
0000
0000
0000
1100
0000
0000
0000
0000
0000
0000
0000
0000
0110
0000
0000
0000
0000
0000
0000
0000
0000
0011
0000
0000
0000
0000
0000
0001
0000
1000
0000
0010
0000
,
1100
0000
0000
1001
0000
0000
0011
0000
0000
0110
0000
0000
1100
0000
1000
0000
,
1010
0000
0000
0110
0000
0000
0101
0000
0000
1001
0000
0000
0001
0010
0100
1000
,
0010
0100
0001
1000
0100
0010
0001
0010
,
0100
0000
0000
1000
0000
0000
1000
0000
0000
1000
0000
0000
1000
0000
0000
0001
0000
0000
0100
0000
0000
0010
1000
0001
,
0010
0100
1000
0001
0100
0010
0100
0001
1000
0100
0010
0001
1000
0010
0100
0010
,
1000
0001
0010
0100
1000
0001
0100
0010
1000
0001
1000
0100
0010
0001
1000
0010
0100
0001
1000
0000
0000
0000
0000
0000
,
1001
0000
0004
1003
0040
1030
0004
1003
,
0001
0000
0010
0000
1000
0000
0010
0000
0001
0000
0100
0000
0010
0000
1100
0011
,
2100
0000
0000
0000
3000
0000
0000
0000
0011
0000
1000
0001
1000
0000
0000
0000
0101
0000
0010
0001
0010
0000
0000
0000
0011
0000
1000
0001
1010
0000
0101
0000
,
1010
0000
0100
01M0
0101
0000
1000
0000
0011
0000
1000
0101
1010
0101
0000
1100
,
0011
0000
0000
0000
0011
0000
0000
0000
0011
0000
1000
0001
1000
0000
0000
0000
0101
0000
1000
0001
1000
0000
0000
0000
0011
0000
1000
0001
1100
0000
0011
0000
,
1100
0000
0000
0000
1100
0000
0000
0000
1000
0001
1000
0001
1000
0000
0001
0000
1010
0000
0001
0000
1000
0000
0010
0000
0100
0000
0001
0000
0010
0000
0100
0000
,
1010
0000
0000
0000
0000
0000
0000
0000
0101
0000
1000
0001
1000
0000
0000
0000
0011
0000
1000
0010
1000
0000
0000
0000
0101
0000
1000
0001
1010
0000
0101
0000
,
1010
0000
0100
01M0
0101
0000
1000
0000
0011
1000
0000
0101
1010
0101
0000
1010
,
0101
0000
1010
0101
0000
1100
0011
1100
0011
0000
1100
0011
0000
1010
0101
1010
,
0001
0010
0100
1000
0010
0100
0001
1000
0100
0010
0100
1000
0020
0000
0030
0000
,
1010
0000
0000
0000
0000
0000
0000
0000
0010
0000
1000
0000
0001
0000
1000
0100
1000
0000
0001
0000
1000
0010
1000
0010
1000
0000
0000
0000
0100
M000
0100
0000
,
0001
0000
0000
0000
1000
0000
0010
0000
0100
0000
0000
0000
0001
0000
1000
0000
0100
0000
0010
0000
0001
1000
0001
1000
0001
0000
0100
0000
0010
0000
0000
0000
,
1100
0000
0011
0000
1000
0001
1000
0000
0011
0000
0000
0000
0000
0000
1100
0000
0011
0000
1100
0000
0000
0000
0101
0000
1010
0000
0000
0000
0011
0000
0000
0000
,
1010
0000
0000
0000
1010
0000
0000
0000
1010
0000
0000
0000
0000
0000
0001
0100
0001
0000
1000
0000
0001
0000
1000
0100
1000
0000
0001
0100
0001
0000
1000
0000
,
0002
0000
0000
0000
0003
0000
0000
0000
0010
0000
0001
0000
1000
0000
0001
0100
0001
0000
1000
0000
0001
0010
0001
0010
0001
0000
0000
0000
0100
000M
0100
0000
,
1000
0000
0000
0000
0000
0000
0010
0000
0000
0000
0000
0000
0100
0000
0000
0001
0000
0000
0000
0000
0000
1000
0000
0000
0010
0000
1000
0000
0001
0000
0010
0000
0100
0000
1000
0000
0001
0000
0100
0000
0010
0000
1000
0000
0001
0000
0010
0000
,
0101
0000
1010
0000
0000
0000
0101
0000
1010
0000
0000
0000
0001
0100
0001
0100
0001
0000
0000
0000
1010
0000
0101
0000
0000
0000
1100
0000
0011
0000
0000
0000
,
1000
0100
0010
0001
1000
0001
0100
0010
1000
0000
0001
0000
0100
0000
0000
0000
;
