#VERSION:0.83;
#TITLE:Offender;
#SUBTITLE:;
#ARTIST:Dimension;
#TITLETRANSLIT:;
#SUBTITLETRANSLIT:;
#ARTISTTRANSLIT:;
#GENRE:Drum and Bass;
#ORIGIN:Organ [DMNSNCD001];
#TAGS:;
#CREDIT:skeleton made by darkanine;
#BANNER:Offender.png;
#BACKGROUND:Offender-bg.png;
#PREVIEWVID:;
#JACKET:Offender-jacket.png;
#CDIMAGE:;
#DISCIMAGE:;
#LYRICSPATH:;
#CDTITLE:../_YSD cdtitles/ysd sale4 cdtitle.png;
#MUSIC:Offender.ogg;
#OFFSET:0.000000;
#SAMPLESTART:35.862000;
#SAMPLELENGTH:22.069000;
#SELECTABLE:YES;
#BPMS:0.000000=174.000000
;
#STOPS:;
#DELAYS:;
#WARPS:;
#TIMESIGNATURES:0.000000=4=4
;
#TICKCOUNTS:0.000000=4
;
#COMBOS:0.000000=1
;
#SPEEDS:0.000000=1.000000=0.000000=0
;
#SCROLLS:0.000000=1.000000
;
#FAKES:;
#LABELS:0.000000=Song Start
;
#BGCHANGES:;
#KEYSOUNDS:;
#ATTACKS:
;

//---------------dance-single - ----------------
#NOTEDATA:;
#CHARTNAME:;
#CHARTHASH:1404310126;
#STEPSTYPE:dance-single;
#BANNER:;
#DESCRIPTION:;
#CHARTSTYLE:;
#DIFFICULTY:Beginner;
#METER:3;
#METERF:0.000000;
#LASTSECONDHINT:119.999992;
#RADARVALUES:0.131815,0.215024,0.074146,0.140054,0.000000,112.000000,103.000000,9.000000,17.000000,0.000000,0.000000,0.000000,0.000000,0.000000,0.131815,0.215024,0.074146,0.140054,0.000000,112.000000,103.000000,9.000000,17.000000,0.000000,0.000000,0.000000,0.000000,0.000000;
#CREDIT:YOSEFU;
#NOTES:
// measure 0
0000
0000
0000
0000
,  // measure 1
0000
0000
0000
0000
,  // measure 2
0000
0000
0000
0000
,  // measure 3
0000
0000
0000
0000
,  // measure 4
0000
0000
0000
0000
,  // measure 5
0000
0000
0000
0000
,  // measure 6
1000
0000
0000
0000
,  // measure 7
0001
0000
0000
0000
,  // measure 8
0010
0000
0000
0000
,  // measure 9
0100
0000
0000
0000
,  // measure 10
1001
0000
0000
0000
,  // measure 11
1000
0000
0000
0000
,  // measure 12
0010
0000
0000
0000
,  // measure 13
0100
0000
0000
0000
,  // measure 14
0001
0000
0000
0000
,  // measure 15
1000
0000
0000
0000
,  // measure 16
0100
0000
0000
0000
,  // measure 17
0010
0000
0000
0000
,  // measure 18
1001
0000
0000
0000
,  // measure 19
1001
0000
0000
0000
,  // measure 20
0110
0000
0000
0000
,  // measure 21
0110
0000
0000
0000
,  // measure 22
1001
0000
0000
0000
,  // measure 23
1001
0000
0000
0000
,  // measure 24
0220
0000
0000
0000
,  // measure 25
0330
0000
0000
0000
,  // measure 26
0001
0000
0001
0000
,  // measure 27
0001
0000
0000
0000
,  // measure 28
1000
0000
1000
0000
,  // measure 29
1000
0000
0000
0000
,  // measure 30
0010
0000
0010
0000
,  // measure 31
0010
0000
0000
0000
,  // measure 32
0100
0000
0100
0000
,  // measure 33
0100
0000
0000
0000
,  // measure 34
0002
0000
0003
0000
,  // measure 35
0001
0000
0000
0000
,  // measure 36
0010
0000
0010
0000
,  // measure 37
0010
0000
0000
0000
,  // measure 38
0100
0000
0000
0000
,  // measure 39
1000
0000
0000
0000
,  // measure 40
0001
0000
0000
0000
,  // measure 41
1000
0000
0000
0000
,  // measure 42
0010
0000
0100
0000
,  // measure 43
0010
0000
0000
0000
,  // measure 44
1000
0000
0001
0000
,  // measure 45
1000
0000
0000
0000
,  // measure 46
0001
0000
0100
0000
,  // measure 47
0001
0000
0000
0000
,  // measure 48
1000
0000
0010
0000
,  // measure 49
1000
0000
0000
0000
,  // measure 50
0002
0000
0003
0000
,  // measure 51
0001
0000
0000
0000
,  // measure 52
1000
0000
0100
0000
,  // measure 53
1000
0000
0000
0000
,  // measure 54
0002
0000
0003
0000
,  // measure 55
0020
0000
0030
0000
,  // measure 56
0200
0000
0300
0000
,  // measure 57
2000
0000
3000
0000
,  // measure 58
0002
0000
0003
0000
,  // measure 59
0200
0000
0300
0000
,  // measure 60
0020
0000
0030
0000
,  // measure 61
2000
0000
3000
0000
,  // measure 62
0001
0000
1000
0000
,  // measure 63
0001
0000
0000
0000
,  // measure 64
1000
0000
0001
0000
,  // measure 65
1000
0000
0000
0000
,  // measure 66
0010
0000
0100
0000
,  // measure 67
0010
0000
0000
0000
,  // measure 68
0100
0000
0010
0000
,  // measure 69
0100
0000
0000
0000
,  // measure 70
0001
0000
0001
0000
,  // measure 71
1000
0000
1000
0000
,  // measure 72
0001
0000
0001
0000
,  // measure 73
1000
0000
1000
0000
,  // measure 74
0100
0000
0100
0000
,  // measure 75
0010
0000
0010
0000
,  // measure 76
0100
0000
0100
0000
,  // measure 77
0010
0000
0010
0000
,  // measure 78
2002
0000
3003
0000
,  // measure 79
0001
0000
1000
0000
,  // measure 80
0001
0000
1000
0000
,  // measure 81
0001
0000
1000
0000
,  // measure 82
0002
0000
0000
0000
,  // measure 83
0003
0000
0000
0000
,  // measure 84
0200
0000
0000
0000
,  // measure 85
0300
0000
0000
0000
,  // measure 86
0020
0000
0000
0000
,  // measure 87
0030
0000
0000
0000
;

//---------------dance-single - ----------------
#NOTEDATA:;
#CHARTNAME:;
#CHARTHASH:2147483647;
#STEPSTYPE:dance-single;
#BANNER:;
#DESCRIPTION:;
#CHARTSTYLE:;
#DIFFICULTY:Easy;
#METER:10;
#METERF:0.000000;
#LASTSECONDHINT:119.999992;
#RADARVALUES:0.353077,0.501722,0.313061,0.164769,0.000000,300.000000,262.000000,38.000000,20.000000,0.000000,0.000000,0.000000,0.000000,0.000000,0.353077,0.501722,0.313061,0.164769,0.000000,300.000000,262.000000,38.000000,20.000000,0.000000,0.000000,0.000000,0.000000,0.000000;
#CREDIT:YOSEFU;
#NOTES:
0000
0000
0000
0000
,
0000
0000
0000
0000
,
0000
0000
0000
0000
,
0000
0000
0000
0000
,
0000
0000
0000
0000
,
0000
0000
0000
0000
,
2000
3000
0001
0100
,
0001
0100
0010
1000
,
0200
0300
0010
0001
,
0010
0001
1000
0001
,
0200
0300
0010
1000
,
0010
1000
0100
0010
,
0002
0003
0100
0010
,
0100
0010
1000
0100
,
0020
0030
0001
0100
,
0001
0100
0010
1000
,
0100
0000
0010
0001
,
0010
0001
0100
0010
,
1010
0100
0010
0100
,
1001
0010
0100
0010
,
0101
0010
0100
0010
,
1100
0001
0010
0001
,
1100
0010
0101
0010
,
1001
0010
1100
0010
,
2002
0000
0000
0000
,
0000
0000
0000
3003
0000
0000
0000
0000
,
1000
0010
0100
0001
,
1000
0010
0100
1000
,
0100
0001
1000
0100
,
0010
0001
0010
1000
,
0010
0001
1000
0010
,
0100
0001
1000
0100
,
0001
0100
0010
0001
,
1000
0010
0001
0010
,
0100
0101
1001
1100
,
0100
0010
0001
0010
,
1000
0010
0100
1000
,
0010
0100
0001
0010
,
1000
0010
0001
0100
,
0010
1000
0100
0010
,
0001
0100
0010
1000
,
0001
0010
0100
1000
,
0001
0100
0010
0100
,
0001
1000
0100
0001
,
0100
1000
0001
0100
,
0010
1000
0100
0001
,
0100
1000
0001
0100
,
0010
1000
0100
0001
,
0100
0010
0001
1000
,
0010
0100
0001
0010
,
0100
1100
1001
0101
,
0100
0010
0100
0001
,
0010
1000
0010
0001
,
1000
0010
0100
0001
,
1000
0200
0000
0000
,
0000
0320
0000
0000
,
0000
0032
0000
0000
,
0000
0203
0000
0000
,
0000
0320
0000
0000
,
0000
0032
0000
0000
,
0000
0023
0000
0000
,
0000
2030
0000
0000
,
3001
0100
0010
0100
,
0001
1000
0100
1000
,
0001
0010
0100
0010
,
0001
1000
0010
0100
,
0001
0010
0100
1000
,
0100
0001
0100
1000
,
0001
0100
1000
0100
,
0010
0100
0001
1000
,
0100
0110
0000
0101
,
0100
1001
0000
1010
,
0001
0101
0000
1100
,
0100
1001
0000
0101
,
0010
1010
0000
1001
,
0001
0011
0000
1100
,
0010
0101
0000
1100
,
0010
0101
0000
1010
,
0010
0001
0010
0110
,
1000
1001
0000
0011
,
0010
1100
0000
0101
,
0010
1010
0000
1100
,
0002
0000
0000
0000
,
0203
0000
0000
0000
,
0320
0000
0000
0000
,
2030
0000
0000
0000
,
0002
0000
0000
0000
,
3003
0000
0000
0000
;

//---------------dance-single - ----------------
#NOTEDATA:;
#CHARTNAME:;
#CHARTHASH:2147483647;
#STEPSTYPE:dance-single;
#BANNER:;
#DESCRIPTION:;
#CHARTSTYLE:;
#DIFFICULTY:Medium;
#METER:13;
#METERF:0.000000;
#LASTSECONDHINT:119.999992;
#RADARVALUES:0.589638,0.645071,0.140054,0.329538,0.000000,501.000000,484.000000,17.000000,40.000000,0.000000,0.000000,0.000000,0.000000,0.000000,0.589638,0.645071,0.140054,0.329538,0.000000,501.000000,484.000000,17.000000,40.000000,0.000000,0.000000,0.000000,0.000000,0.000000;
#CREDIT:YOSEFU;
#NOTES:
0000
0000
0000
0000
,
0000
0000
0000
0000
,
0000
0000
0000
0000
,
0000
0000
0000
0000
,
0000
0000
0000
0000
,
0000
0000
0000
0000
,
2000
0000
3000
1000
0001
0100
0010
0000
,
0001
0100
0010
0000
0001
0100
0010
1000
,
0002
0000
0003
0001
0010
0100
1000
0000
,
0010
0100
1000
0000
0010
0100
1000
0001
,
0200
0000
0310
1000
0001
0010
0100
0000
,
0001
0010
0100
0000
0001
0010
0100
1000
,
0020
0000
0130
0001
1000
0100
0010
0000
,
1000
0100
0010
0000
1000
0100
0010
0001
,
0100
0001
0100
0001
1000
0100
1000
0100
,
0010
0001
0010
0001
1000
0010
1000
0010
,
0100
0001
0010
0100
1000
0001
0100
0001
,
0010
0100
1000
0010
0100
0001
1000
0100
,
0010
0000
0001
0100
0010
0000
1000
0001
,
0010
0000
0100
1000
0010
0000
0100
0001
,
0010
0000
0100
1000
0001
0000
0100
0010
,
1000
0000
0100
0010
0001
0000
0100
0010
,
1000
0010
1000
0010
0100
0001
0100
0001
,
1000
0100
1000
0100
0010
0001
0010
0001
,
0200
0000
0000
0000
,
0000
0000
0000
0300
,
0200
0000
0301
1000
0100
0010
0001
0000
,
0100
0010
0001
0000
0100
0010
0001
0100
,
0020
0000
1030
0001
0010
0100
1000
0000
,
0010
0100
1000
0000
0010
0100
1000
0001
,
0100
0000
0010
1000
0001
0010
0100
0000
,
0001
0010
0100
0000
0001
0010
0100
0010
,
0001
0000
0100
0010
1000
0001
0010
0000
,
1000
0001
0010
0000
1000
0001
0010
0100
,
1000
0000
0001
0100
1000
0100
0001
0000
,
1000
0100
0001
0000
1000
0100
0001
0010
,
0200
0000
1300
0001
0100
0010
1000
0000
,
0100
0010
1000
0000
0100
0010
1000
0100
,
0010
0001
0010
0001
1000
0010
1000
0010
,
0100
0001
0100
0001
1000
0001
1000
0001
,
1000
0100
0010
0001
1000
0010
0100
0001
,
1000
0100
0010
0001
0100
0010
1000
0001
,
0010
0100
0010
0001
1000
0010
0100
0000
,
1000
0010
0100
0000
1000
0010
0100
0001
,
0010
0100
0010
0001
0100
0010
1000
0000
,
0100
0010
1000
0000
0100
0010
1000
0001
,
0010
0100
1000
0010
0100
0001
0010
0000
,
0100
0001
0010
0000
0100
0001
0010
0100
,
0010
0001
1000
0010
0100
0001
0010
0100
,
1000
0001
0100
0010
0100
0001
1000
0100
,
0010
0000
0001
0010
1000
0010
0001
0000
,
1000
0010
0001
0000
1000
0010
0001
0100
,
0010
1000
0010
1000
0001
0010
0001
0010
,
0100
1000
0100
1000
0001
0100
0001
0100
,
0010
2000
0000
3002
,
0000
2003
0000
3002
,
0000
0023
0000
0230
,
0000
2300
0000
3002
,
0000
0203
0000
0320
,
0000
2030
0000
3200
,
0000
0302
0000
0203
,
0000
2300
0000
3001
,
1000
0010
1000
0000
0001
0010
0001
0000
,
1000
0100
1000
0000
0001
0100
0001
0000
,
1000
0010
1000
0000
0001
0010
0001
0000
,
1000
0100
1000
0000
0001
0100
0001
0000
,
1000
0100
1000
0100
0010
0001
0010
0001
,
1000
0010
1000
0010
0100
0001
0100
0001
,
1000
0100
0010
0001
1000
0010
0100
0001
,
1000
0100
0010
0001
0100
0010
1000
0001
,
0010
0000
0110
0000
0100
1000
1001
0000
,
0100
1000
1001
0000
0100
1000
0010
0100
,
0001
0000
0011
0000
0010
0100
1100
0000
,
0010
0100
1100
0000
0010
0100
1000
0010
,
0100
0000
0101
0000
0001
0010
0110
0000
,
0001
0010
0110
0000
0001
0010
0100
1000
,
0010
0000
0101
0000
1000
0100
0011
0000
,
1000
0100
0011
0000
1000
0100
0010
0100
,
1000
0100
0001
1000
0010
0001
0100
0000
,
0010
1000
0101
0000
0010
1000
0101
0001
,
0010
0000
1100
0000
0001
0100
1010
0000
,
0001
0010
1100
0000
0001
0100
0010
0100
,
0002
0203
0320
2030
,
3002
0023
0230
2300
,
3002
0203
2300
3002
,
0023
2030
3200
0320
,
0032
0000
0000
0000
,
0003
0000
0000
0000
;

//---------------dance-single - Yosefu (Offended)----------------
#NOTEDATA:;
#CHARTNAME:Yosefu (Offended);
#CHARTHASH:2147483647;
#STEPSTYPE:dance-single;
#BANNER:;
#DESCRIPTION:Yosefu (Offended);
#CHARTSTYLE:;
#DIFFICULTY:Hard;
#METER:16;
#METERF:0.000000;
#LASTSECONDHINT:119.999992;
#RADARVALUES:0.721453,0.895932,0.271869,0.288346,0.325419,613.000000,580.000000,33.000000,35.000000,15.000000,0.000000,0.000000,0.000000,0.000000,0.721453,0.895932,0.271869,0.288346,0.325419,613.000000,580.000000,33.000000,35.000000,15.000000,0.000000,0.000000,0.000000,0.000000;
#CREDIT:Yosefu (Offended);
#NOTES:
0000
0000
0000
0000
,
0000
0000
0000
0000
,
0000
0000
0000
0000
,
0000
0000
0000
0000
,
0000
0000
0000
0000
,
0000
0000
0000
0000
,
2000
0000
3000
1000
0010
0100
0001
0000
,
0010
000M
0000
0000
0100
0000
0000
0000
0001
0000
0000
0000
0000
0000
0000
0000
0010
000M
0000
0000
0100
0000
0000
0000
1000
0000
0000
0000
0100
0000
0000
0000
,
0002
0000
0003
0001
0010
0100
1000
0000
,
0010
M000
0000
0000
0100
0000
0000
0000
1000
0000
0000
0000
0000
0000
0000
0000
0010
M000
0000
0000
0100
0000
0000
0000
0001
0000
0000
0000
0100
0000
0000
0000
,
2000
0000
3000
1000
0100
0010
0001
0000
,
0100
000M
0000
0000
0010
0000
0000
0000
0001
0000
0000
0000
0000
0000
0000
0000
0100
000M
0000
0000
0010
0000
0000
0000
1000
0000
0000
0000
0010
0000
0000
0000
,
0002
0000
0003
0001
0100
0010
1000
0000
,
0100
M000
0000
0000
0010
0000
0000
0000
1000
0000
0000
0000
0000
0000
0000
0000
0100
M000
0000
0000
0010
0000
0000
0000
0001
0000
0000
0000
0010
0000
0000
0000
,
1000
0010
1000
0010
0100
0001
0100
0001
,
1000
0100
1000
0100
0010
0001
0010
0001
,
1000
0010
0100
0001
0010
0100
1000
0001
,
0100
0010
1000
0100
0010
0001
1000
0010
,
0100
0000
0001
0000
1000
0100
1000
0000
0001
0000
0010
0000
0001
1000
0001
0000
,
1000
0000
0010
0000
0100
0001
0100
0000
0001
0000
1000
0000
0100
0010
0100
0000
,
1000
0000
0001
0000
0100
0010
0100
0000
0001
0000
1000
0000
0100
1000
0100
0000
,
1000
0000
0001
0000
0100
0001
0100
0000
0010
0000
1000
0000
0001
0010
0001
0000
,
0100
0010
1000
0001
0011
0010
0100
1000
,
1001
0001
0100
0010
1010
1000
0100
0010
,
0021
0000
0000
0000
,
0200
0000
0000
0330
,
2000
0000
0000
0000
3001
0000
1000
0000
0001
1000
0001
0000
0010
0000
0000
0000
,
1000
00M0
0001
0000
1000
0000
0000
0000
0010
0000
0000
0000
0000
0000
0000
0000
00M1
0000
0100
0000
0010
0000
0000
0000
0001
0000
0000
0000
0010
0000
0000
0000
,
2000
0000
0000
0000
3100
0000
0010
0000
0001
1000
0001
0000
0100
0000
0000
0000
,
1000
0M00
0001
0000
1000
0000
0000
0000
0100
0000
0000
0000
0000
0000
0000
0000
0M01
0000
0010
0000
0100
0000
0000
0000
0001
0000
0000
0000
0100
0000
0000
0000
,
2000
0000
0000
0000
3001
0000
0100
0000
0010
1000
0010
0000
0100
0000
0000
0000
,
1000
0M00
0010
0000
1000
0000
0000
0000
0100
0000
0000
0000
0000
0000
0000
0000
0M10
0000
1000
0000
0100
0000
0000
0000
0001
0000
0000
0000
0100
0000
0000
0000
,
2000
0000
0000
0000
3001
0000
0100
0000
0001
0010
0001
0000
0100
0000
0001
0000
,
0010
0000
0100
0000
1000
0000
0010
0000
0100
0001
0010
0000
1000
0000
0010
0000
,
0001
0000
0000
0000
1000
0100
1000
0100
1000
0010
1000
0000
0100
0000
0000
0000
,
1000
0010
0100
0000
0001
0000
0000
0000
1M00
0001
0100
0000
1000
0000
0100
0000
,
0001
0000
0000
0000
0010
0000
0100
0000
1000
0010
0100
0000
0001
0000
0000
0000
,
0010
0100
1000
0000
0001
0000
0100
0000
0001
1000
0010
0000
0001
0000
0010
0000
,
1000
0010
1000
0010
0100
0001
0100
0001
,
0010
0100
0010
0100
1000
0001
1000
0001
,
0100
0010
1000
0100
0010
0001
0010
1000
,
0010
0001
0100
0010
1000
0010
0001
0010
,
2000
0000
0000
0000
3010
0000
0100
0000
0001
1000
0100
0000
0110
0000
0000
0000
,
0001
0100
0010
0000
1010
0000
0000
0000
1000
0001
0010
0000
1000
0000
0010
0000
,
0002
0000
0000
0000
1003
0000
0010
0000
0100
0001
1000
0000
1100
0000
0000
0000
,
0100
0010
0001
0000
0011
0000
0000
0000
0001
1000
0010
0000
0001
0000
0010
0000
,
2000
0000
0000
0000
3100
0000
0010
0000
0001
1000
0010
0000
0110
0000
0000
0000
,
0100
0001
1000
0000
1100
0000
0000
0000
0100
1000
0010
0000
0001
0000
0010
0000
,
2000
0000
0000
0000
3100
0000
0010
0000
0001
0100
0010
0000
1010
0000
0000
0000
,
1000
0000
0100
0000
0011
0000
0000
0000
0001
1000
0010
0000
0001
0000
0010
0000
,
1000
0000
0000
0000
0001
0010
0001
0010
0100
1000
0100
0000
0110
0000
0000
0000
,
0010
0001
0100
0000
0110
0000
0000
0000
0010
1000
0100
0000
0001
0000
0100
0000
,
2000
0000
0000
0000
3001
0000
0100
0000
0010
1000
0100
0000
0110
0000
0000
0000
,
0010
0001
0100
0000
0110
0000
0000
0000
0010
1000
0100
0000
0001
0000
0100
0000
,
1000
0002
0100
2003
,
0100
3002
0010
2003
,
0010
3002
0100
0023
,
0001
0230
1000
0320
,
1000
0032
0100
2003
,
0010
3200
0001
2300
,
0001
3020
0001
0230
,
1000
0302
0010
1003
,
0010
1000
0010
1000
0001
0010
0001
0010
,
0100
1000
0100
1000
0001
0100
0001
0100
,
0001
0010
0001
0010
0100
1000
0100
1000
,
0010
0100
0010
0100
0001
0010
0001
0010
,
0100
1000
0001
0100
0010
0001
0010
1000
,
0100
0001
0100
0010
0001
0100
0010
0001
,
0010
1000
0100
0010
0001
1000
0010
0100
,
0001
0010
0100
0000
1000
0001
0100
0010
,
1000
0000
0000
0000
0101
0000
0001
0000
1000
0100
0010
0000
0011
0000
0000
0000
,
0001
0100
0010
0000
1010
0000
0000
0000
1000
0100
0010
0000
1000
0000
0010
0000
,
0001
0000
0000
0000
0101
0000
0100
0000
0010
1000
0001
0000
0011
0000
0000
0000
,
0010
0100
1000
0000
1001
0000
0000
0000
0001
1000
0010
0000
0001
0000
0010
0000
,
1000
0000
0000
0000
1100
0000
0100
0000
0010
0001
0100
0000
0101
0000
0000
0000
,
0001
0010
0100
0000
1100
0000
0000
0000
1000
0001
0100
0000
1000
0000
0100
0000
,
0001
0000
0000
0000
0101
0000
0100
0000
0001
0010
0100
0000
1100
0000
0000
0000
,
1000
0010
0100
0000
0101
0000
0000
0000
0001
0000
0100
0000
1010
0000
0010
0000
,
1000
0010
1000
0010
0100
0001
0100
0001
0010
0100
1000
0001
0100
0000
0000
0000
,
0010
1000
0100
0000
0011
0000
0000
0000
0001
0100
0010
0000
0001
0000
0010
0000
,
1000
0000
0000
0000
1100
0000
0100
0000
0010
0001
0100
0000
0110
0000
0000
0000
,
0010
1000
0100
0000
0110
0000
0000
0000
0010
0001
0100
0000
1000
0000
0100
0000
,
0002
0100
1000
0010
,
0203
0010
1000
0010
,
0302
1000
0010
0100
,
2003
0001
0010
0100
,
3002
0000
0000
0000
,
0003
0000
0000
0000
;
