#VERSION:0.83;
#TITLE:Nonsense Spring;
#SUBTITLE:;
#ARTIST:good-cool ft. Sana;
#TITLETRANSLIT:;
#SUBTITLETRANSLIT:;
#ARTISTTRANSLIT:;
#GENRE:;
#ORIGIN:AD\:HOUSE 6 (Disc 1) [DVSP-0178];
#TAGS:;
#CREDIT:;
#BANNER:Nonsense Spring.png;
#BACKGROUND:Nonsense Spring-bg.png;
#PREVIEWVID:;
#JACKET:Nonsense Spring-jacket.png;
#CDIMAGE:;
#DISCIMAGE:;
#LYRICSPATH:;
#CDTITLE:../_YSD cdtitles/ysd sale4 cdtitle.png;
#MUSIC:Nonsense Spring.ogg;
#OFFSET:0.003000;
#SAMPLESTART:64.320000;
#SAMPLELENGTH:29.091000;
#SELECTABLE:YES;
#BPMS:0.000000=132.000000
;
#STOPS:;
#DELAYS:;
#WARPS:;
#TIMESIGNATURES:0.000000=4=4
;
#TICKCOUNTS:0.000000=4
;
#COMBOS:0.000000=1
;
#SPEEDS:0.000000=1.000000=0.000000=0
;
#SCROLLS:0.000000=1.000000
;
#FAKES:;
#LABELS:0.000000=Song Start
;
#BGCHANGES:;
#KEYSOUNDS:;
#ATTACKS:
;

//---------------dance-single - ----------------
#NOTEDATA:;
#CHARTNAME:;
#CHARTHASH:2357952122;
#STEPSTYPE:dance-single;
#BANNER:;
#DESCRIPTION:;
#CHARTSTYLE:;
#DIFFICULTY:Beginner;
#METER:1;
#METERF:0.000000;
#LASTSECONDHINT:123.633362;
#RADARVALUES:0.074182,0.081487,0.000000,0.000000,0.000000,65.000000,65.000000,0.000000,0.000000,0.000000,0.000000,0.000000,0.000000,0.000000,0.074182,0.081487,0.000000,0.000000,0.000000,65.000000,65.000000,0.000000,0.000000,0.000000,0.000000,0.000000,0.000000,0.000000;
#CREDIT:YOSEFU;
#NOTES:
// measure 0
0000
0000
0000
0000
,  // measure 1
0000
0000
0000
0000
,  // measure 2
0000
0000
0000
0000
,  // measure 3
0000
0000
0000
0000
,  // measure 4
1000
0000
0000
0000
,  // measure 5
0001
0000
0000
0000
,  // measure 6
0100
0000
0000
0000
,  // measure 7
0010
0000
0000
0000
,  // measure 8
0100
0000
0000
0000
,  // measure 9
0001
0000
0000
0000
,  // measure 10
1000
0000
0000
0000
,  // measure 11
0001
0000
0000
0000
,  // measure 12
1000
0000
0000
0000
,  // measure 13
0001
0000
0000
0000
,  // measure 14
0010
0000
0000
0000
,  // measure 15
0100
0000
0000
0000
,  // measure 16
1000
0000
0000
0000
,  // measure 17
0001
0000
0000
0000
,  // measure 18
0100
0000
0000
0000
,  // measure 19
0001
0000
0000
0000
,  // measure 20
1000
0000
0000
0000
,  // measure 21
0001
0000
0000
0000
,  // measure 22
1000
0000
0000
0000
,  // measure 23
0100
0000
0000
0000
,  // measure 24
0010
0000
0000
0000
,  // measure 25
0001
0000
0000
0000
,  // measure 26
1000
0000
0000
0000
,  // measure 27
0010
0000
0000
0000
,  // measure 28
0100
0000
0000
0000
,  // measure 29
0001
0000
0000
0000
,  // measure 30
1000
0000
0000
0000
,  // measure 31
0001
0000
0000
0000
,  // measure 32
0010
0000
0000
0000
,  // measure 33
0100
0000
0000
0000
,  // measure 34
1000
0000
0000
0000
,  // measure 35
0001
0000
0000
0000
,  // measure 36
0100
0000
0000
0000
,  // measure 37
0010
0000
0000
0000
,  // measure 38
1000
0000
0000
0000
,  // measure 39
0001
0000
0000
0000
,  // measure 40
0010
0000
0000
0000
,  // measure 41
0001
0000
0000
0000
,  // measure 42
1000
0000
0000
0000
,  // measure 43
0010
0000
0000
0000
,  // measure 44
0100
0000
0000
0000
,  // measure 45
0001
0000
0000
0000
,  // measure 46
1000
0000
0000
0000
,  // measure 47
0001
0000
0000
0000
,  // measure 48
0010
0000
0000
0000
,  // measure 49
0100
0000
0000
0000
,  // measure 50
1000
0000
0000
0000
,  // measure 51
0001
0000
0000
0000
,  // measure 52
0100
0000
0000
0000
,  // measure 53
0010
0000
0000
0000
,  // measure 54
1000
0000
0000
0000
,  // measure 55
0001
0000
0000
0000
,  // measure 56
1000
0000
0000
0000
,  // measure 57
0001
0000
0000
0000
,  // measure 58
0010
0000
0000
0000
,  // measure 59
0100
0000
0000
0000
,  // measure 60
1000
0000
0000
0000
,  // measure 61
0001
0000
0000
0000
,  // measure 62
0100
0000
0000
0000
,  // measure 63
0010
0000
0000
0000
,  // measure 64
1000
0000
0000
0000
,  // measure 65
0100
0000
0000
0000
,  // measure 66
0010
0000
0000
0000
,  // measure 67
0001
0000
0000
0000
,  // measure 68
1000
0000
0000
0000
;

//---------------dance-single - ----------------
#NOTEDATA:;
#CHARTNAME:;
#CHARTHASH:1077218629;
#STEPSTYPE:dance-single;
#BANNER:;
#DESCRIPTION:;
#CHARTSTYLE:;
#DIFFICULTY:Easy;
#METER:4;
#METERF:0.000000;
#LASTSECONDHINT:123.633362;
#RADARVALUES:0.224830,0.244460,0.111844,0.031956,0.000000,197.000000,183.000000,14.000000,4.000000,0.000000,0.000000,0.000000,0.000000,0.000000,0.224830,0.244460,0.111844,0.031956,0.000000,197.000000,183.000000,14.000000,4.000000,0.000000,0.000000,0.000000,0.000000,0.000000;
#CREDIT:YOSEFU;
#NOTES:
// measure 0
0000
0000
0000
0000
,  // measure 1
0000
0000
0000
0000
,  // measure 2
0000
0000
0000
0000
0000
0000
0000
1001
,  // measure 3
0000
0000
0000
0110
,  // measure 4
1001
0001
1000
0000
,  // measure 5
0001
0100
0010
0000
,  // measure 6
1000
0001
0010
0000
,  // measure 7
0100
1000
0001
0000
,  // measure 8
1001
1000
0010
0000
,  // measure 9
0100
0001
1000
0000
,  // measure 10
0100
0000
0010
0000
0001
0000
0000
0200
,  // measure 11
0000
0000
0000
0300
,  // measure 12
1010
1000
0001
0000
,  // measure 13
1000
0001
0010
0000
,  // measure 14
0100
1000
0001
0000
,  // measure 15
0001
0100
0010
0000
,  // measure 16
1001
0001
0010
0000
,  // measure 17
0100
1000
0010
0000
,  // measure 18
0100
0001
1000
0000
,  // measure 19
0100
0010
0001
0000
,  // measure 20
1010
1000
0001
0000
,  // measure 21
1000
0100
0010
0000
,  // measure 22
0001
0100
0010
0100
,  // measure 23
0001
1000
0001
0000
,  // measure 24
1100
0100
0010
0000
,  // measure 25
0001
0100
0010
0000
,  // measure 26
1000
0001
0010
0000
,  // measure 27
0100
0000
1000
0000
0010
0000
0000
0200
,  // measure 28
0000
0301
1000
0100
,  // measure 29
0010
0000
0001
0100
,  // measure 30
0010
0100
0100
0000
,  // measure 31
0001
0000
1000
0000
0100
0000
0000
0020
,  // measure 32
0000
0031
1000
0010
,  // measure 33
0100
0000
0001
1000
,  // measure 34
0100
0000
0010
0000
,  // measure 35
0001
0000
0000
1001
,  // measure 36
0001
1000
0001
0000
,  // measure 37
1000
0010
0100
0000
,  // measure 38
0001
1000
0100
0000
,  // measure 39
0010
0001
1000
0100
,  // measure 40
0010
0001
1000
0000
,  // measure 41
0001
0100
0010
0000
,  // measure 42
1000
0001
0010
0000
,  // measure 43
0100
0000
0000
0100
0000
0000
1100
0000
,  // measure 44
1000
0001
0100
0000
,  // measure 45
0010
1000
0001
0000
,  // measure 46
0010
0100
1000
0000
,  // measure 47
0010
0100
0001
1000
,  // measure 48
0010
0100
0001
0000
,  // measure 49
1000
0100
0010
0000
,  // measure 50
0001
0100
0010
0000
,  // measure 51
0110
0110
0000
0000
,  // measure 52
1001
1000
0001
0000
,  // measure 53
0100
0010
1000
0000
,  // measure 54
0001
1000
0100
0000
,  // measure 55
0010
0001
0100
0000
,  // measure 56
0010
1000
0001
0000
,  // measure 57
1000
0100
0010
0000
,  // measure 58
0001
0100
0010
0000
,  // measure 59
1000
0001
1000
0001
,  // measure 60
1000
0000
0001
0000
,  // measure 61
1000
0000
0001
0000
,  // measure 62
0100
0000
0010
0000
,  // measure 63
0100
0000
0010
0000
,  // measure 64
1001
0000
0000
0000
,  // measure 65
0001
0000
0000
0000
,  // measure 66
1000
0000
0000
0000
,  // measure 67
0200
0000
0000
0000
,  // measure 68
0300
0000
0000
0000
;

//---------------dance-single - ----------------
#NOTEDATA:;
#CHARTNAME:;
#CHARTHASH:2899184349;
#STEPSTYPE:dance-single;
#BANNER:;
#DESCRIPTION:;
#CHARTSTYLE:;
#DIFFICULTY:Medium;
#METER:8;
#METERF:0.000000;
#LASTSECONDHINT:123.633362;
#RADARVALUES:0.360641,0.380271,0.079889,0.055922,0.083883,316.000000,306.000000,10.000000,7.000000,0.000000,0.000000,0.000000,0.000000,0.000000,0.360641,0.380271,0.079889,0.055922,0.083883,316.000000,306.000000,10.000000,7.000000,0.000000,0.000000,0.000000,0.000000,0.000000;
#CREDIT:YOSEFU;
#NOTES:
// measure 0
0000
0000
0000
0000
,  // measure 1
0000
0000
0000
0000
,  // measure 2
0000
0000
0000
0000
0000
0000
0000
2002
,  // measure 3
0000
0000
0000
3003
0000
0001
1000
0100
,  // measure 4
0100
0000
0010
0000
0001
0010
0000
0001
,  // measure 5
1000
0010
0100
0001
0000
1000
0001
0100
,  // measure 6
0010
1000
0000
0001
0000
1000
0000
0100
,  // measure 7
0010
0000
0001
0000
0100
0001
1000
0001
,  // measure 8
1000
0000
0100
0000
0010
0100
0000
1000
,  // measure 9
0001
0100
0010
1000
0000
0001
0010
0001
,  // measure 10
1000
0001
0000
0100
0000
0010
0000
1000
,  // measure 11
0001
0000
0100
0000
0010
1000
0010
0000
,  // measure 12
0101
0000
0001
0000
1000
0001
1000
0000
,  // measure 13
0001
0000
0010
0000
0100
1000
0100
0000
,  // measure 14
0010
0000
0001
0000
1000
0001
1000
0000
,  // measure 15
0001
0100
1000
0100
,  // measure 16
0001
0000
1000
0000
0100
0010
0100
0000
,  // measure 17
1000
0000
0001
0000
0100
0010
0100
0000
,  // measure 18
0001
0000
0010
0000
0100
1000
0100
0000
,  // measure 19
0010
0001
1000
0010
,  // measure 20
0110
0000
0101
0000
1001
0000
1000
0100
,  // measure 21
1000
0000
0001
0100
0001
0000
1000
0000
,  // measure 22
0200
0010
2300
0001
,  // measure 23
3010
0000
0100
0001
0100
0000
0010
0000
,  // measure 24
1001
0000
1000
0001
0000
1000
0001
0000
,  // measure 25
1000
0000
0001
0100
0001
0000
1000
0001
,  // measure 26
1000
0000
0100
0010
0000
0100
0010
0000
,  // measure 27
0001
0000
1000
0010
1000
0000
0001
2000
,  // measure 28
0000
0000
3100
0000
0010
0001
0010
0000
,  // measure 29
0100
1000
0001
0100
,  // measure 30
0010
1000
0010
0000
0100
0000
0001
0000
,  // measure 31
1000
0000
0100
0010
0001
0000
0010
0002
,  // measure 32
0000
0000
1003
0000
0001
0000
1000
0010
,  // measure 33
1000
0000
0001
0000
1000
0000
0100
0010
,  // measure 34
0100
0000
1100
0000
,  // measure 35
0001
0001
0000
0000
0000
0000
1000
0000
,  // measure 36
1001
0000
0001
0000
0100
0010
0100
0000
,  // measure 37
0001
0000
0001
0000
1000
0100
1000
0000
,  // measure 38
0001
0000
0001
0000
0010
0100
0010
0000
,  // measure 39
0001
1000
0100
0010
,  // measure 40
0001
0000
0001
0000
1000
0100
1000
0000
,  // measure 41
0001
0000
0001
0000
1000
0010
1000
0000
,  // measure 42
0100
0000
0100
0000
0010
0001
0010
0000
,  // measure 43
0001
0001
0000
1100
0000
0000
1010
0000
,  // measure 44
0010
0000
0010
0000
0100
0001
1000
0000
,  // measure 45
0100
0000
0100
0000
0010
0001
1000
0000
,  // measure 46
0100
0000
0100
0000
0010
0001
0100
0000
,  // measure 47
0010
1000
0100
0001
,  // measure 48
0100
0000
0010
0000
0001
1000
0010
0000
,  // measure 49
0100
0000
0010
0000
1000
0001
0010
0000
,  // measure 50
0100
0000
1000
0000
0001
0100
0010
1000
,  // measure 51
0001
0001
0000
0000
,  // measure 52
1000
0000
0000
0000
1000
0000
0000
0100
0010
0000
0000
0000
0100
0000
0000
0000
,  // measure 53
1000
0000
0000
0000
1000
0000
0000
0001
0100
0000
0000
0000
0010
0000
0000
0000
,  // measure 54
1000
0000
0000
0000
1000
0000
0000
0001
0010
0000
0000
0000
0100
0000
0000
0000
,  // measure 55
1000
0000
0000
0000
1000
0000
0000
0001
0000
0001
0000
0001
0000
0100
0010
0000
,  // measure 56
1000
0000
0000
0000
1000
0000
0000
0001
0010
0000
0000
0000
0010
0000
0000
0000
,  // measure 57
0100
0000
0000
0000
0100
0000
0000
1000
0001
0000
0000
0000
0100
0000
0000
0000
,  // measure 58
0010
0000
0000
0000
0010
0000
0000
1000
0001
0000
0000
0000
0001
0000
0000
0000
,  // measure 59
0010
0100
0010
0000
0001
1000
0001
0000
,  // measure 60
0100
0000
0000
0000
0100
0000
0000
0010
0000
0000
0000
0000
0000
0000
0000
0000
,  // measure 61
1000
0000
0000
0000
1000
0000
0000
0001
0000
0001
0000
0000
0010
0000
0000
0000
,  // measure 62
0100
0000
0000
0000
0100
0000
0000
1000
0000
0000
0000
0000
0000
0000
0000
0000
,  // measure 63
0001
0000
0000
0000
0001
0000
0000
0100
0000
0100
0000
0100
0000
0010
0000
0000
,  // measure 64
1000
0000
0000
0000
1000
0000
0000
0001
0000
0000
0000
0000
0000
0000
0000
0000
,  // measure 65
0010
0000
0000
0000
0010
0000
0000
0100
0000
0000
0000
0000
0000
0000
0000
0000
,  // measure 66
1000
0000
0000
0000
1000
0000
0000
0010
0000
0000
0000
0000
0000
0000
0000
0000
,  // measure 67
0200
0000
0000
0000
,  // measure 68
0300
0000
0000
0000
;

//---------------dance-single - ----------------
#NOTEDATA:;
#CHARTNAME:;
#CHARTHASH:862115159;
#STEPSTYPE:dance-single;
#BANNER:;
#DESCRIPTION:;
#CHARTSTYLE:;
#DIFFICULTY:Hard;
#METER:12;
#METERF:0.000000;
#LASTSECONDHINT:123.633362;
#RADARVALUES:0.513571,0.516082,0.039944,0.287600,0.187739,450.000000,445.000000,5.000000,36.000000,0.000000,0.000000,0.000000,0.000000,0.000000,0.513571,0.516082,0.039944,0.287600,0.187739,450.000000,445.000000,5.000000,36.000000,0.000000,0.000000,0.000000,0.000000,0.000000;
#CREDIT:YOSEFU;
#NOTES:
// measure 0
0000
0000
0000
0000
,  // measure 1
0000
0000
0000
0000
,  // measure 2
0000
0000
0000
0000
0000
0000
0000
2002
,  // measure 3
0000
0000
0000
0000
0000
0000
3003
0000
0000
0000
0001
0100
0010
0000
1000
0000
,  // measure 4
1000
0000
0100
0000
0010
0000
0100
0000
0001
0000
0200
0000
0000
0000
1300
0001
,  // measure 5
0100
0000
1000
0000
0100
0000
0020
0000
0000
0000
1030
0000
0100
0010
0100
1000
,  // measure 6
0001
0100
0010
0100
0001
0020
0030
0010
,  // measure 7
0200
0000
0310
0002
0100
0000
1003
0010
,  // measure 8
0100
0000
0001
0000
0010
0000
0100
0000
0001
0000
0200
0000
0000
0000
0310
0001
,  // measure 9
0100
0000
1000
0000
0100
0000
0020
0000
0000
0000
0130
0000
0001
0010
0100
0010
,  // measure 10
0001
0100
0010
1000
0010
0100
0001
1000
,  // measure 11
0100
0000
0100
0000
0010
0000
0010
0000
0001
0000
0001
0000
1000
0000
0010
1000
,  // measure 12
0010
0000
0100
0100
0001
1000
0100
0020
,  // measure 13
0000
0031
1000
0002
0000
1003
0010
0100
,  // measure 14
0001
0000
0010
0000
0100
0000
1000
0000
0020
0000
0000
0032
0000
0000
0013
0000
,  // measure 15
0100
0000
0001
0000
0100
0000
0000
0000
0010
0000
1000
0000
0100
0010
0000
0000
,  // measure 16
0011
0000
0001
0001
0100
0010
0100
0002
,  // measure 17
0000
1003
0100
0010
0100
1000
0000
0001
,  // measure 18
0100
0001
1000
0001
0010
1000
0000
0010
,  // measure 19
0200
0000
0010
0000
1300
0001
1000
0001
,  // measure 20
1000
0000
0000
0000
0200
0000
0000
0000
1300
0000
0000
0010
1000
0000
0001
0000
,  // measure 21
0020
0000
0000
0000
0230
0000
0000
1300
0001
0000
0100
0000
0010
0000
0100
0000
,  // measure 22
0002
0000
0013
0100
2000
0000
3010
0100
,  // measure 23
0002
0000
0000
2003
0000
0000
3100
0000
0010
0000
0100
0000
1000
0000
0100
0000
,  // measure 24
0020
0000
0031
0200
0000
0310
1000
0200
,  // measure 25
0000
0000
0310
0000
0001
0000
0100
0000
0020
0000
0000
0032
0000
0000
0013
0000
,  // measure 26
0100
0000
0001
0020
0000
0130
1000
0010
,  // measure 27
0100
0100
0010
0010
1000
1000
0001
1001
,  // measure 28
0000
0000
1000
0000
0001
0000
1000
0100
1000
0000
0001
0000
0010
0000
0100
0000
,  // measure 29
1000
0001
0100
0000
0010
0010
1000
0001
,  // measure 30
0010
0100
0020
0000
0001
0000
0130
1000
,  // measure 31
0000
0010
0100
0001
1000
0100
0010
0011
,  // measure 32
0000
0000
0001
0000
0010
0000
0000
0000
0100
0000
1000
0001
1000
0000
0001
0000
,  // measure 33
0100
0010
1000
0000
0100
0010
1000
0010
,  // measure 34
0001
0000
0000
0000
0100
0000
1000
0000
0100
0010
0100
0000
0001
0000
1000
0001
,  // measure 35
1000
0000
1000
0000
0000
0000
0100
0000
0010
0000
0100
0000
1000
0000
0001
1000
,  // measure 36
0001
0000
0010
0100
0001
0100
1000
0001
,  // measure 37
1000
0010
0100
0000
0001
0100
0001
0100
,  // measure 38
0020
0000
1030
0001
0010
0100
1000
0010
,  // measure 39
1000
0000
0000
0000
0100
0000
0000
0000
0010
0001
0010
0000
0100
0000
0100
0000
,  // measure 40
1000
0010
0001
0020
0000
1030
0001
0010
,  // measure 41
0100
0000
1000
0001
0100
0001
0100
0001
,  // measure 42
0000
0000
0000
0000
1000
0000
1000
0000
0001
0000
0010
0000
0001
0000
0010
0001
,  // measure 43
0010
0000
0010
0000
0000
0000
0100
0000
1000
0000
0001
0000
1000
0000
0001
0100
,  // measure 44
0001
0000
0100
0010
0100
1000
0100
0001
,  // measure 45
0010
0100
1000
0000
0001
0100
0001
0100
,  // measure 46
0020
0000
1030
0001
0010
0100
1000
0001
,  // measure 47
0100
0000
0000
0000
0010
0000
0000
0000
1000
0001
1000
0000
0100
0000
0010
0000
,  // measure 48
0001
0100
1000
0200
0000
0301
0010
0100
,  // measure 49
1000
0000
0001
1000
0010
1000
0010
0100
,  // measure 50
0001
0000
0000
0000
1000
0000
1000
0000
0100
0000
0010
0000
1000
0000
0010
0001
,  // measure 51
0010
0000
0000
0000
0022
0000
0000
0000
0000
0000
0000
0000
0033
0000
0001
1000
,  // measure 52
0010
0000
0000
0000
0010
0000
0100
0001
0100
0000
0001
0000
1000
0000
0000
0000
,  // measure 53
0100
0000
0000
0000
0100
0000
0010
0001
0010
0000
0100
0000
1000
0000
0001
0000
,  // measure 54
0100
0000
0000
0000
0100
0000
0010
1000
0010
0000
0100
0000
0001
0000
0100
0000
,  // measure 55
1000
0000
0100
0000
0010
0000
0100
0001
0000
0001
0000
0001
0000
1000
0100
0000
,  // measure 56
0010
0000
0000
0000
0010
0000
0001
1000
0001
0000
0100
0000
0010
0000
1000
0000
,  // measure 57
0001
0000
0000
0000
0001
0000
0010
0100
0010
0000
0001
0000
1000
0000
0010
0000
,  // measure 58
0100
0000
0000
0000
0100
0000
0001
1000
0001
0000
0010
0000
0100
0000
0010
0000
,  // measure 59
0001
0001
0100
0100
0010
0010
1000
1000
,  // measure 60
0001
0000
0000
0000
0001
0000
0000
1000
0100
0000
0000
0000
0100
0000
0000
0000
,  // measure 61
0010
0000
0000
0000
0010
0000
0000
0001
1000
0001
0000
0000
0100
0000
0000
0000
,  // measure 62
0010
0000
0000
0000
0010
0000
0000
1000
0001
0000
0000
0000
0001
0000
0000
0000
,  // measure 63
0010
0000
0000
0000
0010
0000
0000
0100
0000
0100
0000
0100
0000
1000
0000
0000
,  // measure 64
0100
0000
0000
0000
0100
0000
0000
0010
0000
0000
0000
0000
0010
0000
0000
0000
,  // measure 65
0001
0000
0000
0000
0001
0000
0000
1000
0000
1000
0000
0000
0010
0000
0000
0000
,  // measure 66
0100
0000
0000
0000
0100
0000
0000
0001
0000
0000
0000
0000
1000
0000
0100
0000
,  // measure 67
0020
0000
0000
0000
,  // measure 68
0030
0000
0000
0000
;
