#TITLE:Nobo -outflowing heart-;
#SUBTITLE:;
#ARTIST:Se-U-Ra;
#TITLETRANSLIT:;
#SUBTITLETRANSLIT:;
#ARTISTTRANSLIT:;
#GENRE:Artcore;
#CREDIT:;
#BANNER:Nobo -outflowing heart-.png;
#BACKGROUND:Nobo -outflowing heart--bg.png;
#LYRICSPATH:;
#CDTITLE:../_YSD cdtitles/ysd br2023 cdtitle.png;
#MUSIC:Nobo -outflowing heart-.ogg;
#OFFSET:-0.941000;
#SAMPLESTART:101.907379;
#SAMPLELENGTH:25.396825;
#SELECTABLE:YES;
#BPMS:0.000000=189.000000
;
#STOPS:
;
#BGCHANGES:;
#KEYSOUNDS:;
#ATTACKS:;

//---------------dance-single - ----------------
#NOTES:
     dance-single:
     :
     Beginner:
     5:
     0.180514,0.338985,0.152743,0.097200,0.000000,182.000000,160.000000,22.000000,14.000000,0.000000,0.000000,0.180514,0.338985,0.152743,0.097200,0.000000,182.000000,160.000000,22.000000,14.000000,0.000000,0.000000:
// measure 0
0000
0000
0000
0000
,  // measure 1
0000
0000
0000
0000
,  // measure 2
0000
0000
0000
0000
,  // measure 3
0000
0000
0000
0000
,  // measure 4
0000
0000
0000
0000
,  // measure 5
1000
0000
0000
0000
,  // measure 6
0001
0000
0000
0000
,  // measure 7
2000
0000
0000
3000
,  // measure 8
0010
0000
0000
0000
,  // measure 9
1001
0000
0000
0000
,  // measure 10
0000
0110
0000
0000
0000
0000
0000
0000
,  // measure 11
1001
0000
0000
0000
,  // measure 12
0000
1000
0000
0000
0000
0000
0000
0000
,  // measure 13
1001
0000
0000
0110
,  // measure 14
0000
0000
1001
0000
,  // measure 15
0000
0110
0000
0000
,  // measure 16
1001
0000
0000
0110
,  // measure 17
0000
0000
1001
0000
,  // measure 18
0000
0000
0002
0000
,  // measure 19
0003
0000
1000
0000
,  // measure 20
0000
0000
0000
0001
0000
0000
0000
0000
,  // measure 21
0000
0000
1001
0000
,  // measure 22
0000
0000
0000
1000
0000
0000
0000
0000
,  // measure 23
0000
0000
0100
0000
,  // measure 24
0000
0000
0000
0010
0000
0000
0000
0000
,  // measure 25
0000
0000
1001
0000
,  // measure 26
0001
0000
1000
0000
,  // measure 27
0001
0000
0000
1001
,  // measure 28
0000
0000
0000
1000
0000
0000
0000
0000
,  // measure 29
0000
0000
0100
0000
,  // measure 30
0000
0000
0000
0010
0000
0000
0000
0000
,  // measure 31
0000
0000
0001
0000
,  // measure 32
0000
0000
0000
0100
0000
0000
0000
0000
,  // measure 33
0000
0000
0010
0000
,  // measure 34
1000
0000
0010
0000
,  // measure 35
1000
0000
0001
0000
,  // measure 36
0000
0000
1000
0000
,  // measure 37
0000
0000
0002
0003
,  // measure 38
0000
0000
0000
0000
,  // measure 39
1000
0000
0200
0300
,  // measure 40
0000
0010
0000
0000
,  // measure 41
0001
0000
2000
3000
,  // measure 42
0010
0000
0000
0100
,  // measure 43
0000
0000
1001
0000
,  // measure 44
0000
0110
0000
0000
,  // measure 45
0000
0000
2000
3000
,  // measure 46
0001
0000
1000
0000
,  // measure 47
0010
0000
0200
0300
,  // measure 48
0001
0000
0100
0000
,  // measure 49
0010
0000
2000
3001
,  // measure 50
0001
0001
0001
0001
,  // measure 51
0001
0001
0002
0003
,  // measure 52
0000
0000
2000
3000
,  // measure 53
0000
0000
1001
0000
,  // measure 54
0000
0000
0000
0000
,  // measure 55
0000
0000
0100
0000
,  // measure 56
0010
0000
0100
0000
,  // measure 57
0000
0000
0001
0000
,  // measure 58
0000
0000
0000
0000
,  // measure 59
0000
0000
0000
0000
,  // measure 60
1000
0000
0000
0000
,  // measure 61
0000
0000
0100
0000
,  // measure 62
0000
0010
0010
0000
,  // measure 63
0001
0000
1000
0000
,  // measure 64
0000
0000
0001
0000
,  // measure 65
0000
0000
0100
0000
,  // measure 66
0000
0000
0010
0000
,  // measure 67
0000
0000
0100
0000
,  // measure 68
0000
0000
0001
0000
,  // measure 69
0000
0000
1000
0000
,  // measure 70
0000
0000
0001
0000
,  // measure 71
0000
0000
1000
0000
,  // measure 72
1000
0000
0001
0000
,  // measure 73
0001
0000
0100
0100
,  // measure 74
0100
0000
0001
0000
,  // measure 75
0000
0000
1000
0000
,  // measure 76
0010
0000
1000
0000
,  // measure 77
0010
0000
1000
1000
,  // measure 78
1000
0000
0001
0000
,  // measure 79
0000
0000
1001
0000
,  // measure 80
0000
1001
0000
0001
,  // measure 81
0001
0000
1000
0000
,  // measure 82
1000
0000
0100
0000
,  // measure 83
0100
0000
0010
0010
,  // measure 84
0010
0000
0002
0000
,  // measure 85
0003
0000
1000
0000
,  // measure 86
1000
0000
0010
0000
,  // measure 87
0010
0000
0100
0100
,  // measure 88
0100
0000
0002
0000
,  // measure 89
0003
0000
1000
1000
,  // measure 90
1000
0000
0001
0001
,  // measure 91
0001
0000
1000
1000
,  // measure 92
1000
0000
0020
0000
,  // measure 93
0030
0000
0100
0100
,  // measure 94
0100
0000
0001
0001
,  // measure 95
0001
0000
1000
1000
,  // measure 96
1000
1000
1000
0000
,  // measure 97
0000
0000
0001
0001
,  // measure 98
0001
0001
0001
0000
,  // measure 99
0000
0000
1000
0000
,  // measure 100
0000
0000
0010
0000
,  // measure 101
0000
0000
0100
0000
,  // measure 102
0000
0000
0001
0000
,  // measure 103
1000
0000
1001
0000
,  // measure 104
0001
0000
1000
0000
,  // measure 105
0100
0000
0020
0000
,  // measure 106
0030
0000
1001
0000
,  // measure 107
0000
0110
0000
0000
,  // measure 108
1001
0000
1000
0000
;

//---------------dance-single - ----------------
#NOTES:
     dance-single:
     :
     Easy:
     7:
     0.280690,0.383159,0.131914,0.263828,0.000000,283.000000,264.000000,19.000000,38.000000,0.000000,0.000000,0.280690,0.383159,0.131914,0.263828,0.000000,283.000000,264.000000,19.000000,38.000000,0.000000,0.000000:
0000
0000
0000
0000
,
0000
0000
0000
0000
,
0000
0000
0000
0000
,
0000
0000
0000
0000
,
0000
0000
0000
0000
,
1000
0000
0001
1000
,
0001
1000
0010
0100
,
0002
0000
0000
1003
,
0001
0000
0000
0001
0000
0000
0001
0000
,
1001
0000
0000
1001
,
0000
1000
0001
0100
,
0110
0000
0000
1001
,
0000
1000
0100
0010
,
0110
0000
0000
1001
,
0000
0000
0110
0000
,
0000
1001
0000
0000
,
0011
0000
0000
1001
,
0000
0000
1010
1000
,
0010
1000
0020
0000
,
0000
0000
1030
0000
,
0100
0000
0010
0000
,
0001
0000
1000
0000
,
0001
0000
0000
0100
0000
0100
0000
0000
,
0001
0000
1000
0000
,
0010
0000
0100
0000
,
0001
0000
1000
0100
,
1000
0000
0001
0100
,
0001
0000
1000
1001
,
0001
0000
0100
0000
,
0010
0000
1000
0000
,
0001
0000
0000
0010
0000
0010
0000
0000
,
0001
0000
1000
0000
,
0010
0000
0100
0000
,
0001
0000
1000
0100
,
1000
0000
0001
0100
,
0001
0000
1000
0010
,
0100
0000
0001
0010
,
0100
0000
2000
3001
,
0100
0000
0000
0100
0000
0000
0100
0000
,
0010
0000
2000
3001
,
0000
0000
0010
0000
0000
0010
0000
0000
,
0010
0001
2000
3001
,
0100
0000
0000
0010
0000
0000
1000
0000
,
0010
0000
1000
0000
0001
0000
0000
0101
,
0000
0000
1000
0000
0000
1100
0000
0000
,
0001
1000
0200
0310
,
0001
0010
0001
1000
,
0010
0100
0002
1003
,
0100
1000
0100
0010
,
0001
0010
0200
1300
,
1000
0010
0010
0100
,
0100
0001
0002
0003
,
1000
0000
0100
0010
,
0001
1000
0020
0000
,
0000
0000
0000
0000
,
0000
1030
0002
0000
,
0023
0000
0230
0000
,
0000
0000
2300
0000
,
0000
0000
0000
0000
,
0000
0000
0000
0000
,
3200
0000
0000
0000
,
0000
0000
0320
0000
,
0000
0032
2003
0000
,
3020
0000
0130
0000
,
0001
0000
0100
0000
,
0010
0000
1000
0001
,
1000
0000
0002
0000
,
2003
0000
3001
0000
,
0010
0000
0100
0000
,
0010
0000
0001
1000
,
0001
0000
2000
0000
,
0000
3000
0001
0100
,
0001
0000
1000
0100
,
1000
0000
0001
0100
,
0010
0100
0002
0000
,
0000
0003
1000
0100
,
0010
0000
0001
0100
,
0010
0000
1000
0100
,
0010
0001
2000
0000
,
0000
3000
0001
0000
,
0000
1001
0000
0001
,
0100
0001
1000
0100
,
1000
0000
0001
0100
,
0001
0000
1000
0010
,
0100
0001
0020
0000
,
0030
0000
0100
1000
,
0100
0000
0010
0001
,
0010
0000
0100
1000
,
0010
0100
0002
0000
,
0000
0003
1000
0100
,
1000
0000
0001
0100
,
0010
0000
1000
0001
,
0010
0100
2000
0000
,
3000
0000
0001
0100
,
0010
0000
1000
0100
,
0010
0000
0001
0010
,
0100
1000
0002
0000
,
0000
0000
1003
0010
,
0100
0001
2000
0000
,
0000
0000
3000
0000
0002
0000
0000
2003
,
0000
3002
0203
0000
,
0320
0000
0000
0000
2030
0000
0000
3002
,
0000
0000
1003
0100
,
0010
0001
1000
0010
,
0100
0001
0010
0100
,
1000
0001
0200
0000
,
0000
0000
0301
0000
1001
0000
0000
0101
,
0000
0000
0110
0000
0000
1010
0000
0000
,
1000
0000
0002
0000
,
0000
0000
0000
0000
,
0000
0000
0000
0003
0000
0000
0000
0000
;

//---------------dance-single - ----------------
#NOTES:
     dance-single:
     :
     Medium:
     11:
     0.455253,0.574738,0.166628,0.333257,0.041657,459.000000,435.000000,24.000000,48.000000,0.000000,0.000000,0.455253,0.574738,0.166628,0.333257,0.041657,459.000000,435.000000,24.000000,48.000000,0.000000,0.000000:
0000
0000
0000
0000
,
0000
0000
0000
0000
,
0000
0000
0000
0000
,
0000
0000
0000
0000
,
1000
0001
1000
0000
0001
0100
0001
0000
,
1000
0100
1000
0100
,
0010
0001
0010
0001
,
2000
0000
0000
3001
,
0100
0000
0000
0100
0000
0000
0100
0000
0000
0100
0000
0000
0100
0000
0000
0000
,
1001
0000
0000
1001
0000
0000
1001
0000
,
0000
1000
0000
0001
0010
0001
0010
0000
,
0011
0000
0000
0110
0000
0000
1100
0000
,
0000
1000
0000
0001
0100
0001
0100
0000
,
0101
0000
0000
0101
0000
0000
0101
0000
,
0000
0101
0000
0000
1001
0000
0000
1001
,
0000
0000
1001
0000
0000
1001
0000
0000
,
1100
0000
0000
1100
0000
0000
1100
0000
,
0000
1100
0000
0000
1100
0000
2000
0000
,
3200
0000
0320
0000
0032
0000
0000
1003
,
0001
0100
0001
0100
0001
1000
0000
0000
,
0100
0000
0000
1000
0000
0000
0001
0100
,
0000
0001
0100
0000
0001
1000
0000
0000
,
0001
0000
0000
1000
0000
1000
0000
1000
,
0001
0000
0000
0000
0100
0001
0000
0000
,
1000
0000
0000
0100
0000
0000
0010
0001
,
0000
0010
0001
0000
2000
0000
0000
3200
,
0000
0000
0302
0000
0000
0203
0000
0000
,
2300
0000
0000
3000
0001
0000
1001
0000
,
1000
0000
0000
0001
0000
0000
1000
0010
,
0000
1000
0010
0000
0100
0001
0000
0000
,
1000
0000
0000
0001
0000
0001
0000
0001
,
1000
0000
0000
0000
0100
0010
0000
0000
,
0001
0000
0000
1000
0000
0000
0010
1000
,
0000
0001
1000
0000
0001
0100
0001
0000
,
1000
0100
1000
0000
0001
0010
0001
0000
,
1000
0010
1000
0000
0001
0000
0100
0000
,
0001
1000
0100
0010
,
0001
1000
0001
0000
0200
0000
0301
0000
,
1000
0000
0000
1000
0000
0000
1000
0000
0000
0000
0000
0000
0001
0000
0100
0000
,
0001
0000
0200
0310
,
0000
0000
0000
0000
1000
0000
0000
1000
0000
0000
1000
0000
0000
0000
0000
0000
,
0001
0010
0001
0010
0200
0000
1300
0000
,
0001
0000
1000
0010
0000
1000
0001
0000
,
0100
0000
0000
0000
0010
0000
0000
0000
1000
0000
0000
1000
0000
0000
1000
0000
,
0000
0000
0000
0000
0001
0000
0000
0001
0000
0000
0001
0000
0000
0000
0000
0000
,
1000
0010
1000
0000
0200
0000
0310
0000
,
0001
0000
0000
0001
0000
0000
0001
0000
0000
0000
0000
0000
1000
0000
0010
0000
,
0100
0001
0200
0301
,
1000
0000
0000
0000
0001
0000
0000
0001
0000
0000
0001
0000
0000
0000
0000
0000
,
0010
0100
0010
0001
0200
0000
0301
1000
,
0001
1000
0001
0000
0010
0100
0010
0100
,
0010
0100
0010
0000
0200
0000
1300
0000
,
0001
0100
0010
0000
2000
0000
3000
0002
,
0000
0003
2000
0000
3020
0000
0000
0000
,
0000
0000
0000
0000
,
0000
0000
0130
0001
2000
0000
0000
0000
,
3200
0000
0320
0000
,
0000
0000
0032
0000
,
0000
0000
0000
0000
,
0000
0000
0000
0000
,
0203
0000
0000
0000
,
0000
0000
0320
0000
,
0000
2030
3002
0000
,
0023
0000
0130
1000
,
0001
0100
0001
0000
1000
0000
0100
0000
,
0010
0001
0010
0000
0001
0000
1000
0000
,
0001
1000
0020
0000
,
0230
0000
0301
0100
,
0001
1000
0001
0000
1000
0000
0100
0000
,
0010
0001
0010
0000
0100
0000
0000
1000
,
0000
0000
0001
0100
0002
0000
0000
0000
,
0000
0000
1003
0000
0001
0100
0001
0000
,
1000
0100
1000
0000
0001
0010
0001
0000
,
1000
0010
1000
0000
0001
0000
0010
0000
,
0100
0000
1000
0000
0002
0000
0003
0002
,
0000
0003
0000
0000
1000
0010
1000
0000
,
0001
0010
0001
0000
1000
0100
1000
0000
,
0001
0100
0001
0000
1000
0000
0100
0000
,
0010
0000
0001
0000
2000
0000
3000
2000
,
0000
3000
0001
0000
1001
0000
0000
0110
,
0000
0000
1001
0000
0000
1000
0100
0000
,
1000
0010
0100
0000
0001
1000
0100
0000
,
1000
0001
0100
0000
0001
1000
0010
0000
,
1000
0001
0010
0000
0100
0000
1000
0000
,
0100
0000
0010
0001
2000
0000
0000
0000
,
3000
0000
0001
0000
1000
0001
0010
0000
,
0001
1000
0010
0000
1000
0001
0100
0000
,
0001
1000
0100
0000
1000
0000
0010
0000
,
0100
0000
0001
1000
0200
0000
0000
0000
,
0000
0000
0000
0000
0310
0001
0001
0000
,
1000
0010
0100
0000
0001
1000
0100
0000
,
0010
0001
1000
0000
0010
0000
0100
0000
,
0001
0000
1000
0100
0020
0000
0000
0000
,
0030
0000
0001
0000
1000
0010
0001
0010
,
0100
0001
0000
0000
1000
0100
0001
0100
,
0010
0001
0000
0000
1000
0010
0100
0001
,
0010
0100
1000
0001
0200
0000
0000
0000
,
0000
0000
0300
0000
0010
1000
0100
0001
,
0100
0010
0001
1000
0020
0000
0000
0000
,
0000
0000
0030
0000
1000
0000
0001
0020
,
0000
0230
2300
0000
,
3002
0000
0000
0000
0203
0000
0000
0320
,
0000
0000
0000
0000
1030
0001
0100
0000
,
0010
1000
1000
0000
0001
0000
0010
0000
,
0100
0010
0001
1000
,
0010
0100
0001
1000
0100
0001
0100
1000
,
0001
0000
0100
0000
0010
0000
0000
0000
1000
0000
0000
1000
0000
0000
0001
0000
,
0000
0001
0000
0000
0010
0000
0000
0010
0000
0000
0100
0000
0000
0100
0000
0000
,
1000
1001
0000
0000
0001
1000
0100
0010
,
0000
0001
0010
0100
0000
1000
0010
0100
,
0000
0001
0100
0010
0000
0000
0000
0000
;

//---------------dance-single - JA--, XO-----------------
#NOTES:
     dance-single:
     :
     Hard:
     14:
     0.589151,0.728002,0.229114,0.312428,0.156214,594.000000,561.000000,33.000000,45.000000,0.000000,0.000000,0.589151,0.728002,0.229114,0.312428,0.156214,594.000000,561.000000,33.000000,45.000000,0.000000,0.000000:
0000
0000
0000
0000
,
0000
0000
0000
0000
,
0000
0000
0000
0000
,
0000
0000
0000
0000
,
1000
0001
0100
0000
0010
1000
1000
0000
,
0001
0010
0100
0010
,
0001
1000
0010
0100
,
0002
0000
0000
1003
0000
0001
1000
0100
,
1100
0000
0000
1000
0000
0000
1001
0000
0000
0001
0000
0000
0100
0000
0000
0000
,
0101
0000
0000
0101
0000
0000
0101
0000
,
0000
0001
1000
0100
0010
0001
1000
0000
,
1010
0000
0000
1001
0000
0000
0011
0000
,
0000
0001
0010
0100
1000
0001
0100
0000
,
0101
0000
0000
0101
0000
0000
1001
0000
,
0000
1001
0000
0000
1100
0000
0000
1100
,
0000
0000
0110
0000
0000
0110
0000
0000
,
0011
0000
0000
1001
0000
0000
1010
0000
,
0000
0110
0000
0000
0101
0000
0200
0000
,
0302
0000
2003
0000
3200
0000
0000
1300
,
0001
1000
0001
0000
1000
0000
0100
0000
0010
0000
0001
0000
0000
0000
0010
0000
,
0001
0000
1000
0001
0000
1000
0001
0100
,
0000
0001
0100
0000
0001
1000
0000
0001
,
1000
0000
0001
0010
0000
0010
0000
0010
,
0100
0000
1000
0001
0100
0001
0000
0100
,
0001
0000
1000
0100
0000
1000
0001
0100
,
0000
0010
1000
0001
0010
0000
0100
1000
,
0000
0001
0100
0000
0010
1000
0000
0001
,
0020
0000
0030
0001
1000
0000
1001
0000
,
0001
0000
0100
0001
0000
1000
0100
0010
,
0000
0100
1000
0001
0100
0001
0000
1000
,
0001
0000
1000
0010
0000
0100
0001
1000
,
0100
0000
0010
0001
1000
0010
0000
0100
,
0001
0000
1000
0100
0000
0010
0001
1000
,
0000
0010
0100
0001
1000
0100
0010
0000
,
0001
1000
1000
0000
0001
0100
0010
0000
,
1000
0001
0001
0000
1000
0000
0100
0000
,
1000
0001
1000
0100
,
0010
0001
1000
0010
0200
0000
0301
0000
,
1000
0000
0000
1000
0000
0000
1000
0000
0000
0000
0010
0000
0100
0000
0001
0000
,
1000
0100
0000
0000
0020
0000
0031
0000
,
0000
0000
0000
0000
1000
0000
0000
1000
0000
0000
1000
0000
0001
0000
0100
0000
,
0010
0001
0010
1000
0002
0000
1003
0001
,
1000
0100
0010
0001
0100
0010
1000
0001
,
0010
0000
0100
0000
1000
0000
0000
0000
0001
0000
0000
0010
0000
0000
0011
0000
,
0000
0000
0000
0000
1000
0000
0000
0010
0000
0000
1010
0000
0000
0000
1000
0000
,
0001
1000
0001
0000
0200
0000
0301
0000
,
0010
0000
0000
0010
0000
0000
0010
0000
0000
0000
0001
0000
1000
0000
0010
0000
,
0100
0001
1000
0000
0200
0000
0310
0000
,
0001
0000
0000
0000
1000
0000
0000
1000
0000
0000
1000
0000
0010
0000
0100
0000
,
0010
0001
0010
1000
0002
0000
1003
0100
,
1000
0100
0010
0001
0010
0001
1000
0010
,
1000
0000
0001
0000
0010
0000
0100
0000
2000
0000
0000
0000
3001
0000
0000
0100
,
0000
0001
1000
0000
0010
0000
0100
0000
0002
0000
0000
0000
0013
0100
2000
0000
,
3001
0100
0010
0000
2000
0000
3100
0010
0002
0000
0000
0000
0000
0000
0000
0000
,
0000
0000
0000
0000
,
0000
0000
0103
0010
2000
0000
0000
0000
,
3200
0000
0320
0000
,
0000
0000
0032
0000
,
0000
0000
0000
0000
,
0000
0000
0000
0000
,
0203
0000
0000
0000
,
0000
0000
0320
0000
,
0000
2030
3002
0000
,
0023
0000
0000
0000
0130
1000
0001
0000
,
0100
0001
0001
0000
0010
0100
1000
0000
,
0001
0100
0100
0000
0010
0000
1000
0000
,
0010
0000
1000
0010
0200
0000
0000
0000
,
0302
0000
0000
0000
1003
0100
0010
0000
,
0001
0100
0100
0000
0010
1000
0001
0000
,
0010
0100
0100
0000
1000
0000
0001
1000
,
0000
0000
0001
0100
0020
0000
0000
0000
,
0000
0000
1030
0001
0010
0100
1000
0000
,
0001
0100
0100
0000
0010
1000
0001
0000
,
0010
0100
0100
0000
1000
0100
0001
0100
,
1000
0001
0100
0010
2000
0000
3000
2000
,
0000
0000
3000
0000
0000
0000
0000
0000
0001
0100
0001
0000
0100
0000
0000
0000
,
0001
0000
1000
0000
1000
0000
0000
0000
0001
0010
0001
0000
0010
0000
0000
0000
,
0001
1000
1000
0000
0001
0100
1000
0100
,
0001
1000
0100
0010
0002
0000
0003
0002
,
0000
0003
1000
0000
1010
0000
0000
1001
,
0000
0000
0011
0000
0000
0001
0010
0100
,
0010
0000
0001
0000
0100
0000
0000
0000
0010
1000
0010
0000
1000
0000
0000
0000
,
0001
0100
0001
0000
0100
0000
0000
0000
0001
0010
0001
0000
0010
0000
0000
0000
,
0100
1000
0100
0000
1000
0000
0000
0000
0001
0000
0010
0000
1000
0000
0010
0000
,
0001
1000
0010
0100
0002
0000
0000
1000
,
0003
0000
1000
0000
0001
0000
0000
0000
1000
0100
1000
0000
0100
0000
0000
0000
,
0010
0001
0010
0000
0001
0000
0000
0000
1000
0010
1000
0000
0010
0000
0000
0000
,
0100
0001
0100
0000
0001
0000
0000
0000
1000
0000
0100
0000
0001
0000
1000
0000
,
0010
0000
0001
0000
1000
0000
0010
0000
0100
0000
0000
0001
0000
0000
0100
0000
,
0002
0000
0000
0000
0000
0000
0000
0000
1003
0100
0010
0000
0100
0000
0000
0000
,
1000
0001
0100
0000
0001
0000
0000
0000
1000
0010
0100
0000
0010
0000
0000
0000
,
1000
0001
0010
0000
0001
0000
0000
0000
1000
0000
0100
0000
0001
0000
0100
0000
,
1000
0001
0100
0010
2000
0000
0000
3001
,
0010
0000
0100
0000
1000
0000
0000
0000
0001
0100
0001
0100
0001
0000
0000
0000
,
1000
0000
0001
0000
0000
0000
0000
0000
1000
0100
1000
0100
1000
0000
0000
0000
,
0001
0000
1000
0000
0000
0000
0000
0000
0001
0010
0001
0000
1000
0100
1000
0000
,
0001
0100
0001
0000
1000
0000
0001
0000
0200
0000
0000
0000
0320
0000
0000
0000
,
1030
0000
0100
0000
0010
0000
0100
0000
1000
0001
0100
0000
0001
1000
0100
0000
,
0010
0001
0100
0000
0010
0000
1000
0000
0200
0000
0000
0000
0000
0000
0000
0000
,
0000
0000
0300
0000
0010
0001
1000
0020
,
0000
0230
0302
0000
,
2003
0000
0000
0000
3200
0000
0000
0320
,
0000
0031
1000
0010
0100
0001
1000
0000
,
0100
0010
0010
0000
0001
0000
1000
0000
,
0010
1000
0001
0010
,
0100
0000
1000
0000
0001
0000
1000
0000
0010
1000
0001
0000
0010
0000
0001
1000
,
0010
0000
0100
0000
0001
0000
0000
0000
1001
0000
0000
1000
0000
0000
1100
0000
,
0000
0100
0000
0000
0110
0000
0000
0010
0000
0000
0011
0000
0000
0001
0000
0000
,
1001
1001
0000
0000
1000
0100
0010
0001
,
0000
1000
0010
0100
0000
0001
0010
0100
,
0000
1000
0001
0100
0000
0000
0000
0000
;

//---------------dance-single - JA, XO----------------
#NOTES:
     dance-single:
     :
     Challenge:
     17:
     0.771649,1.072844,0.326314,0.465171,0.513771,778.000000,731.000000,47.000000,67.000000,0.000000,0.000000,0.771649,1.072844,0.326314,0.465171,0.513771,778.000000,731.000000,47.000000,67.000000,0.000000,0.000000:
0000
0000
0000
0000
,
0000
0000
0000
0000
,
0000
0000
0000
0000
,
0000
0000
0000
0000
,
1000
0010
0100
0000
0001
1000
1000
0000
,
0001
0010
0100
0010
,
0001
0000
1000
0000
0010
0100
0001
1000
,
0200
0000
0000
0000
0000
0000
1300
0001
1000
0000
0001
0000
0000
1000
0010
0000
,
1010
0000
0000
1001
0000
0000
0011
0000
0000
1001
0000
0000
1000
0000
0000
0000
,
0202
0000
0303
0202
0000
0303
0101
0000
,
0001
1001
1000
0100
0010
0100
1000
0000
,
2200
0000
3300
2002
0000
3003
0202
0000
,
0303
0000
0001
0100
0010
0000
1000
0000
0100
0000
0010
0000
0001
0000
0000
0000
,
0022
0000
0033
0022
0000
0033
2002
0000
,
3003
2002
0000
3003
1010
0010
0100
0101
,
0001
0010
0011
0001
1000
1010
0010
0100
,
0110
0010
1000
1010
0001
0010
0011
1000
,
0100
1100
0001
0100
0101
0000
0002
0000
,
0023
0000
0230
0000
2300
0000
3000
1000
,
1000
0001
1000
0001
1000
0001
1000
0001
1000
0000
0010
0000
0000
0000
1000
0000
,
0001
0000
0100
0001
0000
1000
0100
0010
,
0000
0100
1000
0010
0100
0001
0000
0100
,
0001
1000
0001
0000
1000
0000
0010
0000
0000
0000
1010
0000
0000
0000
1000
0000
,
0001
0100
0001
0000
0100
0000
0001
0000
1000
0000
0100
0000
0000
0000
1000
0000
,
0100
0010
0100
0001
0000
0100
0010
0001
,
0000
1000
0001
0000
1000
0000
0100
0000
0010
0000
0001
0000
0100
0000
1000
0000
,
0100
0010
1000
0100
0010
1000
0010
0001
,
2000
0000
3000
0100
0100
0000
1001
0000
,
1000
0000
0001
0100
0000
0001
0010
0100
,
0000
1000
0001
0000
0100
0000
0010
0000
1000
0000
0001
0000
0000
0000
0010
0000
,
0001
1000
0001
0000
1000
0000
0100
0000
0000
0000
1000
0000
0000
0000
0010
0000
,
0100
0001
0100
0000
0001
0000
1000
0000
0001
0000
0010
0000
0000
0000
0001
0000
,
0010
0100
0010
0000
0100
0000
0001
0000
0000
0000
0100
0000
1000
0000
0001
0000
,
0000
0100
0001
0000
1000
0100
0010
0001
0010
0000
0001
0000
0100
0000
0000
0000
,
0010
1000
1000
0000
0001
1000
0100
0000
,
0010
0001
0001
0000
1000
0000
0001
0000
,
0100
0010
1000
0000
0100
0010
0001
1000
,
0010
0100
0001
1000
0200
0000
0310
0000
,
0001
0000
0000
1000
0000
0000
1000
0001
0000
0000
0100
0000
0001
0000
0010
0000
,
0100
1000
0000
0000
0002
0000
1003
0000
,
0000
0000
0000
0000
0001
0000
0000
0100
0000
0000
0010
0000
1000
0000
0001
0010
,
0100
0001
0100
1000
0002
0000
1003
0001
,
1000
0010
0100
0000
0001
0000
1000
0010
0100
0000
0001
0000
1000
0000
1000
0100
,
0010
0000
0010
0000
0001
0000
0000
0000
0011
0000
0000
0011
0000
0000
0011
0000
,
0000
0000
0000
0000
1010
0000
0000
1010
0000
0000
1010
0000
0000
0000
1000
0001
,
0010
0010
0001
0100
0210
0000
0301
0000
,
1000
0001
0000
0010
0001
0000
1000
0001
0000
0000
0010
0000
0001
0000
0100
0000
,
0010
1000
0001
1000
0200
0000
1300
0001
,
0100
0000
0010
0000
1000
0000
0000
0001
1000
0000
0001
0000
0100
0000
0001
0100
,
0010
0001
0010
1000
0002
0013
0100
1000
,
0010
0100
0001
1000
0100
1000
0010
0100
,
0001
0000
1000
0000
0100
0000
0010
0000
0001
1000
0010
1000
0001
0000
0000
1000
,
0010
1000
0001
0010
0100
0000
1000
0001
0200
0000
0000
0000
0310
1000
0002
0000
,
1003
0100
0010
0001
0100
0010
1000
0001
0020
0000
0000
0000
0000
0000
0000
0000
,
0000
0000
0000
0000
,
0000
0000
0130
1000
0020
0000
0000
0000
,
0032
0000
0023
0000
,
0000
0000
2030
0000
,
0000
0000
0000
0000
,
0000
0000
0000
0000
,
3200
0000
0000
0000
,
0000
0000
0320
0000
,
0000
0032
2003
0000
,
3020
0000
0000
0000
0130
0000
0001
1000
,
0100
0010
0001
0000
1000
0010
0100
0001
,
0100
0010
1000
0000
0001
0010
0100
1000
,
1000
0000
0001
0100
0010
1000
0100
0010
,
0001
0000
0000
0000
1000
0000
0010
0100
,
0001
1000
0010
0000
1000
0100
0010
0001
,
0010
0100
1000
0000
0001
0100
0010
1000
,
1000
0000
0001
0010
0200
0000
0000
0000
,
0000
0000
0000
0000
1300
0000
0001
0000
1000
0001
0100
0000
0010
0000
0000
0000
,
1000
0100
0010
0000
0001
0000
0000
0000
1000
0001
0100
0000
0010
0000
0000
0000
,
1000
0100
0010
0000
0001
0000
0000
0000
1000
0010
1000
0000
0001
0100
0001
0000
,
1000
0010
1000
0000
0001
0000
0010
0000
0100
0000
1000
0000
0010
0000
0100
0000
,
0001
0000
0010
0000
0100
0000
0000
0000
1000
0010
0100
0000
0001
0000
1000
0000
,
0100
0010
0001
0000
1000
0000
0000
0000
0001
0100
0010
0000
1000
0000
0001
0000
,
0010
0100
1000
0001
1000
0000
0000
0000
0001
0010
0001
0010
0100
1000
0100
1000
,
0001
0100
0010
1000
0001
0010
0100
1000
0020
0000
0000
0000
0030
0000
2020
0000
,
0000
3030
1000
0000
2002
0000
3003
0022
,
0000
0000
0033
0000
2200
0000
0000
0000
3300
0000
1000
0100
0010
0000
0100
0000
,
1000
0000
0001
0000
0100
0000
0000
0000
0001
0100
0010
0100
0001
0000
0000
0000
,
1000
0100
0010
0001
0010
0000
0000
0000
0100
1000
0001
1000
0100
0000
0000
0000
,
0010
0001
1000
0010
1000
0000
0000
0000
0001
0100
0010
1000
0001
0010
0100
1000
,
0001
0100
0010
0100
0001
1000
0100
0000
0020
0000
0000
0000
0000
0000
0001
0000
,
0030
0000
0001
0000
1000
0000
0000
0000
0001
0010
0100
0010
0001
0000
0000
0000
,
1000
0010
0100
0001
0100
0000
0000
0000
0010
1000
0001
1000
0010
0000
0000
0000
,
0100
0001
1000
0100
1000
0000
0000
0000
0001
0100
0010
1000
0001
0010
0100
0010
,
1000
0010
0100
1000
0001
1000
0010
0000
0100
0000
0000
0100
0000
0000
0100
0000
,
0100
0000
0000
0000
0100
0001
0100
0001
0100
0010
1000
0100
0010
0000
0000
0000
,
0001
0100
0010
1000
0100
0000
0000
0000
0010
0001
0100
0010
1000
0000
0000
0000
,
0100
0010
0001
1000
0010
0000
0000
0000
0100
0001
0010
0100
1000
0001
0100
0010
,
0100
0001
0010
0100
1000
0001
0100
0000
0020
0000
0000
0000
0000
0000
1030
0001
,
0010
0000
0100
0000
1000
0000
0000
0000
0010
0100
1000
0100
0010
0000
1000
0000
,
0001
0010
0100
0000
2000
0000
0000
0000
3100
0010
1000
0010
0100
0000
1000
0000
,
0001
0100
0010
0000
1000
0000
0001
0000
1000
0001
0010
0100
1000
0001
0100
0010
,
0100
0001
1000
0100
0010
0001
0100
0010
2000
0000
0000
0000
3020
0000
0000
0000
,
0032
0000
0023
0000
2030
0000
3100
0000
1000
0100
1000
0010
1000
0001
0100
0010
,
0001
0010
0100
0001
1000
0100
0010
0001
0200
0000
0000
0000
0000
0000
0000
0000
,
0000
0000
0300
0000
0001
0001
1000
0002
,
0000
0203
0320
0000
,
0032
0000
0000
0000
0023
0000
1030
0010
,
0000
0000
0100
0000
0001
1000
0100
0000
1000
0000
0001
0000
0010
0000
0000
0000
,
0100
0000
1000
0001
2000
0000
3001
0000
0100
0000
0000
0000
0010
0000
0000
0000
,
0001
0010
0100
0001
,
0010
0000
0100
0000
0010
0000
0001
0000
1000
0010
0100
0010
1000
0000
0001
0010
,
0100
0010
0001
0000
0100
0010
1000
0000
1010
0000
0000
0110
0000
0000
0101
0000
,
0000
0011
0000
0000
0110
0000
0000
1100
0000
0000
1001
0000
0000
0101
0000
0000
,
0101
0101
0000
0000
0100
0001
1000
0010
,
0000
0001
1000
0010
0000
0001
1000
0010
,
0000
0001
1000
0010
0000
0000
0000
0000
;
