#TITLE:もぐもぐYUMMY!;
#SUBTITLE:;
#ARTIST:猫又おかゆ (prod\: ピノキオピー);
#TITLETRANSLIT:Mogu Mogu YUMMY!;
#SUBTITLETRANSLIT:;
#ARTISTTRANSLIT:Nekomata Okayu (prod\: PinocchioP);
#GENRE:;
#CREDIT:;
#BANNER:Mogu Mogu YUMMY!.png;
#BACKGROUND:Mogu Mogu YUMMY!-bg.png;
#LYRICSPATH:;
#CDTITLE:../_YSD cdtitles/ysd sum mem cdtitle.png;
#MUSIC:Mogu Mogu YUMMY!.ogg;
#OFFSET:-0.007000;
#SAMPLESTART:34.292999;
#SAMPLELENGTH:27.429001;
#SELECTABLE:YES;
#BPMS:0.000000=140.000000
;
#STOPS:
;
#BGCHANGES:0.000=Mogu Mogu YUMMY!.avi=1.000=1=0=0=StretchNoLoop==CrossFade==,
99999=-nosongbg-=1.000=0=0=0 // don't automatically add -songbackground-
;
#KEYSOUNDS:;
#ATTACKS:;

//---------------dance-single - ----------------
#NOTES:
     dance-single:
     :
     Beginner:
     1:
     0.088236,0.142574,0.074118,0.000000,0.000000,75.000000,66.000000,9.000000,0.000000,0.000000,0.000000,0.088236,0.142574,0.074118,0.000000,0.000000,75.000000,66.000000,9.000000,0.000000,0.000000,0.000000:
0000
0000
0000
0000
,
0000
0000
0000
0000
,
0000
0000
0000
0000
,
0000
0000
0000
0000
,
0000
0001
0000
0000
,
0000
1000
0000
0000
,
0000
0010
0000
0000
,
0000
0100
0000
0000
,
0000
0001
0000
0000
,
0000
0010
0000
0000
,
0000
0100
0000
0000
,
0000
1000
0000
0000
,
0000
0001
0000
0000
,
0000
0100
0000
0000
,
0000
0010
0000
0000
,
0000
0100
0000
0000
,
0000
0001
0000
0000
,
0000
0010
0000
0000
,
0000
0100
0000
0000
,
0000
1000
0000
0000
,
0000
1001
0000
0000
,
0000
0001
0000
0000
,
0000
0100
0000
0000
,
0000
0010
0000
0000
,
0000
1000
0000
0000
,
0000
0100
0000
0000
,
0000
0010
0000
0000
,
0000
0001
0000
0000
,
0000
1001
0000
0000
,
0000
1000
0000
0000
,
0000
0100
0000
0000
,
0000
0010
0000
0000
,
0000
0001
0000
0000
,
0000
0100
0000
0000
,
0000
0010
0000
0000
,
0000
1000
0000
0000
,
0000
1001
0000
0000
,
0000
0001
0000
0000
,
0000
0010
0000
0000
,
0000
0100
0000
0000
,
0000
1001
0000
0000
,
0000
0001
0000
0000
,
0000
1000
0000
0000
,
0000
0100
0000
0000
,
0000
0010
0000
0000
,
0000
0001
0000
0000
,
0000
0100
0000
0000
,
0000
0010
0000
0000
,
0000
1000
0000
0000
,
0000
0100
0000
0000
,
0000
0010
0000
0000
,
0000
0100
0000
0000
,
0000
0110
0000
0000
,
0000
1001
0000
0000
,
0000
0001
0000
0000
,
0000
0100
0000
0000
,
0000
0010
0000
0000
,
0000
1001
0000
0000
,
0000
1000
0000
0000
,
0000
0100
0000
0000
,
0000
0010
0000
0000
,
0000
1001
0000
0000
,
0000
0001
0000
0000
,
0000
0100
0000
0000
,
0000
0010
0000
0000
,
0000
1001
0000
0000
,
0000
1000
0000
0000
,
0000
0001
0000
0000
,
0000
0010
0000
0000
,
0000
0100
0000
0000
;

//---------------dance-single - ----------------
#NOTES:
     dance-single:
     :
     Easy:
     4:
     0.209413,0.256634,0.041177,0.016471,0.000000,178.000000,173.000000,5.000000,2.000000,0.000000,0.000000,0.209413,0.256634,0.041177,0.016471,0.000000,178.000000,173.000000,5.000000,2.000000,0.000000,0.000000:
0000
0000
0000
0000
,
0000
0000
0000
0000
,
0000
0000
0000
0000
,
0000
0000
0000
0000
,
0000
1000
0000
0001
,
0000
0100
0000
0001
,
0000
1000
0000
0100
,
0000
0010
0000
0001
,
0000
0100
0000
0010
,
0000
1000
0000
0100
,
0000
0010
0000
0001
,
0000
1000
0000
0010
,
0000
0100
0000
0001
,
0000
1000
0000
0100
,
0000
0010
0000
0100
,
0000
1000
0000
0001
,
0000
0100
0000
0010
,
0000
1000
0000
0100
,
0000
0020
0030
0002
,
0003
1000
0001
1000
,
0000
0010
0000
0100
,
0001
1000
0000
0100
,
0000
0010
0000
0100
,
1000
0001
0000
0100
,
0000
0001
0001
1000
,
1000
0010
0010
0100
,
0100
0001
0000
0010
,
0100
1000
1000
0001
,
1001
1000
0000
0010
,
0100
0001
0000
0010
,
0000
0100
0000
1000
,
0010
0100
0000
0001
,
0000
1000
1000
0100
,
0100
0010
0010
0001
,
0001
1000
0000
0010
,
0100
0001
0000
1000
,
0100
0110
0000
0010
,
0001
0001
0000
1000
,
0010
0100
0000
0001
,
0000
1000
0000
0100
,
0010
0011
0000
0001
,
1000
1000
0000
0010
,
0100
0001
0000
1000
,
0000
0100
0000
0010
,
0001
1000
0000
0010
,
0100
0100
0000
0001
,
0000
1000
0000
0100
,
0010
0001
0000
1000
,
0010
0100
0000
0001
,
1000
1000
0000
0100
,
0000
0010
0000
0000
,
0000
0001
0000
0000
,
0000
0110
0000
1001
,
0000
1000
0010
1000
,
0000
0001
0010
0001
,
0000
1000
0100
1000
,
0000
0001
0100
0010
,
0000
1000
0001
0100
,
0000
0001
1000
0100
,
0000
0010
0001
1000
,
0000
0010
0100
0001
,
0000
1000
0100
0010
,
0000
0001
0100
0010
,
0000
1000
0001
0010
,
0000
0100
1000
0001
,
0000
0100
0010
1000
,
0000
0100
0010
0001
,
0000
0010
0100
1000
,
0000
0010
0100
0001
,
0000
1000
0000
0000
;

//---------------dance-single - ----------------
#NOTES:
     dance-single:
     :
     Medium:
     8:
     0.394120,0.427723,0.057647,0.230589,0.045294,335.000000,328.000000,7.000000,28.000000,0.000000,0.000000,0.394120,0.427723,0.057647,0.230589,0.045294,335.000000,328.000000,7.000000,28.000000,0.000000,0.000000:
0000
0000
0000
0000
,
0000
0000
0000
0000
,
0000
0000
0000
0000
,
0000
0000
0000
0000
,
0000
0000
0001
0000
1000
0000
0000
0100
0000
0000
1000
0000
0001
0000
0000
0000
,
0000
0000
1000
0000
0010
0000
0000
0100
0000
0000
0010
0000
1000
0000
0000
0000
,
0000
0000
0100
0000
0010
0000
0000
0001
0000
0000
0010
0000
0100
0000
0000
1000
,
0000
0000
0001
0000
0100
0000
0000
0010
0000
0000
1000
0000
0001
0000
0000
0000
,
0000
0000
1000
0000
0100
0000
0000
0010
0000
0000
0100
0000
1000
0000
0000
0000
,
0000
0000
0001
0000
0100
0000
0000
0010
0000
0000
0100
0000
0001
0000
0000
0000
,
1000
0000
0000
0000
0100
0000
0000
0010
0000
0000
0001
0000
0100
0000
0000
0010
,
0000
0000
1000
0000
0001
0000
0000
0010
0000
0000
0001
0000
1000
0000
0000
0000
,
0010
0000
1000
0000
1000
0000
0001
0100
,
0010
0100
0000
0100
0000
0100
0001
0000
,
0001
0000
1000
0000
1000
0000
0100
0010
,
0001
0100
0000
0100
0000
0100
0010
0000
,
0010
0000
0100
0000
0100
0000
0001
1000
,
0100
0010
0000
0010
0000
0010
0001
0000
,
0001
0000
0200
0000
0310
1000
0002
0000
,
0013
0000
0000
0000
0100
0000
0000
0100
0000
0000
1000
0000
0001
0000
0000
0000
,
0200
0000
0310
0000
1000
0000
0010
0100
,
0001
0020
0000
0100
0000
0100
0000
0130
,
1000
0000
0001
0000
0100
0000
0001
1000
,
0100
0020
0000
0001
0000
0001
0000
0031
,
1000
0000
0001
0100
0001
0000
1000
0100
,
1000
0000
0001
0010
0001
0000
1000
0010
,
1000
0000
0001
0000
0010
0000
0100
1000
,
0001
0000
1000
0010
1000
0000
0001
0000
,
0011
0000
0010
0000
0100
0000
1000
0001
,
0100
0020
0000
1000
0000
1000
0000
1030
,
0001
0000
0010
0000
0100
0000
0010
0001
,
1000
0020
0000
0100
0000
0100
0000
0130
,
0001
0000
1000
0001
0100
0000
0001
1000
,
0100
0000
1000
0001
0010
0000
0001
1000
,
0010
0000
0001
0000
0100
0000
0010
1000
,
0001
0000
0020
0000
0100
0000
0031
1000
,
0010
2010
0100
0010
,
3100
1000
0002
0000
0100
0000
0010
0000
,
0100
1003
0100
0001
,
0100
0010
0000
0001
0000
0000
1000
0010
,
0100
0102
0010
1000
,
0103
0001
2000
0000
0100
0000
0010
0000
,
0100
3001
0100
1000
,
0100
0010
0000
1000
0000
0000
0001
0010
,
0100
0000
2000
0000
0000
3002
0000
0000
,
0103
0010
2000
0000
0000
3200
0000
0000
,
0300
0010
1000
0010
,
0001
1000
0000
0010
0000
0000
0100
0001
,
1000
0000
0200
0000
0000
0320
0000
0000
,
0031
1000
0020
0000
0000
0230
0000
0000
,
0300
0001
1000
0100
,
0010
0100
0000
1000
0000
0001
0100
0001
,
0100
0101
1001
1100
,
1001
0000
0001
0100
0001
0000
1000
0100
,
1000
0000
0001
0010
0001
0000
1000
0010
,
1000
0000
0001
1000
0100
0000
1000
0001
,
0100
0000
0020
0000
2030
0000
3001
1000
,
0000
0000
0001
0010
0100
0000
0010
0001
,
1000
0000
0010
0100
0001
0000
0100
0010
,
1000
0000
0001
0010
0100
0000
1000
0001
,
0100
0000
2000
0000
3200
0000
0310
1000
,
0000
0000
0100
0010
0001
0000
0100
0010
,
1000
0000
0001
0010
0100
0000
1000
0010
,
0100
0000
0001
1000
0100
0000
0010
0001
,
0100
0000
0020
0000
2030
0000
3100
0010
,
0000
0000
0001
0010
0100
0000
0001
0100
,
0010
0000
0001
1000
0010
0000
0100
1000
,
0100
0000
0010
1000
0001
0000
0010
0100
,
1000
0000
0200
0000
0302
0000
0103
1000
,
0000
0001
0100
0000
0000
0000
0000
0000
;

//---------------dance-single - ----------------
#NOTES:
     dance-single:
     :
     Hard:
     12:
     0.543532,0.545694,0.024706,0.280001,0.214119,462.000000,459.000000,3.000000,34.000000,0.000000,0.000000,0.543532,0.545694,0.024706,0.280001,0.214119,462.000000,459.000000,3.000000,34.000000,0.000000,0.000000:
// measure 0
0000
0000
0000
0000
,  // measure 1
0000
0000
0000
0000
,  // measure 2
0000
0000
0000
0000
,  // measure 3
0000
0000
0000
0000
,  // measure 4
0000
0000
0001
0000
1000
0000
0001
0100
0000
0000
0001
0000
1000
0000
0000
0000
,  // measure 5
0100
0000
0010
0000
0001
0000
1000
0010
0000
0000
1000
0000
0010
0000
0001
0000
,  // measure 6
0010
0000
0100
0000
0001
0000
1000
0010
0000
0000
1000
0000
0001
0000
0010
0100
,  // measure 7
0000
0000
0010
0000
0001
0000
0000
1000
0000
0000
0010
0000
1010
0000
0000
0000
,  // measure 8
1000
0000
1000
0000
0001
0000
0010
0001
0000
0000
1000
0000
0010
0000
0000
0000
,  // measure 9
0100
0000
0001
0000
1000
0000
0100
0010
0000
0100
1000
0001
1000
0000
0000
0000
,  // measure 10
0010
0000
0100
0000
0001
0000
1000
0100
0000
0000
0010
0000
1000
0000
0000
0010
,  // measure 11
0000
0000
0001
0000
1001
0000
0000
1000
0000
0000
0010
0000
0110
0000
0000
0000
,  // measure 12
0100
0000
0000
0000
0001
0000
0000
0100
0000
0000
0010
0000
0100
0000
0000
0001
,  // measure 13
0000
0000
0010
0000
0100
0000
0000
1000
0000
0000
0001
0000
0100
0000
0010
0000
,  // measure 14
1000
0000
0010
0000
0002
0000
0000
0000
0023
0000
0000
0130
0000
0000
0001
0000
,  // measure 15
1000
0000
0100
0000
0010
0000
0000
0010
0000
0000
0001
0000
1000
0000
0010
0000
,  // measure 16
0100
0000
0001
0000
1000
0000
0000
0100
0000
0000
0010
0000
0100
0000
0000
1000
,  // measure 17
0000
0000
0001
0000
0100
0000
0000
0010
0000
0000
1000
0000
0100
0000
0010
0000
,  // measure 18
0001
0100
0002
0000
0103
0010
2000
0000
,  // measure 19
3100
0000
0010
0000
0001
0000
1000
0010
0000
1000
0010
0100
0001
0000
0000
0000
,  // measure 20
0200
0000
0310
1000
0010
1000
0001
0010
,  // measure 21
0100
0002
0000
0103
1000
0001
0000
0100
,  // measure 22
0010
1000
0001
0010
0001
0010
0100
1000
,  // measure 23
0010
0200
0000
0301
1000
0100
0000
0010
,  // measure 24
0001
1000
0001
0100
0001
0100
0010
1000
,  // measure 25
0010
1000
0001
0010
0001
0010
0100
1000
,  // measure 26
0100
1000
0001
0100
0010
1000
0001
1000
,  // measure 27
0010
0000
0100
0000
0001
0000
1000
0000
0001
0000
1000
0000
0010
0100
0010
0100
,  // measure 28
0002
0000
0103
0001
0100
0001
1000
0100
,  // measure 29
0010
2000
0000
3010
0001
1000
0000
0010
,  // measure 30
0100
0001
1000
0100
1000
0100
0010
0001
,  // measure 31
0100
0020
0000
0031
0010
0100
0000
0001
,  // measure 32
1000
0100
0010
0001
0010
0001
1000
0010
,  // measure 33
1000
0010
0100
0001
0100
0001
1000
0100
,  // measure 34
1000
0100
1000
0001
0100
0010
1000
0100
,  // measure 35
0010
0001
2000
0000
0100
0000
3001
1000
,  // measure 36
0010
1000
0010
1000
0020
0000
0000
0000
0000
0000
0230
0000
0000
0000
0000
0000
,  // measure 37
0301
1000
0200
0000
0000
2300
0000
0000
,  // measure 38
3001
0000
0000
0000
0100
0000
0000
0100
0010
0000
0000
0010
1000
0000
0000
1000
,  // measure 39
0100
0010
0001
0010
0100
0000
1000
0010
,  // measure 40
0100
0010
0002
0000
0000
0023
0000
0000
,  // measure 41
0130
0001
2000
0000
0000
3200
0000
0000
,  // measure 42
0310
0000
0000
0000
0001
0000
0000
0001
0100
0000
0000
0100
0010
0000
0000
0010
,  // measure 43
1000
0001
0010
0100
1000
0000
0001
0100
,  // measure 44
0010
0100
2000
0000
0000
3200
0000
0000
,  // measure 45
0310
1000
0002
0000
0000
0023
0000
0000
,  // measure 46
0030
0000
0000
0000
0100
0000
0000
0100
1000
0000
0000
1000
0001
0000
0100
0000
,  // measure 47
0010
1000
0000
0100
0010
0000
0001
1000
,  // measure 48
0010
0100
2000
0000
0000
3200
0000
0000
,  // measure 49
0301
0010
0200
0000
0000
2300
0000
0000
,  // measure 50
3000
0000
0000
0000
0001
0000
0000
0001
0010
0000
0000
0010
0100
0000
1000
0000
,  // measure 51
0001
0100
0000
0010
0000
1000
0001
1000
,  // measure 52
0001
0000
0000
0000
0001
0000
0010
0000
1000
0000
0010
0000
0001
1000
0001
1000
,  // measure 53
0001
1000
0001
0010
0100
0010
0001
1000
,  // measure 54
0010
1000
0001
0100
0010
0100
0001
0010
,  // measure 55
0100
0010
0001
1000
0010
0100
0001
0010
,  // measure 56
0100
0000
1000
0000
0002
0000
0000
1003
0200
0000
0000
0310
0001
0000
1000
0000
,  // measure 57
0001
1000
0001
0000
1000
0000
0100
0000
0010
0000
0100
0000
1000
0000
0001
0000
,  // measure 58
0100
0001
1000
0010
0100
0010
1000
0100
,  // measure 59
0010
0100
1000
0001
0100
0010
1000
0100
,  // measure 60
0010
0000
0100
0000
0002
0000
0000
0103
0020
0000
0000
0031
1000
0000
0001
0000
,  // measure 61
1000
0001
1000
0000
0001
0000
0100
0000
0010
0000
0001
0000
0010
0000
1000
0000
,  // measure 62
0001
0010
0100
0001
0100
1000
0001
0100
,  // measure 63
1000
0100
0001
1000
0100
0010
1000
0010
,  // measure 64
0001
0000
1000
0000
0010
0000
0000
0010
1000
0000
0000
1000
0100
0000
0010
0000
,  // measure 65
0001
1000
0001
0000
1000
0000
0100
0000
0001
0000
0100
0000
1000
0000
0010
0000
,  // measure 66
0001
0010
1000
0100
0001
0100
0010
0001
,  // measure 67
0010
0100
1000
0010
0001
0010
0100
0001
,  // measure 68
0010
0000
0100
0000
0002
0000
0003
0100
0020
0000
0000
0031
1000
0000
0010
0000
,  // measure 69
1000
0001
1000
0001
0200
0000
0000
0000
0000
0000
0000
0000
0300
0000
0000
0000
;
