#TITLE:MariannE;
#SUBTITLE:;
#ARTIST:Yooh;
#TITLETRANSLIT:;
#SUBTITLETRANSLIT:;
#ARTISTTRANSLIT:;
#GENRE:Hardcore;
#CREDIT:skeleton made by MEGAtive;
#BANNER:MariannE.png;
#BACKGROUND:MariannE-bg.png;
#LYRICSPATH:;
#CDTITLE:../_YSD cdtitles/ysd sale5 cdtitle.png;
#MUSIC:MariannE.ogg;
#OFFSET:-1.256000;
#SAMPLESTART:71.622002;
#SAMPLELENGTH:20.105000;
#SELECTABLE:YES;
#DISPLAYBPM:191.000000;
#BPMS:0.000000=191.000000
,30.500000=382.000000
,32.000000=191.000000
;
#STOPS:30.500000=0.079000,
31.000000=0.079000,
31.500000=0.079000
;
#BGCHANGES:;
#KEYSOUNDS:;
#ATTACKS:;
#LASTSECONDHINT:118.116035;

//---------------dance-single - ----------------
#NOTES:
     dance-single:
     :
     Beginner:
     4:
     0.150343,0.289409,0.049331,0.041109,0.000000,128.000000,122.000000,6.000000,5.000000,0.000000,0.000000,0.150343,0.289409,0.049331,0.041109,0.000000,128.000000,122.000000,6.000000,5.000000,0.000000,0.000000:
0000
0000
0000
0000
,
0000
0000
0000
0000
,
0000
0000
0000
0000
,
0000
0000
0000
0000
,
1000
0000
0000
0000
,
0001
0000
0000
0000
,
0010
0000
0000
0000
,
0100
0000
0000
0000
,
1001
0000
0000
0000
,
0010
0000
0000
0000
,
0100
0000
0000
0000
,
0001
0000
0000
0000
,
0110
0000
0000
0000
,
1000
0000
0000
0000
,
0001
0000
0000
0000
,
0010
0000
0000
0000
,
0110
0000
0000
0000
,
1000
0000
0000
0000
,
0010
0000
0000
0000
,
0100
0000
0000
0000
,
0001
0000
0000
0000
,
0010
0000
0000
0000
,
0100
0000
0000
0000
,
1000
0000
0000
0000
,
1001
0000
0000
0000
,
0001
0000
0100
0000
,
0001
0000
0000
0000
,
1000
0000
0100
0000
,
1000
0000
0000
0000
,
0001
0000
0100
0000
,
0001
0000
0000
0000
,
0010
0000
0100
0000
,
1000
0000
0000
0000
,
0010
0000
0100
0000
,
0001
0000
0000
0000
,
1000
0000
0001
0000
,
0010
0000
0000
0000
,
0100
0000
1000
0000
,
0001
0000
0000
0000
,
0100
0000
0010
0000
,
2000
0000
0000
0000
,
3000
0000
0000
0000
,
0002
0000
0000
0000
,
0003
0000
0000
0000
,
0020
0000
0000
0000
,
0030
0000
0000
0000
,
0200
0000
0000
0000
,
0300
0000
0000
0000
,
1000
0000
0000
0000
,
0001
0000
0000
0000
,
1000
0000
0000
0000
,
0010
0000
0000
0000
,
0100
0000
0000
0000
,
0010
0000
0000
0000
,
1000
0000
0000
0000
,
0002
0000
0003
0000
,
1001
0000
0000
0000
,
1000
0000
0010
0000
,
0100
0000
0000
0000
,
0001
0000
0010
0000
,
0100
0000
0000
0000
,
1000
0000
0001
0000
,
0100
0000
0000
0000
,
0010
0000
1000
0000
,
0100
0000
0000
0000
,
0010
0000
0100
0000
,
1000
0000
0000
0000
,
0010
0000
0100
0000
,
0001
0000
0000
0000
,
1000
0000
0100
0000
,
0010
0000
0000
0000
,
0001
0000
0100
0000
,
0010
0000
0010
0000
,
1000
0000
1000
0000
,
0100
0000
0100
0100
,
0100
0000
0010
0000
,
0001
0000
0001
0000
,
0100
0000
0100
0000
,
0010
0000
0010
0010
,
0010
0000
1000
0000
,
0001
0001
0001
0000
,
0010
0010
0010
0000
,
0100
0100
0100
0000
,
1000
1000
1000
0000
,
0001
0001
0001
0000
,
0100
0100
0100
0000
,
0010
0010
0010
0010
,
0010
0000
0000
0000
,
1001
0000
0000
0000
;

//---------------dance-single - ----------------
#NOTES:
     dance-single:
     :
     Easy:
     11:
     0.418140,0.578819,0.419315,0.098662,0.000000,356.000000,305.000000,51.000000,12.000000,0.000000,0.000000,0.418140,0.578819,0.419315,0.098662,0.000000,356.000000,305.000000,51.000000,12.000000,0.000000,0.000000:
0000
0000
0000
0000
,
0000
0000
0000
0000
,
0000
0000
0000
0000
,
0000
0000
0000
0000
,
2000
0000
0000
0000
,
0000
0000
0000
0000
,
3200
0000
0320
0000
,
0230
0000
1300
0000
,
1001
0000
0101
0000
,
0100
0010
1010
0000
,
1000
0000
1001
0000
,
1000
0100
0110
0000
,
0001
0000
1001
0000
,
1000
0010
0110
0000
,
0001
0000
1001
0000
,
0001
0010
0110
0000
,
1000
0000
1001
0000
,
0001
0100
1010
0000
,
0001
0000
1100
0000
,
0001
0010
1100
0000
,
0001
0100
0010
0100
,
0001
1000
0100
0010
,
0100
0001
0100
1000
,
0010
0000
0100
0000
0001
1000
0001
0000
,
1000
0100
0010
0100
,
1000
0010
0100
0000
0001
0000
0010
0000
,
0100
1000
0010
0100
,
0001
0000
1000
0000
0100
0010
0100
0000
,
1000
0001
0100
0010
,
1000
0001
0010
0000
0100
0000
0010
0000
,
0001
0100
0010
0001
,
0010
0000
1000
0001
0010
0000
0100
0000
,
1100
1000
0001
0100
,
0010
1000
0100
0000
1000
0000
0001
0000
,
0100
0010
1000
0100
,
0010
0000
0001
1000
0001
0000
0100
0000
,
0010
1010
1000
1001
,
0001
0010
0100
0000
0110
0000
0010
0000
,
0001
1000
0010
0001
,
0010
0000
0100
0001
1000
0000
0100
0000
,
0210
0000
0000
0000
,
2300
0000
0000
0000
,
3020
0000
0000
0000
,
0032
0000
0000
0000
,
0023
0000
0000
0000
,
0230
0000
0000
0000
,
0302
0000
0000
0000
,
2003
0000
0000
0000
,
3100
0010
0100
0000
,
1000
0001
0100
0010
,
1000
0001
0100
0000
,
0010
0001
0010
1000
,
0001
0000
0000
1000
0100
0000
0010
0000
,
0001
0000
0000
0100
0010
0000
1000
0000
,
0001
0010
0001
0000
1000
0010
1000
0000
,
0001
0010
0100
1100
,
1000
0000
0001
0000
0100
0000
0010
1000
,
0001
1000
0100
0010
,
0001
0000
1000
0000
0010
0000
0100
0001
,
0010
0100
1000
0001
,
0100
0010
1010
0000
,
1000
0100
0011
0000
,
0001
0100
1010
0000
,
1100
1001
0101
1001
,
1000
0000
0100
0000
0010
0000
0001
1000
,
0010
0100
0001
1000
,
0100
0000
0010
0000
0100
0000
1000
0010
,
0100
0001
1000
0100
,
0011
0000
0001
1000
0010
0000
0000
0000
,
0101
0000
0001
1000
0100
0000
0000
0000
,
0110
0000
0010
0001
1000
0001
1000
0000
,
0010
0100
0010
1000
,
1001
0001
0101
0001
,
1001
0001
0011
0001
,
1001
1000
1010
1010
,
1001
1001
0011
0001
,
1100
1000
1001
1000
,
1010
1000
1001
1000
,
1010
0010
0110
0110
,
0101
0000
0101
0000
1001
0000
1000
0100
,
0010
0000
0001
0000
0100
0000
0010
1000
,
0001
0000
0010
0000
0100
0000
1000
0010
,
0100
0000
1000
0000
0100
0000
0001
0010
,
0100
1000
0001
0100
,
0010
0000
0100
0001
1000
0000
0100
0010
,
0001
0000
1000
0010
0100
0000
0001
0010
,
0100
0000
1000
0010
0100
0000
0001
0010
,
0100
0000
1000
0110
,
1001
0000
0000
0000
;

//---------------dance-single - ----------------
#NOTES:
     dance-single:
     :
     Medium:
     14:
     0.678891,0.723524,0.337096,0.180881,0.147993,578.000000,537.000000,41.000000,22.000000,0.000000,0.000000,0.678891,0.723524,0.337096,0.180881,0.147993,578.000000,537.000000,41.000000,22.000000,0.000000,0.000000:
0000
0000
0000
0000
,
0000
0000
0000
0000
,
0000
0000
0000
0000
,
0000
0000
0000
0000
,
2000
0000
3020
0000
,
0230
0302
2003
0000
,
3200
0000
0320
0000
,
0032
0000
2003
0000
3010
0100
0010
0100
,
0101
0001
1001
0110
,
1000
0000
0100
0010
0011
0000
0001
0000
,
2001
0000
0100
0000
3001
0000
0100
0010
,
1000
0000
0100
0100
0010
0010
0001
1000
,
1010
0001
0101
1010
,
0001
0000
1000
0100
0110
0000
0001
0000
,
1020
0000
0100
0000
1030
0000
0100
0010
,
0001
0000
0100
0100
0010
1000
0100
0010
,
0001
0000
0100
0000
0110
0000
0001
0010
,
0100
0000
1000
0010
0100
0000
0101
0000
,
1000
0100
0110
0001
,
0100
0000
0010
0010
1000
1000
0001
0010
,
0100
1000
0001
0000
0100
0010
1000
0000
,
0100
0010
0001
0000
1000
0010
0100
0000
,
0001
1000
0100
0010
0100
1000
0001
0100
,
0010
0100
0001
0010
1000
0010
0001
1000
,
0010
0100
0010
1000
0001
0100
0001
1000
,
0100
0001
0100
1000
0010
1000
0001
0100
,
0001
1000
0100
0010
0100
1000
0001
0100
,
0001
0010
0100
0001
0100
0010
0001
1000
,
0010
0100
0010
1000
0001
0010
0001
1000
,
0010
0001
0010
1000
0100
0010
0001
1000
,
0010
0100
0001
0010
0100
1000
0001
0010
,
0001
0100
1000
0001
0010
1000
0100
0010
,
0011
0001
0100
0010
0100
0001
1000
0001
,
0010
1000
0010
0001
0100
0010
1000
0001
,
0010
0100
0010
0001
1000
0010
0100
0010
,
1000
0100
0010
1000
0010
0100
1000
0010
,
0110
0010
1000
0001
0010
0100
1000
0001
,
0101
0001
0010
0100
1000
0010
0100
0001
,
0101
0001
1000
0100
0110
0100
1000
0001
,
1000
0010
0001
1000
0100
0001
0010
0100
,
1200
0000
0000
0000
0000
0000
0310
0001
,
2000
0000
0000
0000
,
3020
0000
0000
0000
0000
0000
1030
0100
,
0002
0000
0000
0000
,
0203
0000
0000
0000
,
2300
0000
0000
0000
,
3002
0000
0000
0000
,
0203
0320
2030
3002
,
0103
0010
0100
0010
0100
0010
0100
0010
,
1000
0001
1000
0001
1000
0001
1000
0001
,
0010
0100
0010
0100
0010
0100
0010
0100
,
1000
0001
1000
0001
1000
0001
1000
0001
,
0100
0010
1000
0010
0100
0001
0100
0010
,
1000
0001
0010
0100
1000
0010
0100
0001
,
1000
0100
0010
0100
1000
0010
0100
0001
,
1000
0100
0010
0011
,
0101
0000
0001
0100
0010
0100
0001
0010
,
0100
1000
0000
0000
1000
0010
0000
0000
0010
0100
0000
0000
0100
0001
0000
0000
,
1001
0000
1000
0100
0010
1000
0010
0001
,
1000
0010
0000
0000
0010
0100
0000
0000
0100
0001
0000
0000
0001
0000
1000
0000
,
0100
0000
0000
0000
0010
0000
0001
0000
1001
0000
0000
0000
1000
0010
1000
0000
,
0001
0000
0000
0000
0010
0000
0100
0000
1100
0000
0000
0000
1000
0001
1000
0000
,
0010
0000
0000
0000
0100
0000
0001
0000
1001
0000
0000
0000
1000
0100
1000
0000
,
0001
0000
0100
0010
0100
0001
1000
0000
,
1100
0000
0100
0010
0001
0100
0010
1000
,
0001
0010
0000
0000
0010
0100
0000
0000
0100
1000
0000
0000
1000
0010
0000
0000
,
0110
0000
0100
0010
0001
0010
1000
0001
,
0010
0100
0000
0000
0100
1000
0000
0000
1000
0010
0000
0000
0001
0000
0010
0000
,
0100
0000
0000
0000
0010
0000
1000
0000
1001
0000
0000
0000
0001
0010
0001
0000
,
1000
0000
0000
0000
0010
0000
0100
0000
0001
0000
0100
0000
0010
1000
0010
0000
,
0100
0001
1000
0001
0010
0100
0010
0001
,
0100
1000
0100
1001
,
0001
0100
0110
0000
1000
0100
0110
0000
,
0001
1000
1010
0000
1000
0001
0011
0000
,
0001
0000
0100
0000
0101
0000
0000
0000
0001
1000
0000
0000
1000
0100
0000
0000
,
0100
0010
0000
0000
0010
0001
0000
0000
0001
0100
0000
0000
0010
1000
0001
0000
,
0010
0100
1100
0000
1000
0010
0110
0000
,
0001
1000
1100
0000
0001
0010
1100
0000
,
0001
0000
0100
0000
1010
0000
0000
0000
1000
0100
0000
0000
0100
0010
0000
0000
,
0010
0001
0000
0000
0001
0100
0000
0000
0100
0010
0000
0000
1000
0001
0100
0000
,
0010
1000
0001
0100
0010
1000
0001
0100
,
0010
1000
0100
0010
0001
1000
0100
0010
,
0001
0100
0010
0001
0010
0100
0001
1000
,
0100
0010
1000
0010
0100
1000
0001
0100
,
0010
0000
0000
0000
0100
0001
1000
0000
0010
0000
0000
0000
0100
0001
1000
0000
,
0100
0000
0000
0000
0010
0001
1000
0000
0100
0000
0000
0000
0010
0001
1000
0000
,
0010
0000
0100
0000
0001
0000
0010
0000
0100
0000
1000
0000
0001
0100
0010
0000
,
1000
0000
0000
0110
,
1001
0000
0000
0000
;

//---------------dance-single - ----------------
#NOTES:
     dance-single:
     :
     Hard:
     17:
     0.859772,1.032254,0.304209,0.172659,0.480979,732.000000,695.000000,37.000000,21.000000,1.000000,0.000000,0.859772,1.032254,0.304209,0.172659,0.480979,732.000000,695.000000,37.000000,21.000000,1.000000,0.000000:
0000
0000
0000
0000
,
0000
0000
0000
0000
,
0000
0000
0000
0000
,
0000
0000
0000
0000
,
1000
0010
0100
0010
1000
1001
0010
0100
,
0010
1000
0010
0100
1000
0001
0100
0001
,
1000
0100
0010
0100
1000
0010
0100
0001
,
1000
0100
0001
0100
1000
0010
0100
0001
,
1001
0000
1000
0010
0110
0000
0001
0010
,
0200
0000
1300
0010
0210
0000
0001
0000
,
0320
0000
1030
0000
0101
0000
0001
0010
,
0100
0010
0001
0001
1001
0001
0100
0001
,
1000
0000
0100
0010
0011
0000
0001
0100
,
0020
0000
1030
0100
0210
0000
1000
0000
,
0320
0000
0031
0000
1100
0000
1000
0001
,
1000
0010
0001
0010
1000
0100
0010
0001
,
0100
0000
0010
1000
1010
0000
0001
0010
,
0100
0100
1000
1000
1002
0000
0100
0000
,
1003
0000
0010
0100
0101
0000
0001
0010
,
0100
0000
1000
0001
1000
0000
0010
0000
0110
0000
0010
0000
1000
0000
0001
0000
,
0010
0100
0010
0100
1000
0001
1000
0001
,
0100
0010
0100
0010
1000
0001
0010
0100
,
1000
0001
1000
0001
0100
0001
0100
0001
1000
0001
1000
0001
1000
0100
1000
0100
,
0020
0000
0000
0000
1030
0010
0001
1000
,
1010
0010
0100
0001
0100
0010
1000
0100
,
0010
0000
0001
0010
0001
0000
1000
0010
1000
0000
0001
0100
0001
0000
1000
0100
,
1000
0100
0010
0001
0100
0010
1000
0001
,
0100
0001
0010
0100
0001
0100
0010
0001
,
1000
0010
0100
0010
1000
0100
0010
0001
,
1000
0000
0001
0100
0001
0000
1000
0100
1000
0000
0001
0010
0001
0000
1000
0010
,
1000
0100
0010
0001
0100
0010
1000
0001
,
1000
0000
0010
0000
0001
0000
0010
0000
1000
0000
0100
0000
0010
0001
0010
0001
,
1000
0010
0100
0001
0100
0010
1000
0100
,
0010
0000
0001
1000
0010
0000
1000
0001
0010
0000
0100
1000
0001
0000
0100
0010
,
1000
0001
0010
0001
0100
0010
1000
0100
,
0010
0000
0001
0100
0010
0000
0001
0010
0100
0000
0001
0010
0100
0000
1000
0001
,
0010
0100
1100
0000
1000
0010
0110
0000
,
0101
0000
0001
0100
0010
0000
1000
0001
0010
0000
0100
0000
1100
0000
0000
0000
,
1010
0000
0010
0000
0100
0000
0001
0000
1000
0100
1000
0100
0010
0001
0010
0001
,
1000
0010
0001
0010
1000
0001
0010
0100
,
2000
0000
0000
0000
0000
0000
3002
0203
,
0320
0000
0000
0000
,
2030
0000
0000
0000
0000
0000
3002
0023
,
2030
0000
0000
0000
,
3020
0000
0000
0000
0000
0000
0032
0203
,
0320
0000
0000
0000
,
2030
0000
0000
0000
3100
0000
0010
0001
,
0100
0010
1000
0001
,
1000
0100
1000
0100
0010
0001
0100
0010
,
1000
0001
0010
0001
0100
0010
1000
0100
,
0010
0001
0010
0001
1000
0010
0100
0001
,
0010
1000
0010
0001
0100
1000
0100
0001
,
0010
0100
1000
0010
0100
0001
1000
0100
,
0010
0001
0100
0010
1000
0001
0010
0100
,
1000
0001
0100
0001
0100
0010
1000
0010
0100
0001
1000
0100
0010
0001
1000
0010
,
0100
0000
0000
1001
,
1000
0010
0100
0000
0001
0000
1000
0000
0100
0010
0001
0000
0100
0000
0010
0000
,
1000
0010
0100
0000
0100
0001
1000
0000
1000
0100
0010
0000
0010
0001
0100
0000
,
1000
0100
0010
0000
0100
0000
0001
0000
0010
0100
1000
0000
0100
0000
0001
0000
,
0100
1000
0001
0000
0001
0100
0010
0000
0010
0100
0001
0000
0010
0000
0100
0000
,
1000
0000
0000
0000
0000
0000
0000
0000
0000
0000
0000
0000
0100
0000
0000
1000
0000
0000
0001
0000
0000
0000
0000
0000
0100
0000
0000
0000
0000
0000
0000
0000
0000
0000
0000
0000
0001
0000
1000
0000
0001
0000
0000
0000
0000
0000
0000
0000
,
0100
0000
0000
0000
0000
0000
0000
0000
0000
0000
0000
0000
0001
0000
0000
0010
0000
0000
0100
0000
0000
0000
0000
0000
1000
0000
0000
0000
0000
0000
0000
0000
0000
0000
0000
0000
0001
0000
1000
0000
0001
0000
0000
0000
0000
0000
0000
0000
,
0100
0000
0000
0000
0000
0000
0000
0000
0000
0000
0000
0000
0010
0000
0000
1000
0000
0000
0001
0000
0000
0000
0000
0000
0010
0000
0000
0000
0000
0000
0000
0000
0000
0000
0000
0000
0001
0000
1000
0000
0001
0000
0000
0000
0000
0000
0000
0000
,
0100
0010
1000
0000
1000
0100
0010
0000
0010
0001
0100
0000
0100
0010
0100
0010
,
1000
0001
0010
0000
0100
0000
1000
0000
0001
0100
0010
0000
0100
0000
0001
0000
,
0010
0100
1000
0000
1000
0001
0100
0000
0100
0010
1000
0000
1000
0001
0010
0000
,
1000
0010
0100
0000
1000
0000
0001
0000
0100
0010
1000
0000
0100
0000
0001
0000
,
0100
1000
0010
0000
0010
0100
0001
0000
0001
0010
0100
0000
0001
0000
0100
0000
,
1100
0000
0000
0000
0000
0000
0000
0000
0000
0000
0000
0000
1000
0000
0000
0010
0000
0000
0100
0000
0000
0000
0000
0000
0001
0000
0000
0000
0000
0000
0000
0000
0000
0000
0000
0000
1000
0000
0100
0000
1000
0000
0000
0000
0000
0000
0000
0000
,
1010
0000
0000
0000
0010
0100
0001
0000
0010
0000
0000
0000
0100
1000
0100
1000
,
0010
0000
0100
0000
1000
0000
0100
0000
0010
0100
0001
0100
0010
1000
0100
0010
,
0001
0100
1000
0100
0010
0000
0110
0000
,
1010
1000
0001
0010
0011
0001
1000
0100
,
1100
0000
1000
0000
0010
0000
0100
0000
0101
0000
0001
0000
0010
0100
0010
0100
,
1000
0000
0010
0000
0110
0000
0100
0000
0001
0010
1000
0000
1000
0010
0001
0000
,
0001
0100
1000
0000
1000
0100
0001
0000
0001
0010
0100
0000
1000
0010
1000
0100
,
0010
0001
0100
0010
1010
1000
0001
0010
,
0110
0000
1000
0000
0001
0000
0100
0000
0110
0000
1000
0000
0001
0010
0001
0010
,
0100
0000
1000
0000
1010
0000
0010
0000
1000
0100
0001
0000
0001
0100
1000
0000
,
1000
0010
0001
0000
0001
0010
1000
0000
1000
0100
0010
0000
0001
0100
0001
0010
,
0100
1000
0010
0100
0001
0010
0001
1000
,
0110
0001
1000
0010
0100
1000
0100
0010
,
0110
0001
0010
1000
0001
0100
1000
0010
,
0101
1000
0100
0010
0001
0100
0010
1000
,
0100
0010
0001
0000
1000
0000
1000
0000
0010
0100
0001
0000
1000
0000
1000
0000
,
0100
0010
0001
0000
0100
0000
0100
0000
0010
1000
0001
0000
0010
0000
0010
0000
,
0001
0010
0100
1000
0001
0100
0010
0100
0001
1000
0100
1000
0010
0100
0001
0010
,
0001
0010
0100
0010
1000
0010
0110
0000
,
1001
0000
0000
0000
,
0000
0000
0000
0000
,
0000
0000
0000
0000
,
0000
0000
0000
0000
,
0000
0000
0000
0000
,
00M0
0000
0000
0000
;

//---------------dance-double - ----------------
#NOTES:
     dance-double:
     :
     Beginner:
     4:
     0.137422,0.180881,0.049331,0.065775,0.000000,117.000000,111.000000,6.000000,8.000000,0.000000,0.000000,0.137422,0.180881,0.049331,0.065775,0.000000,117.000000,111.000000,6.000000,8.000000,0.000000,0.000000:
// measure 0
00000000
00000000
00000000
00000000
,  // measure 1
00000000
00000000
00000000
00000000
,  // measure 2
00000000
00000000
00000000
00000000
,  // measure 3
00000000
00000000
00000000
00000000
,  // measure 4
00010000
00000000
00000000
00000000
,  // measure 5
00001000
00000000
00000000
00000000
,  // measure 6
01000000
00000000
00000000
00000000
,  // measure 7
00010000
00000000
00000000
00000000
,  // measure 8
10010000
00000000
00000000
00000000
,  // measure 9
10000000
00000000
00000000
00000000
,  // measure 10
01000000
00000000
00000000
00000000
,  // measure 11
00100000
00000000
00000000
00000000
,  // measure 12
00110000
00000000
00000000
00000000
,  // measure 13
00001000
00000000
00000000
00000000
,  // measure 14
00010000
00000000
00000000
00000000
,  // measure 15
00000010
00000000
00000000
00000000
,  // measure 16
00001010
00000000
00000000
00000000
,  // measure 17
00001000
00000000
00000000
00000000
,  // measure 18
00000001
00000000
00000000
00000000
,  // measure 19
00001000
00000000
00000000
00000000
,  // measure 20
00000100
00000000
00000000
00000000
,  // measure 21
00000010
00000000
00000000
00000000
,  // measure 22
00000001
00000000
00000000
00000000
,  // measure 23
00001000
00000000
00000000
00000000
,  // measure 24
00001010
00000000
00000000
00000000
,  // measure 25
00000010
00000000
00000100
00000000
,  // measure 26
00000001
00000000
00000000
00000000
,  // measure 27
00001000
00000000
00000100
00000000
,  // measure 28
00010000
00000000
00000000
00000000
,  // measure 29
00001000
00000000
01000000
00000000
,  // measure 30
00010000
00000000
00000000
00000000
,  // measure 31
10000000
00000000
00010000
00000000
,  // measure 32
00100000
00000000
00000000
00000000
,  // measure 33
01000000
00000000
10000000
00000000
,  // measure 34
00010000
00000000
00000000
00000000
,  // measure 35
01000000
00000000
00001000
00000000
,  // measure 36
00010000
00000000
00000000
00000000
,  // measure 37
00000100
00000000
00001000
00000000
,  // measure 38
00000001
00000000
00000000
00000000
,  // measure 39
00000100
00000000
00000010
00000000
,  // measure 40
00002000
00000000
00000000
00000000
,  // measure 41
00003000
00000000
00000000
00000000
,  // measure 42
00000200
00000000
00000000
00000000
,  // measure 43
00000300
00000000
00000000
00000000
,  // measure 44
00020000
00000000
00000000
00000000
,  // measure 45
00030000
00000000
00000000
00000000
,  // measure 46
00002000
00000000
00000000
00000000
,  // measure 47
00003000
00000000
00000000
00000000
,  // measure 48
01000000
00000000
00001000
00000000
,  // measure 49
01000000
00000000
00000000
00000000
,  // measure 50
00010000
00000000
10000000
00000000
,  // measure 51
00010000
00000000
00000000
00000000
,  // measure 52
00100000
00000000
01000000
00000000
,  // measure 53
00100000
00000000
00000000
00000000
,  // measure 54
00010000
00000000
10000000
00000000
,  // measure 55
00010000
00000000
00000000
00000000
,  // measure 56
10010000
00000000
10000000
00000000
,  // measure 57
00100000
00000000
00000000
00000000
,  // measure 58
01000000
00000000
00010000
00000000
,  // measure 59
00100000
00000000
00000000
00000000
,  // measure 60
01000000
00000000
00010000
00000000
,  // measure 61
00001000
00000000
00000000
00000000
,  // measure 62
00010000
00000000
00001000
00000000
,  // measure 63
00000100
00000000
00000000
00000000
,  // measure 64
00000010
00000000
00000100
00000000
,  // measure 65
00000001
00000000
00000000
00000000
,  // measure 66
00000010
00000000
00000100
00000000
,  // measure 67
00001000
00000000
00000000
00000000
,  // measure 68
00000001
00000000
00000100
00000000
,  // measure 69
00000010
00000000
00000000
00000000
,  // measure 70
00000100
00000000
00001000
00000000
,  // measure 71
00010000
00000000
00000000
00000000
,  // measure 72
00001000
00000000
00001000
00000000
,  // measure 73
00010000
00000000
00010000
00000000
,  // measure 74
00001000
00000000
00001000
00000000
,  // measure 75
00000010
00000000
00000010
00000000
,  // measure 76
00001000
00000000
00001000
00000000
,  // measure 77
00010000
00000000
00010000
00000000
,  // measure 78
00100000
00000000
00100000
00000000
,  // measure 79
01000000
00000000
01000000
00000000
,  // measure 80
00020000
00000000
00030000
00000000
,  // measure 81
20000000
00000000
30000000
00000000
,  // measure 82
02000000
00000000
03000000
00000000
,  // measure 83
00200000
00000000
00300000
00000000
,  // measure 84
00010000
00000000
10000000
00000000
,  // measure 85
00010000
00000000
00000000
00000000
,  // measure 86
01000000
00000000
00100000
00000000
,  // measure 87
01000000
00000000
00000000
00000000
,  // measure 88
01100000
00000000
00000000
00000000
;

//---------------dance-double - ----------------
#NOTES:
     dance-double:
     :
     Easy:
     11:
     0.415791,0.651171,0.468646,0.131550,0.000000,354.000000,297.000000,57.000000,16.000000,0.000000,0.000000,0.415791,0.651171,0.468646,0.131550,0.000000,354.000000,297.000000,57.000000,16.000000,0.000000,0.000000:
// measure 0
00000000
00000000
00000000
00000000
,  // measure 1
00000000
00000000
00000000
00000000
,  // measure 2
00000000
00000000
00000000
00000000
,  // measure 3
00000000
00000000
00000000
00000000
,  // measure 4
00020000
00000000
00000000
00000000
,  // measure 5
00000000
00000000
00000000
00000000
,  // measure 6
00032000
00000000
02003000
00000000
,  // measure 7
03002000
00000000
00013000
00001000
,  // measure 8
00011000
01000000
01001000
00000000
,  // measure 9
00010000
10000000
10100000
00000000
,  // measure 10
10000000
01000000
01100000
00000000
,  // measure 11
00001000
00010000
00011000
00000000
,  // measure 12
00000100
00000010
00000110
00000000
,  // measure 13
00000001
00001000
00001001
00000000
,  // measure 14
00000001
00000100
00001010
00000000
,  // measure 15
00000001
00000010
00001100
00010000
,  // measure 16
00001000
00001000
00100000
00100000
,  // measure 17
00001000
00001000
00010000
00010000
,  // measure 18
00000010
00000010
00000100
00000100
,  // measure 19
00000010
00000010
00001000
00001000
,  // measure 20
00000100
00000001
00000100
00001000
,  // measure 21
00000010
00000100
00001000
00010000
,  // measure 22
00100000
01000000
00100000
00000000
10000000
00010000
10000000
00000000
,  // measure 23
00020000
00000000
00000000
00030000
,  // measure 24
10010000
10000000
01000000
00010000
,  // measure 25
00001000
01000000
00100000
00010000
,  // measure 26
00001000
00010000
00000100
00000010
,  // measure 27
00000100
00001000
00000010
00000100
,  // measure 28
00000001
00000100
00000010
00001000
,  // measure 29
00000100
00000001
00000100
00001000
,  // measure 30
00000010
00000100
00001000
00010000
,  // measure 31
00100000
00000000
01000000
00000000
00001000
00000000
00100000
00001000
,  // measure 32
00100000
01000000
10000000
00100000
,  // measure 33
00010000
00100000
01000000
00001000
,  // measure 34
00010000
00000100
00000010
00000100
,  // measure 35
00001000
00000010
00000100
00001000
,  // measure 36
00000100
00000010
00000110
00000000
,  // measure 37
00000100
00000001
00001001
00000000
,  // measure 38
00010000
00001000
01000000
00100000
,  // measure 39
00010000
00000000
00100000
00000000
01000000
00000000
00010000
10000000
,  // measure 40
00020000
00000000
00000000
00000000
,  // measure 41
00230000
00000000
00000000
00000000
,  // measure 42
02300000
00000000
00000000
00000000
,  // measure 43
03020000
00000000
00000000
00000000
,  // measure 44
00032000
00000000
00000000
00000000
,  // measure 45
00003200
00000000
00000000
00000000
,  // measure 46
00000302
00000000
00000000
00000000
,  // measure 47
00002003
00003200
00000320
00000032
,  // measure 48
00000103
00000010
00001000
00000010
,  // measure 49
00000100
00000000
00000001
00000000
00001000
00000000
00000100
00000010
,  // measure 50
00000100
00001000
00000001
00000100
,  // measure 51
00001000
00000000
00010000
00000000
00001000
00000000
01000000
00001000
,  // measure 52
01000000
00010000
10010000
00000000
,  // measure 53
10000000
01000000
01100000
00000000
,  // measure 54
00010000
00000000
10000000
00000000
00100000
00000000
01000000
00010000
,  // measure 55
01000000
00000000
00000000
00011000
,  // measure 56
00010000
00001000
00000010
00000100
,  // measure 57
00001000
00001010
00000001
00000011
,  // measure 58
00001000
00000010
00000100
00000001
,  // measure 59
00001000
00001100
00010000
00011000
,  // measure 60
00001000
01000000
01010000
00000000
,  // measure 61
10000000
00100000
01100000
00000000
,  // measure 62
00010000
10000000
11000000
00000000
,  // measure 63
10000000
00000000
01000000
00000000
00100000
00000000
00001000
00010000
,  // measure 64
00001000
00010000
00000010
00000100
,  // measure 65
00000001
00000101
00001000
00001100
,  // measure 66
00000001
00000100
00001000
00010000
,  // measure 67
00001000
00011000
00100000
01100000
,  // measure 68
10000000
00010000
01010000
00000000
,  // measure 69
10000000
01000000
00110000
00000000
,  // measure 70
00001000
00000000
00010000
00000000
00000010
00000000
00000100
00000001
,  // measure 71
00000100
00000000
00000000
00000110
,  // measure 72
00001001
00001001
00001100
00001100
,  // measure 73
00011000
00011000
01001000
01001000
,  // measure 74
01010000
00000000
01010000
00000000
01000000
00010000
01000000
00000000
,  // measure 75
00100000
10000000
00100000
00000000
01100000
00000000
01000000
00000000
,  // measure 76
10010000
10010000
01010000
01010000
,  // measure 77
00011000
00011000
00010100
00010100
,  // measure 78
00000110
00000000
00000110
00000000
00000001
00001000
00000001
00000000
,  // measure 79
00000010
00000100
00000010
00000000
00000110
00000000
00001001
00000000
,  // measure 80
00000001
00000100
00001000
00010000
,  // measure 81
00011000
00001000
00100000
01000000
,  // measure 82
11000000
10000000
00100000
01000000
,  // measure 83
01010000
00010000
01000000
00100000
,  // measure 84
00010000
00000000
00001000
00000000
00000010
00000000
00000100
00001000
,  // measure 85
00000100
00000000
00000010
00000000
00000001
00000000
00001000
00000001
,  // measure 86
00001000
00000000
00000010
00000000
00000100
00000000
00000001
00001000
,  // measure 87
00000001
00000000
00000000
00000110
,  // measure 88
00001001
00000000
00000000
00000000
;

//---------------dance-double - ----------------
#NOTES:
     dance-double:
     :
     Medium:
     14:
     0.683589,0.687347,0.263099,0.139772,0.123328,582.000000,550.000000,32.000000,17.000000,0.000000,0.000000,0.683589,0.687347,0.263099,0.139772,0.123328,582.000000,550.000000,32.000000,17.000000,0.000000,0.000000:
// measure 0
00000000
00000000
00000000
00000000
,  // measure 1
00000000
00000000
00000000
00000000
,  // measure 2
00000000
00000000
00000000
00000000
,  // measure 3
00000000
00000000
00000000
00000000
,  // measure 4
00020000
00000000
00032000
00003020
,  // measure 5
00000130
00000000
00001000
00000001
00000100
00000000
00000010
00001000
,  // measure 6
00000001
00000000
00000010
00000000
,  // measure 7
00001000
00000000
00000000
00000000
00010000
00001000
00001000
00001000
,  // measure 8
00011000
00000000
00001000
01000000
00100000
00000000
10000000
00010000
,  // measure 9
00100000
00100000
01000000
01000000
10000000
00000000
11000000
00000000
,  // measure 10
00120000
00000000
01000000
00000000
10030000
00100000
00100000
00100000
,  // measure 11
01000000
00000000
00001000
00001000
00010000
00010000
00000100
00000100
,  // measure 12
00000010
00000000
00000001
00000100
00000110
00000000
00001000
00000100
,  // measure 13
00000110
00000011
00001010
00011000
,  // measure 14
00201000
00000000
00010000
00000000
01300000
10000000
10000000
10000000
,  // measure 15
00100000
01000000
10000000
01000000
00010000
00100000
01000000
00010000
,  // measure 16
00001000
00000000
00010000
00000010
00000100
00000000
00000001
00000010
,  // measure 17
00000100
00000100
00001000
00001000
00001010
00000000
00000101
00000000
,  // measure 18
00002010
00000000
00000100
00000000
00003001
00000010
00000010
00000010
,  // measure 19
00000100
00000001
00000100
00001000
00000010
00000100
00001000
00010000
,  // measure 20
00001000
00100000
00001000
00100000
00010000
00100000
00010000
00100000
,  // measure 21
01000000
00100000
01000000
00100000
01000000
10000000
00010000
10000000
,  // measure 22
00010000
01000000
00100000
00010000
00001000
00010000
00100000
01000000
,  // measure 23
00001000
00010000
00000100
00000010
00001000
00000010
00000001
00000100
,  // measure 24
00000010
00001000
00000001
00000010
00000100
00000010
00001000
00000010
,  // measure 25
00000100
00010000
00001000
01000000
00100000
00010000
00100000
01000000
,  // measure 26
00010000
10000000
01000000
00100000
00010000
01000000
00100000
10000000
,  // measure 27
00010000
10000000
01000000
00100000
01000000
10000000
00100000
01000000
,  // measure 28
00010000
10000000
01000000
00100000
10000000
00100000
01000000
10000000
,  // measure 29
00100000
00010000
00001000
00010000
00000100
00000010
00000100
00001000
,  // measure 30
00000010
00000100
00001000
00000100
00000010
00000001
00000010
00000100
,  // measure 31
00001000
00010000
00100000
01000000
10000000
01000000
00100000
10000000
,  // measure 32
00010000
00100000
01000000
00100000
00010000
10000000
00100000
01000000
,  // measure 33
10000000
01000000
00010000
00100000
01000000
00100000
00001000
00010000
,  // measure 34
00000010
00000100
00000001
00000010
00000100
00000010
00000001
00000100
,  // measure 35
00000010
00001000
00000010
00000100
00000001
00000010
00000100
00010000
,  // measure 36
00001000
00100000
00001000
01000000
00001000
00100000
00001000
00010000
,  // measure 37
00100000
01000000
00100000
00010000
00100000
10000000
01000000
00100000
,  // measure 38
00010000
00100000
01000000
10000000
00100000
01000000
00010000
01000000
,  // measure 39
00100000
00010000
00001000
00000100
00000010
00000001
00000010
00000100
,  // measure 40
00000002
00000000
00000000
00000000
00000000
00000000
00000013
00000100
,  // measure 41
00002000
00000000
00000000
00000000
,  // measure 42
00003002
00000000
00000000
00000000
00000000
00000000
00000103
00001000
,  // measure 43
00020000
00000000
00000000
00000000
,  // measure 44
00032000
00000000
00000000
00000000
,  // measure 45
00203000
00000000
00000000
00000000
,  // measure 46
02300000
00000000
00000000
00000000
,  // measure 47
23000000
30200000
02300000
03020000
,  // measure 48
10030000
00010000
10000000
00010000
10000000
00010000
10000000
00010000
,  // measure 49
01000000
00001000
01000000
00001000
01000000
00001000
01000000
00001000
,  // measure 50
00010000
00000100
00010000
00000100
00010000
00000100
00010000
00000100
,  // measure 51
00001000
00000001
00001000
00000001
00001000
00000001
00001000
00000001
,  // measure 52
00000010
00000100
00000010
00000100
00001000
00000001
00001000
00000001
,  // measure 53
00000100
00000001
00000100
00000001
00001000
00000010
00001000
00000010
,  // measure 54
00010000
00001000
00010000
00001000
00100000
01000000
00100000
01000000
,  // measure 55
10000000
00000000
00000000
01100000
,  // measure 56
10010000
00000000
10000000
00100000
00010000
00001000
00010000
00100000
,  // measure 57
10000000
00100000
00000000
00000000
00100000
01000000
00000000
00000000
01000000
00001000
00000000
00000000
00001000
00010000
00000000
00000000
,  // measure 58
00011000
00000000
00001000
00000010
00000001
00000100
00001000
00010000
,  // measure 59
00100000
01000000
00000000
00000000
01000000
00010000
00000000
00000000
00010000
10000000
00000000
00000000
10000000
00000000
01000000
00000000
,  // measure 60
00100000
00000000
00000000
00000000
00010000
00000000
01000000
00000000
00100000
00000000
00000000
00000000
01000000
00001000
01000000
00000000
,  // measure 61
00001000
00000000
00000000
00000000
00010000
00000000
00000100
00000000
00000010
00000000
00000000
00000000
00000001
00001000
00000001
00000000
,  // measure 62
00000100
00000000
00000000
00000000
00000010
00000000
00010000
00000000
00001000
00000000
00000000
00000000
00100000
01000000
00100000
00000000
,  // measure 63
00010000
00000000
00110000
00000000
11000000
00000000
10000000
00100000
,  // measure 64
01100000
00000000
01000000
00100000
00010000
00001000
00010000
00100000
,  // measure 65
01000000
00010000
00000000
00000000
00010000
10000000
00000000
00000000
10000000
01000000
00000000
00000000
01000000
00100000
00000000
00000000
,  // measure 66
00110000
00000000
00001000
00100000
01000000
10000000
00100000
00010000
,  // measure 67
00001000
00010000
00000000
00000000
00010000
00000100
00000000
00000000
00000100
00000010
00000000
00000000
00000010
00000000
00000001
00000000
,  // measure 68
00000100
00000000
00000000
00000000
00001000
00000000
00010000
00000000
00011000
00000000
00000000
00000000
00001000
00100000
00001000
00000000
,  // measure 69
00010000
00000000
00001000
00000010
00000001
00000100
00001000
00010000
,  // measure 70
00100000
00000000
01000000
00010000
00100000
01000000
10000000
00100000
,  // measure 71
01000000
10000000
01000000
00001000
,  // measure 72
00010000
00001000
00011000
00000000
00010000
00000010
00010010
00000000
,  // measure 73
00010000
00000100
00010100
00000000
00010000
00000010
00010010
00000000
,  // measure 74
00000010
00000000
00001000
00000000
00001010
00000000
00000000
00000000
00000010
00000100
00000000
00000000
00000100
00000001
00000000
00000000
,  // measure 75
00000001
00000010
00000000
00000000
00000010
00001000
00000000
00000000
00001000
00010000
00000000
00000000
00001000
00010000
00001000
00000000
,  // measure 76
01000000
00001000
01001000
00000000
01000000
00010000
01010000
00000000
,  // measure 77
01000000
00100000
01100000
00000000
01000000
00010000
01010000
00000000
,  // measure 78
00010000
00000000
10000000
00000000
10010000
00000000
00000000
00000000
10000000
01000000
00000000
00000000
01000000
00010000
00000000
00000000
,  // measure 79
00010000
00001000
00000000
00000000
00001000
00000010
00000000
00000000
00000010
00000100
00000000
00000000
00001000
00000001
00001000
00000000
,  // measure 80
00000010
00000100
00000010
00000100
00000001
00001000
00000001
00001000
,  // measure 81
00000100
00000010
00000100
00000010
00001000
00010000
00001000
00010000
,  // measure 82
00100000
01000000
00100000
01000000
00010000
10000000
00010000
10000000
,  // measure 83
01000000
00010000
01000000
00010000
00001000
00010000
00001000
00010000
,  // measure 84
00000010
00000100
00001000
00010000
00100000
01000000
00010000
00100000
,  // measure 85
01000000
10000000
00100000
00010000
00001000
00000010
00000001
00000010
,  // measure 86
00001000
00010000
00100000
01000000
00010000
00100000
01000000
10000000
,  // measure 87
00010000
00000000
00000000
01100000
,  // measure 88
10010000
00000000
00000000
00000000
;

//---------------dance-double - ----------------
#NOTES:
     dance-double:
     :
     Hard:
     17:
     0.804568,0.976757,0.386427,0.156215,0.304209,685.000000,638.000000,47.000000,19.000000,0.000000,0.000000,0.804568,0.976757,0.386427,0.156215,0.304209,685.000000,638.000000,47.000000,19.000000,0.000000,0.000000:
// measure 0
00000000
00000000
00000000
00000000
,  // measure 1
00000000
00000000
00000000
00000000
,  // measure 2
00000000
00000000
00000000
00000000
,  // measure 3
00000000
00000000
00000000
00000000
,  // measure 4
00010000
00001000
00100000
00001000
00010000
00000010
00000100
00001000
,  // measure 5
00000100
00000001
00000010
00001000
00010000
00001000
01000000
00100000
,  // measure 6
00010000
00100000
01000000
00010000
00100000
01000000
10000000
00100000
,  // measure 7
10000000
01000000
00100000
00010000
00001000
00000100
00000010
00000001
,  // measure 8
00001001
00000000
00000001
00000100
00000110
00000000
00000001
00000010
,  // measure 9
00000200
00000000
00010300
00001000
02001000
00000000
00100000
00000000
,  // measure 10
03020000
00000000
00130000
00000000
11000000
00000000
10000000
10000000
,  // measure 11
00100000
00000000
01000000
01000000
01001000
00001000
00001000
00010000
,  // measure 12
00010100
00000000
00000100
00000010
00000011
00000000
00000001
00000010
,  // measure 13
00000200
00010300
00021000
01000000
,  // measure 14
00032000
00000000
01003000
00000000
01010000
00000000
01000000
00100000
,  // measure 15
00010000
00100000
01000000
01000000
01010000
00010000
00001000
00010000
,  // measure 16
01000000
00000000
00001000
00010000
00010100
00000000
00000100
00000010
,  // measure 17
00000001
00000001
00000100
00000100
00001010
00000000
00000101
00000000
,  // measure 18
00002001
00000000
00000100
00000000
00003001
00000000
00000100
00000010
,  // measure 19
00001000
00000000
00000001
00000010
00000001
00000000
00000001
00000000
00000101
00000000
00000100
00000000
00000010
00000000
00010000
00000000
,  // measure 20
00001000
00100000
00001000
00100000
00010000
01000000
00010000
01000000
,  // measure 21
00100000
10000000
00100000
10000000
01000000
00100000
01000000
00100000
,  // measure 22
00001000
00010000
00001000
00000000
00010000
00000010
00010000
00000000
00000010
00000100
00000010
00000000
00001000
00000001
00001000
00000001
,  // measure 23
00000010
00000100
00000010
00001000
00010000
01000000
00100000
00010000
,  // measure 24
10010000
10000000
00100000
01000000
00010000
10000000
01000000
00010000
,  // measure 25
00001000
00000000
00010000
00000100
00001000
00000000
00000100
00001000
00000001
00000000
00000100
00000010
00001000
00000000
00000001
00000010
,  // measure 26
00000100
00000010
00000001
00000100
00000010
00000001
00000010
00000100
,  // measure 27
00000001
00001000
00000100
00000010
00001000
00010000
00001000
00000010
,  // measure 28
00000100
00001000
00000010
00010000
00001000
00100000
10000000
00100000
,  // measure 29
01000000
00000000
10000000
00010000
01000000
00000000
00100000
01000000
00001000
00000000
00100000
00001000
00010000
00000000
00001000
00100000
,  // measure 30
01000000
00100000
00010000
10000000
00100000
00010000
00100000
10000000
,  // measure 31
01000000
00000000
00100000
00000000
00010000
00000000
00001000
00000000
00000100
00000000
00000010
00000000
00000001
00001000
00000010
00001000
,  // measure 32
00000010
00000100
00000001
00000010
00000100
00000010
00001000
00010000
,  // measure 33
00100000
00000000
01000000
00010000
10000000
00000000
01000000
00100000
00010000
00000000
01000000
00100000
10000000
00000000
00010000
00100000
,  // measure 34
01000000
10000000
00100000
01000000
10000000
01000000
00100000
10000000
,  // measure 35
01000000
00010000
01000000
00100000
00001000
00010000
00000010
00000100
,  // measure 36
00000001
00001000
00001100
00000000
00000100
00010000
00011000
00000000
,  // measure 37
00001000
00000000
01000000
00010000
10000000
00000000
01000000
00100000
00010000
00000000
01000000
00100000
10000000
00000000
01000000
00100000
,  // measure 38
00010000
01000000
00100000
01000000
10000000
01000000
00100000
10000000
,  // measure 39
01000000
00100000
00010000
00001000
00000100
00000010
00000001
00001000
,  // measure 40
00002010
00000000
00000000
00000000
00000000
00000000
00003100
00000010
,  // measure 41
00000002
00000000
00000000
00000000
,  // measure 42
00000203
00000000
00000000
00000000
00000000
00000000
00001300
00010000
,  // measure 43
02000000
00000000
00000000
00000000
,  // measure 44
23000000
00000000
00000000
00000000
00000000
00000000
30100000
00010000
,  // measure 45
00002000
00000000
00000000
00000000
,  // measure 46
00023000
00000000
00030200
00000000
,  // measure 47
00000320
00000032
00000203
00000320
,  // measure 48
00001030
00000001
00001000
00000001
00000010
00001000
00000010
00001000
,  // measure 49
00010000
00001000
00010000
00001000
01000000
00001000
01000000
00001000
,  // measure 50
01000000
00100000
01000000
00100000
00010000
00001000
00010000
00001000
,  // measure 51
00000010
00000100
00000010
00000100
00001000
00000001
00001000
00000001
,  // measure 52
00000100
00001000
00010000
00100000
01000000
00010000
00100000
01000000
,  // measure 53
10000000
00100000
00010000
00001000
00000010
00000100
00010000
00001000
,  // measure 54
00000010
00000100
00001000
00000010
00000100
00000001
00001000
00000100
,  // measure 55
00000010
00000000
00000000
00011000
,  // measure 56
00001000
00010000
01000000
00010000
00001000
01000000
00100000
00010000
,  // measure 57
00001000
00010000
00000010
00000000
00000100
00000001
00001000
00000000
00000100
00000010
00000001
00000000
00001000
00000010
00000100
00000000
,  // measure 58
00000001
00000010
00001000
00010000
00100000
01000000
00010000
00100000
,  // measure 59
01000000
10000000
00100000
00000000
01000000
00010000
10000000
00000000
01000000
00100000
00010000
00000000
10000000
00000000
00100000
00000000
,  // measure 60
01000000
00000000
00000000
00000000
00001000
00000000
00010000
00000000
00000100
00000000
00000000
00000000
00001000
00000100
00000010
00000000
,  // measure 61
00000001
00000000
00000000
00000000
00000100
00000000
00000010
00000000
00001000
00000000
00000000
00000000
00000010
00010000
00001000
00000000
,  // measure 62
00100000
00000000
00000000
00000000
01000000
00000000
10000000
00000000
00100000
00000000
00000000
00000000
01000000
00010000
10000000
00000000
,  // measure 63
01000000
00000000
00100000
00000000
10000000
00000000
00100000
00000000
00010000
00000000
01000000
00000000
00001000
00010000
00001000
00010000
,  // measure 64
00001000
00000010
00000001
00000010
00001000
00010000
00000010
00000100
,  // measure 65
00000001
00000100
00000010
00000000
00001000
00000001
00000010
00000000
00000100
00001000
00000001
00000000
00000100
00000010
00010000
00000000
,  // measure 66
00001000
00100000
10000000
00100000
00010000
01000000
10000000
01000000
,  // measure 67
00100000
01000000
00010000
00000000
00100000
01000000
10000000
00000000
00100000
01000000
00001000
00000000
00010000
00000000
00000100
00000000
,  // measure 68
00000110
00000000
00000000
00000000
00000001
00000000
00001000
00000000
00001010
00000000
00000000
00000000
00000010
00000100
00001000
00000000
,  // measure 69
00011000
00000000
00000000
00000000
00001000
00000000
00010000
00000000
00100000
00000000
10000000
00000000
01000000
00100000
01000000
00100000
,  // measure 70
00001000
00000000
00010000
00000000
00000010
00000000
00000100
00000000
00001000
00000100
00001000
00000100
00000010
00000100
00000010
00000100
,  // measure 71
00000001
00000010
00000100
00011000
,  // measure 72
00101000
00100000
01100000
00000000
10100000
00100000
01100000
00000000
,  // measure 73
01001000
00001000
00011000
00000000
00010010
00010000
00010100
00000000
,  // measure 74
00001100
00000000
00000100
00000000
00000110
00000000
00000000
00000000
00000001
00000100
00000010
00000000
00000100
00001000
00010000
00000000
,  // measure 75
00001000
00010000
01000000
00000000
00100000
00010000
10000000
00000000
10100000
00000000
00000000
00000000
00100000
01000000
00010000
01000000
,  // measure 76
00100000
10000000
10010000
00000000
00110000
00100000
00101000
00000000
,  // measure 77
00010010
00000010
00001010
00000000
00001001
00001000
00001100
00000000
,  // measure 78
00000011
00000000
00000001
00000000
00000101
00000000
00000000
00000000
00000100
00001000
00010000
00000000
00100000
01000000
00010000
00000000
,  // measure 79
00100000
01000000
10000000
00000000
00100000
01000000
00010000
00000000
10010000
00000000
00000000
00000000
10000000
01000000
00100000
01000000
,  // measure 80
10000000
01000000
00010000
00001000
00000100
00000001
00000010
00000100
,  // measure 81
00000010
00000001
00000100
00001000
00010000
01000000
10000000
01000000
,  // measure 82
00010000
00001000
00000100
00000001
00000010
00000100
00001000
00000001
,  // measure 83
00000010
00000100
00001000
00010000
00100000
01000000
10000000
00100000
,  // measure 84
01000000
00000000
00000000
00000000
00010000
10000000
01000000
00000000
00100000
00000000
00000000
00000000
00001000
00010000
00000010
00000000
,  // measure 85
00000100
00000000
00000000
00000000
00001000
00010000
00001000
00000000
01000000
00000000
00000000
00000000
00100000
00010000
00001000
00000000
,  // measure 86
00000010
00000100
00000010
00000100
00001000
00000001
00001000
00000001
00000100
00000010
00000100
00000010
00001000
00000100
00010000
00001000
,  // measure 87
01000000
00100000
01000000
00010000
00100000
01000000
10010000
00000000
,  // measure 88
01100000
00000000
00000000
00000000
;
