#TITLE:Last Regrets;
#SUBTITLE:;
#ARTIST:Ayana;
#TITLETRANSLIT:;
#SUBTITLETRANSLIT:;
#ARTISTTRANSLIT:;
#GENRE:;
#CREDIT:;
#BANNER:Last Regrets.png;
#BACKGROUND:Last Regrets-bg.png;
#LYRICSPATH:;
#CDTITLE:../_YSD cdtitles/ysd sale3 cdtitle.png;
#MUSIC:Last Regrets.ogg;
#OFFSET:-0.021000;
#SAMPLESTART:61.539001;
#SAMPLELENGTH:12.000000;
#SELECTABLE:YES;
#BPMS:0.000000=93.057999
,168.000000=83.599998
,169.000000=87.000000
,169.500000=78.000000
,170.000000=75.059998
,171.000000=77.730003
,173.000000=75.000000
;
#STOPS:
;
#BGCHANGES:;
#KEYSOUNDS:;
#ATTACKS:;

//---------------dance-single - ----------------
#NOTES:
     dance-single:
     :
     Beginner:
     1:
     0.052800,0.090825,0.000000,0.000000,0.000000,44.000000,44.000000,0.000000,0.000000,0.000000,0.000000,0.052800,0.090825,0.000000,0.000000,0.000000,44.000000,44.000000,0.000000,0.000000,0.000000,0.000000:
// measure 0
0000
0000
0000
0000
,  // measure 1
0000
0000
0000
0000
,  // measure 2
0000
0000
0000
0000
,  // measure 3
0000
0000
0000
0000
,  // measure 4
1000
0000
0000
0000
,  // measure 5
0001
0000
0000
0000
,  // measure 6
0100
0000
0000
0000
,  // measure 7
0010
0000
0000
0000
,  // measure 8
1000
0000
0000
0000
,  // measure 9
0100
0000
0000
0000
,  // measure 10
0010
0000
0000
0000
,  // measure 11
0100
0000
0000
0000
,  // measure 12
1000
0000
0000
0000
,  // measure 13
0001
0000
0000
0000
,  // measure 14
0100
0000
0000
0000
,  // measure 15
0010
0000
0000
0000
,  // measure 16
1000
0000
0000
0000
,  // measure 17
0001
0000
0000
0000
,  // measure 18
0010
0000
0000
0000
,  // measure 19
0100
0000
0000
0000
,  // measure 20
1000
0000
0000
0000
,  // measure 21
0010
0000
0000
0000
,  // measure 22
0100
0000
0000
0000
,  // measure 23
0001
0000
0000
0000
,  // measure 24
1000
0000
0000
0000
,  // measure 25
0100
0000
0000
0000
,  // measure 26
0010
0000
0000
0000
,  // measure 27
0001
0000
0000
0000
,  // measure 28
0100
0000
0000
0000
,  // measure 29
0010
0000
0000
0000
,  // measure 30
1000
0000
0000
0000
,  // measure 31
0001
0000
0000
0000
,  // measure 32
0010
0000
0000
0000
,  // measure 33
0100
0000
0000
0000
,  // measure 34
1000
0000
0000
0000
,  // measure 35
0001
0000
0000
0000
,  // measure 36
0100
0000
0000
0000
,  // measure 37
0010
0000
0000
0000
,  // measure 38
1000
0000
1000
0000
,  // measure 39
0001
0000
0001
0000
,  // measure 40
0100
0000
0100
0000
,  // measure 41
0010
0000
0010
0000
,  // measure 42
1000
0000
0000
0000
,  // measure 43
0000
0100
0000
0000
;

//---------------dance-single - ----------------
#NOTES:
     dance-single:
     :
     Easy:
     3:
     0.128400,0.187949,0.000000,0.042000,0.067200,107.000000,107.000000,0.000000,5.000000,0.000000,0.000000,0.128400,0.187949,0.000000,0.042000,0.067200,107.000000,107.000000,0.000000,5.000000,0.000000,0.000000:
// measure 0
0000
0000
0000
0000
,  // measure 1
0000
0000
0000
0000
,  // measure 2
0000
0000
0000
0000
,  // measure 3
0000
0000
0000
0000
,  // measure 4
1000
0000
0000
0010
0000
0000
0000
0000
,  // measure 5
0100
0000
0000
0000
,  // measure 6
0001
0000
0000
0010
0000
0000
0000
0000
,  // measure 7
0100
0000
1000
0000
,  // measure 8
0010
0000
0100
0000
,  // measure 9
0001
0000
1000
0000
,  // measure 10
0100
0000
0010
0000
,  // measure 11
0001
0000
1000
0000
,  // measure 12
0010
0000
0100
0000
,  // measure 13
0001
0000
0010
0000
,  // measure 14
0001
0000
0100
0000
,  // measure 15
0010
0000
1000
0000
,  // measure 16
0002
0000
0010
0000
,  // measure 17
0100
0000
0010
0000
,  // measure 18
2003
0000
0010
0000
,  // measure 19
0100
0000
0010
0000
,  // measure 20
3002
0000
1000
0000
,  // measure 21
0100
0000
0010
0000
,  // measure 22
2003
0000
0100
0000
,  // measure 23
0010
0000
0001
0000
,  // measure 24
3010
0000
0000
0010
0000
0000
0000
0000
0100
0000
0000
0000
0000
0000
0000
0000
,  // measure 25
0001
0000
0000
0001
0000
0000
0000
0000
1000
0000
0000
0000
0000
0100
0000
0000
,  // measure 26
0100
0000
0000
0100
0000
0000
0000
0000
0010
0000
0000
0000
0000
0000
0000
0000
,  // measure 27
0001
0000
0000
0000
0000
0000
0000
0000
0100
0000
0000
0000
0000
0001
0000
0000
,  // measure 28
0001
0000
0000
0001
0000
0000
0000
0000
1000
0000
0000
0000
0000
0000
0000
0000
,  // measure 29
0100
0000
0000
0100
0000
0000
0000
0000
0010
0000
0000
0000
0000
0001
0000
0000
,  // measure 30
0001
0000
0000
0001
0000
0000
0000
0000
0100
0000
0000
0000
0000
0000
0000
0000
,  // measure 31
0010
0000
0000
0000
0000
0000
0000
0000
1000
0000
0000
0000
0000
0100
0000
0000
,  // measure 32
0100
0000
0000
0100
0000
0000
0000
0000
0010
0000
0000
0000
0000
0000
0000
0000
,  // measure 33
0001
0000
0000
0001
0000
0000
0000
0000
0100
0000
0000
0000
0000
0010
0000
0000
,  // measure 34
0010
0000
0000
0010
0000
0000
0000
0000
1000
0000
0000
0000
0000
0000
0000
0000
,  // measure 35
0001
0000
0000
0000
0000
0000
0000
0000
0010
0000
0000
0000
0000
0100
0000
0000
,  // measure 36
0100
0000
0000
0100
0000
0000
0000
0000
1000
0000
0000
0000
0000
0000
0000
0000
,  // measure 37
0001
0000
0100
0010
,  // measure 38
1000
0001
1000
0100
,  // measure 39
0010
0000
0100
0000
1000
0001
1000
0000
,  // measure 40
0010
0100
0001
1000
,  // measure 41
0100
0000
0010
0000
0100
0000
1000
0001
,  // measure 42
0100
0010
1000
0001
,  // measure 43
0000
0020
0000
0000
,  // measure 44
0000
0000
0000
0030
;

//---------------dance-single - ----------------
#NOTES:
     dance-single:
     :
     Medium:
     5:
     0.197999,0.300719,0.000000,0.100800,0.067200,165.000000,165.000000,0.000000,12.000000,0.000000,0.000000,0.197999,0.300719,0.000000,0.100800,0.067200,165.000000,165.000000,0.000000,12.000000,0.000000,0.000000:
// measure 0
0000
0000
0000
0000
,  // measure 1
0000
0000
0000
0000
,  // measure 2
0000
0000
0000
0000
,  // measure 3
0000
0000
0000
0000
,  // measure 4
1000
0000
0000
0010
0000
0000
0100
0000
0000
0000
0000
0000
0000
0000
0000
0000
,  // measure 5
0001
0000
0010
0000
,  // measure 6
0100
0000
0000
1000
0000
0000
0010
0000
0000
0000
0000
0000
0000
0000
0000
0000
,  // measure 7
0100
0000
0001
0010
,  // measure 8
0100
0000
1000
0000
0001
0100
0001
0000
,  // measure 9
0010
0000
0100
1000
0100
0000
0010
0000
,  // measure 10
0001
0000
1000
0000
0010
1000
0010
0000
,  // measure 11
0100
0000
0001
1000
0001
0000
1000
0000
,  // measure 12
0100
0000
0010
0000
0001
1000
0001
0000
,  // measure 13
0100
0000
0010
0000
1000
0001
1000
0000
,  // measure 14
0100
0000
0010
0001
0010
0000
0100
0000
,  // measure 15
1000
0000
0001
0100
0001
0000
1000
0000
,  // measure 16
0200
0010
1000
0010
,  // measure 17
2300
0001
0100
0001
,  // measure 18
3020
0100
1000
0100
,  // measure 19
2030
0100
0010
0100
,  // measure 20
3002
0010
0100
1000
,  // measure 21
0203
1000
0010
0001
,  // measure 22
0320
1000
0100
0001
,  // measure 23
2030
0100
0001
0010
,  // measure 24
3100
0000
0000
0010
0000
0000
0001
0000
0000
0000
0000
0000
0000
0000
0100
0000
,  // measure 25
0010
0000
0000
1000
0000
0000
0001
0000
0000
0000
0000
0000
0000
0000
1000
0000
,  // measure 26
0100
0000
0000
0010
0000
0000
0002
0000
0000
0000
0000
0000
0000
0000
0000
0000
,  // measure 27
0100
0000
0000
0000
1000
0000
0000
0103
,  // measure 28
0001
0000
0000
0010
0000
0000
0100
0000
0000
0000
0000
0000
1000
0000
0000
0000
,  // measure 29
0010
0000
0000
0100
0000
0000
0001
0000
0000
0000
0000
0000
0010
0000
0000
0000
,  // measure 30
0100
0000
0000
1000
0000
0000
0020
0000
0000
0000
0000
0000
0000
0000
0000
0000
,  // measure 31
0100
0000
0000
0000
1000
0000
0000
0130
,  // measure 32
0001
0000
0000
1000
0000
0000
0100
0000
0000
0000
0000
0000
0000
0000
0010
0000
,  // measure 33
0001
0000
0000
0100
0000
0000
0010
0000
0000
0000
0000
0000
0000
0000
1000
0000
,  // measure 34
0100
0000
0000
0010
0000
0000
0002
0000
0000
0000
0000
0000
0000
0000
0000
0000
,  // measure 35
0100
0000
1000
0000
,  // measure 36
0103
0000
0000
0100
0000
0000
0000
0000
0010
0000
0000
0000
0000
0000
0000
0000
,  // measure 37
1000
0000
0000
1000
0000
0000
0100
0000
,  // measure 38
0010
0001
1000
0000
0010
0100
0001
0000
,  // measure 39
0010
0100
1000
0100
0010
0001
0100
0000
,  // measure 40
0010
1000
0100
0000
0001
0100
1000
0000
,  // measure 41
0100
0000
0010
0000
0001
0000
0100
0000
0010
0000
1000
0000
0001
1000
0010
0000
,  // measure 42
0100
0000
0000
0000
0000
0000
0000
0000
0000
0001
0000
0000
0000
0000
0000
0000
0000
0000
1000
0000
0000
0000
0000
0000
0100
0000
0000
0000
0000
0000
0000
0000
0000
0010
0000
0000
0000
0000
0000
0000
0000
0000
0000
0000
0001
0000
0000
0000
,  // measure 43
0000
0200
0000
0000
,  // measure 44
0000
0000
0000
0300
;

//---------------dance-single - ----------------
#NOTES:
     dance-single:
     :
     Hard:
     10:
     0.284399,0.413489,0.016800,0.151200,0.155400,237.000000,235.000000,2.000000,18.000000,0.000000,0.000000,0.284399,0.413489,0.016800,0.151200,0.155400,237.000000,235.000000,2.000000,18.000000,0.000000,0.000000:
// measure 0
0000
0000
0000
0000
,  // measure 1
0000
0000
0000
0000
,  // measure 2
0000
0000
0000
0000
,  // measure 3
0000
0000
0000
0000
,  // measure 4
1000
0000
0000
0010
0000
0000
0100
0000
0000
0000
0000
0000
0000
0000
0000
0000
,  // measure 5
0001
0000
0010
0000
,  // measure 6
0100
0000
0000
1000
0000
0000
0010
0000
0000
0000
0000
0000
0000
0000
0000
0000
,  // measure 7
0100
0000
0000
0000
1000
0000
0100
0001
,  // measure 8
0010
0000
0100
1000
0010
0100
0001
0010
,  // measure 9
0000
0100
0010
0001
1000
0010
0100
0010
,  // measure 10
1000
0000
0001
0010
0100
0010
0001
1000
,  // measure 11
0000
0010
0100
0001
0010
0100
1000
0100
,  // measure 12
0010
0000
0001
0100
0010
0100
0001
1000
,  // measure 13
0000
0100
0010
0001
0010
0100
1000
0001
,  // measure 14
0100
0010
0100
0001
0010
0100
0010
0001
,  // measure 15
1000
0010
0100
0001
0010
0100
1000
0001
,  // measure 16
0200
0000
0010
0000
1000
0010
0001
0000
,  // measure 17
0302
0000
0010
0000
1000
0100
0010
0000
,  // measure 18
2003
0000
0100
0000
0010
0100
0001
0000
,  // measure 19
3020
0000
0100
0000
0001
0100
1000
0000
,  // measure 20
0230
0000
0001
0000
1000
0010
0001
0000
,  // measure 21
0320
0000
0001
0000
1000
0100
0001
0000
,  // measure 22
0230
0000
1000
0010
0302
0000
0010
0100
,  // measure 23
2003
0000
0010
0000
0100
0000
3001
0100
,  // measure 24
0101
0000
0000
0001
0000
0000
1000
0000
0100
0000
0000
0000
0010
0000
0001
0000
,  // measure 25
0100
0000
0000
0010
0000
0000
0100
0000
0001
0000
0000
0000
1000
0000
0100
0000
,  // measure 26
0010
0000
0000
0100
0000
0000
0001
0000
0200
0000
0000
0000
0010
0000
0000
0000
,  // measure 27
1000
0000
0001
0000
1000
0000
0310
0001
,  // measure 28
0100
0000
0000
0010
0000
0000
1000
0000
0100
0000
0000
0000
0010
0000
0001
0000
,  // measure 29
0100
0000
0000
0010
0000
0000
1000
0000
0010
0000
0000
0000
0100
0000
0001
0000
,  // measure 30
1000
0000
0000
0010
0000
0000
0001
0000
0020
0000
0000
0000
0001
0000
0000
0000
,  // measure 31
0100
1000
0100
0001
,  // measure 32
1030
0000
0000
0100
0000
0000
0010
0000
0001
0000
0000
0000
0100
0000
0010
0000
,  // measure 33
1000
0000
0000
0100
0000
0000
0010
0000
0100
0000
0000
0000
1000
0000
0001
0000
,  // measure 34
0100
0000
0000
1000
0000
0000
0100
0000
0020
0000
0000
0000
0001
0000
0000
0000
,  // measure 35
0100
0000
0000
0000
1000
0000
0000
0000
0230
0000
0000
0000
0000
0001
0000
0000
,  // measure 36
0302
0000
0000
0010
0000
0000
0000
0000
2003
0000
0000
0000
0000
0000
0000
0000
,  // measure 37
3010
0000
0000
0000
0000
0000
0000
0000
0000
0100
0000
0000
0001
0000
0000
0000
1000
0000
0000
0000
0010
0000
0000
0000
,  // measure 38
0101
0000
0000
0001
1000
0000
0100
1000
0100
0000
0020
0000
0001
0000
0000
0130
,  // measure 39
1000
0000
0000
0001
0100
0000
0010
1000
0010
1000
0010
0000
0100
0001
0000
0100
,  // measure 40
0001
0000
0000
0010
0100
0000
1000
0010
1000
0000
2000
0000
0001
0000
0000
3100
,  // measure 41
1000
0001
0000
1000
0001
0000
0100
0010
0000
1000
0000
0001
1000
0010
0001
0000
,  // measure 42
0010
0000
0000
0000
0000
0000
1000
0000
0000
0001
0000
0000
0000
0000
0000
1000
0000
0000
0100
0000
0000
0000
0000
0000
1000
0000
0000
0000
0000
0000
0010
0000
0000
0100
0000
0000
0000
0000
0000
0000
0001
0000
0000
0000
1000
0000
0000
0000
,  // measure 43
0001
0200
0000
0000
,  // measure 44
0000
0000
0000
0300
;
