#VERSION:0.83;
#TITLE:La'qryma of the Wasteland;
#SUBTITLE:;
#ARTIST:DJ Noriken;
#TITLETRANSLIT:;
#SUBTITLETRANSLIT:;
#ARTISTTRANSLIT:;
#GENRE:;
#ORIGIN:Arcaea;
#TAGS:;
#CREDIT:;
#BANNER:La'qryma of the Wasteland.png;
#BACKGROUND:La'qryma of the Wasteland-bg.png;
#PREVIEWVID:;
#JACKET:La'qryma of the Wasteland-jacket.png;
#CDIMAGE:;
#DISCIMAGE:;
#LYRICSPATH:;
#CDTITLE:../_YSD cdtitles/ysd cdtitle.png;
#MUSIC:La'qryma of the Wasteland.ogg;
#OFFSET:-0.003000;
#SAMPLESTART:81.429001;
#SAMPLELENGTH:22.857000;
#SELECTABLE:YES;
#BPMS:0.000000=168.000000
;
#STOPS:;
#DELAYS:;
#WARPS:;
#TIMESIGNATURES:0.000000=4=4
;
#TICKCOUNTS:0.000000=4
;
#COMBOS:0.000000=1
;
#SPEEDS:0.000000=1.000000=0.000000=0
;
#SCROLLS:0.000000=1.000000
;
#FAKES:;
#LABELS:0.000000=Song Start
;
#BGCHANGES:;
#KEYSOUNDS:;
#ATTACKS:
;

//---------------dance-single - DS, FS, XO----------------
#NOTEDATA:;
#CHARTNAME:;
#CHARTHASH:1998514890;
#STEPSTYPE:dance-single;
#BANNER:;
#DESCRIPTION:DS, FS, XO;
#CHARTSTYLE:Pad Singles;
#DIFFICULTY:Challenge;
#METER:17;
#METERF:0.000000;
#LASTSECONDHINT:138.574432;
#RADARVALUES:0.751502,0.960186,0.106059,0.798976,0.742411,744.000000,729.000000,15.000000,113.000000,0.000000,0.000000,0.000000,0.000000,0.000000,0.751502,0.960186,0.106059,0.798976,0.742411,744.000000,729.000000,15.000000,113.000000,0.000000,0.000000,0.000000,0.000000,0.000000;
#CREDIT:YOSEFU;
#NOTES:
// measure 0
0000
0000
0000
0000
,  // measure 1
0000
0000
0000
0000
,  // measure 2
0000
0000
0000
0000
,  // measure 3
0000
0000
0000
0000
,  // measure 4
0000
0000
0000
0000
2002
0000
0000
3003
,  // measure 5
1001
0100
1001
0010
,  // measure 6
1001
1000
0100
0010
0011
0001
1000
0010
,  // measure 7
0100
0001
0100
0001
1000
0001
1000
0001
1000
0100
0010
0001
1000
0010
0100
0001
,  // measure 8
2000
0000
0000
0000
0000
0000
0000
0000
0000
0000
0000
0000
0000
0000
0000
0000
3100
0000
0000
0000
0100
0000
0000
0000
0001
0000
0000
0000
0200
0300
0000
0000
0000
0000
0000
0000
0200
0300
0000
0000
1000
0000
0000
0000
0001
0000
0000
0000
0200
0000
0000
0000
0000
0000
0000
0000
0000
0000
0000
0000
0000
0000
0000
0000
,  // measure 9
0310
1000
0001
0100
0020
1000
0130
0001
,  // measure 10
1000
0100
0010
0001
2000
0010
3001
0100
,  // measure 11
1000
0100
0010
1000
0002
0010
1003
0100
,  // measure 12
0010
0001
0100
0010
2000
0100
3001
0010
,  // measure 13
1000
0010
0100
1000
0002
0100
1003
0100
,  // measure 14
0010
0001
0100
0010
2000
0001
3100
0001
,  // measure 15
0100
1000
0001
0100
0020
1000
0130
0001
,  // measure 16
1000
0010
0000
0010
0000
0010
0100
0001
0010
0100
0000
0100
0000
0100
2000
0000
,  // measure 17
3002
0000
0103
0010
2000
0100
3001
1000
,  // measure 18
0100
0010
0001
1000
0002
0100
1003
0100
,  // measure 19
0001
0100
0010
0001
2000
0010
3001
1000
,  // measure 20
0010
0000
0000
0000
0000
0000
0000
0000
0100
0000
0000
0000
0000
0000
0000
0000
0001
0000
0000
0000
0000
0000
0000
0000
1000
0000
0000
0000
0000
0000
0000
0000
0100
0000
0000
0000
0000
0000
0000
0000
1000
0000
0000
0000
0020
0030
0000
0000
0000
0000
0000
0000
0020
0030
0000
0000
0001
0000
0000
0000
1000
0000
0000
0000
,  // measure 21
0001
0100
0010
0100
0001
1000
0100
0010
,  // measure 22
0001
0100
0010
1000
0001
0010
0100
1000
,  // measure 23
0001
0100
0001
0100
0010
1000
0010
1000
0100
0000
0010
0001
0000
1000
0010
0100
,  // measure 24
0002
0000
0000
0000
0000
0000
0000
0000
0000
0000
0000
0000
0000
0000
0000
0000
0103
0000
0000
0000
0100
0000
0000
0000
1000
0000
0000
0000
0020
0030
0000
0000
0000
0000
0000
0000
0020
0030
0000
0000
0001
0000
0000
0000
1000
0000
0000
0000
0200
0000
0000
0000
0000
0000
0000
0000
0000
0000
0000
0000
0000
0000
0000
0000
,  // measure 25
2300
0000
0000
3020
0000
0000
0000
0000
,  // measure 26
0000
0000
0000
0000
0031
0010
1000
0001
,  // measure 27
0020
0000
0000
0032
0000
0000
0000
0000
,  // measure 28
0203
0000
0000
0000
0301
0010
0100
1000
,  // measure 29
0002
0000
0000
0203
0000
0000
0000
0000
,  // measure 30
0000
0000
0000
0000
1300
0100
0001
1000
,  // measure 31
0200
0000
0000
0320
0000
0000
0000
0000
,  // measure 32
0032
0000
0000
0000
0103
0010
0100
0001
,  // measure 33
2000
0000
3100
0002
0000
0103
1000
0001
,  // measure 34
0100
0000
0100
0000
0010
0000
0000
1000
0200
0000
0302
0000
0203
0000
2300
0000
,  // measure 35
3002
0000
1003
0020
0000
0031
0010
0000
,  // measure 36
1000
0000
1000
0000
0100
0000
0000
0010
0001
0000
1000
0000
0010
0000
0100
0000
,  // measure 37
0002
0000
0103
2000
0000
3100
0002
0000
,  // measure 38
0013
0000
0010
0000
0100
0000
0000
1000
0010
0000
0001
0000
0010
0000
1000
0000
,  // measure 39
0002
0000
0013
0200
0000
1300
0001
0100
,  // measure 40
0020
0000
0000
1030
,  // measure 41
0002
0000
0000
0000
0000
0000
0013
0200
,  // measure 42
0000
0000
0000
0000
0000
0000
1300
0020
,  // measure 43
0000
0000
0000
0000
0000
0031
0010
2000
,  // measure 44
0000
0000
0000
0000
0000
0000
3100
0020
,  // measure 45
0000
0000
0000
0000
0000
0000
0031
0200
,  // measure 46
0000
0000
0000
0000
0000
0000
0310
2000
,  // measure 47
0000
0000
0000
0000
0000
0000
0000
3200
,  // measure 48
0000
0000
0320
0000
,  // measure 49
0031
0000
0000
0000
0100
0000
0010
1000
0000
0010
0000
0100
0000
0001
1000
0000
,  // measure 50
0100
0000
0000
0000
0010
0000
0001
1000
0000
0010
0000
0001
0000
0010
0100
0000
,  // measure 51
0001
0000
0000
0000
1000
0000
0100
0010
0000
0001
0000
1000
0000
0010
0100
0000
,  // measure 52
0001
0000
0000
0000
1000
0000
0100
0010
0000
0001
0000
0100
0000
0010
1000
0000
,  // measure 53
0001
0000
0100
0010
0000
0100
0010
0000
1000
0000
0001
0010
0000
0001
0010
0100
,  // measure 54
1000
0000
0001
0100
0000
0001
0100
0000
0010
0000
1000
0100
0000
0010
0001
1000
,  // measure 55
0010
0100
0001
0100
0001
0010
0100
0010
0100
1000
0001
1000
0001
0100
0010
1000
,  // measure 56
0002
0000
0000
0000
0000
0000
0000
0000
0000
0000
0000
0000
0000
0000
0000
0000
0103
0000
0000
0000
0100
0000
0000
0000
1000
0000
0000
0000
0020
0030
0000
0000
0000
0000
0000
0000
0020
0030
0000
0000
0001
0000
0000
0000
1000
0000
0000
0000
0020
0000
0000
0000
0000
0000
0000
0000
0000
0000
0000
0000
0000
0000
0000
0000
,  // measure 57
1030
0000
0000
0000
0000
0000
0000
0000
0100
0000
0000
0000
0000
0000
0000
0000
0010
0000
0000
0000
0000
0000
0000
0000
0001
0000
0000
0000
0200
0300
0000
0000
0000
0000
0000
0000
0200
0300
0000
0000
0000
0000
0000
0000
1000
0000
0000
0000
0000
0000
0000
0000
0100
0000
0000
0000
0010
0000
0000
0000
0001
0000
0000
0000
,  // measure 58
0010
0000
0001
0000
0100
0000
0010
1000
0000
0100
0000
0001
0000
0100
1000
0001
,  // measure 59
0100
0000
0000
0000
0000
0000
0000
0000
0010
0000
0000
0000
0000
0000
0000
0000
1000
0000
0000
0000
0000
0000
0000
0000
0001
0000
0000
0000
0020
0030
0000
0000
0000
0000
0000
0000
0020
0030
0000
0000
0000
0000
0000
0000
1000
0000
0000
0000
0000
0000
0000
0000
0001
0000
0000
0000
1000
0000
0000
0000
0100
0000
0000
0000
,  // measure 60
0010
0000
0001
0000
0100
0000
0001
0010
0000
0100
0000
0001
0000
0100
1000
0001
,  // measure 61
0100
0000
0010
1000
0000
0001
0010
0000
0100
0000
1000
0000
0010
0100
0001
1000
,  // measure 62
0100
0000
0010
0001
0000
1000
0010
0000
0100
0000
0001
0010
0000
0100
1000
0001
,  // measure 63
0100
0000
0000
0000
0000
0000
0000
0000
0010
0000
0000
0000
0000
0000
0000
0000
1000
0000
0000
0000
0000
0000
0000
0000
0001
0000
0000
0000
0020
0030
0000
0000
0000
0000
0000
0000
0020
0030
0000
0000
0000
0000
0000
0000
0100
0000
0000
0000
0000
0000
0000
0000
0001
0000
0000
0000
0010
0000
0000
0000
0100
0000
0000
0000
,  // measure 64
1000
0000
0001
0100
0000
0010
1000
0000
0001
0100
0010
1000
0100
0010
0001
1000
,  // measure 65
0010
0000
0000
0000
0000
0000
0000
0000
0100
0000
0000
0000
0000
0000
0000
0000
0001
0000
0000
0000
0000
0000
0000
0000
1000
0000
0000
0000
0020
0030
0000
0000
0000
0000
0000
0000
0020
0030
0000
0000
0000
0000
0000
0000
0100
0000
0000
0000
0000
0000
0000
0000
0010
0000
0000
0000
0100
0000
0000
0000
1000
0000
0000
0000
,  // measure 66
0001
0000
0100
0000
0010
0000
1000
0001
0000
0010
0000
1000
0000
0010
0001
1000
,  // measure 67
0010
0000
0000
0000
0000
0000
0000
0000
0100
0000
0000
0000
0000
0000
0000
0000
0001
0000
0000
0000
0000
0000
0000
0000
0010
0000
0000
0000
0200
0300
0000
0000
0000
0000
0000
0000
0200
0300
0000
0000
0000
0000
0000
0000
0010
0000
0000
0000
0000
0000
0000
0000
1000
0000
0000
0000
0001
0000
0000
0000
0010
0000
0000
0000
,  // measure 68
0100
0000
0010
0000
0001
0100
0010
1000
0100
0000
0010
1000
0000
0010
0001
1000
,  // measure 69
0010
0000
1000
0000
0001
0000
1000
0000
1001
0000
0001
0000
1000
0100
0010
0001
,  // measure 70
1000
0000
0010
0000
0100
0000
0001
0000
0101
0000
0001
1000
0000
0100
0010
0001
,  // measure 71
1000
0010
1000
0100
0010
0001
1000
0010
0100
0000
0000
0101
0000
0000
1001
0000
,  // measure 72
1000
0000
0000
0010
0000
0000
0100
0000
0202
0000
0000
0000
0303
0000
0000
0000
,  // measure 73
0001
1000
0100
0000
0010
0000
0001
1000
0010
0000
0100
0000
0001
0010
0100
0000
,  // measure 74
1000
0001
0100
0010
0002
2003
3200
0302
,  // measure 75
1003
0010
0100
0000
0001
0000
1000
0100
0010
0000
0001
0000
0100
0010
1000
0000
,  // measure 76
0001
0010
0100
1000
0002
0203
0320
0032
,  // measure 77
0013
0100
0001
0000
1000
0000
0100
0010
0001
0000
0100
0000
0010
1000
0100
0000
,  // measure 78
0010
1000
0010
0100
0002
0203
2300
3002
,  // measure 79
0103
0010
1000
0000
0001
0000
0010
0100
1000
0000
0010
0000
0100
0001
0010
0000
,  // measure 80
0100
0001
0100
1000
0001
0100
0010
1000
,  // measure 81
0100
0010
0001
0000
1000
0000
0010
0100
0001
0000
0010
0000
0100
1000
0001
0000
,  // measure 82
0100
0010
1000
0001
0020
2030
3002
0203
,  // measure 83
1300
0001
0100
0000
0010
0000
1000
0001
0010
0000
0100
0000
1000
0010
0100
0000
,  // measure 84
0001
1000
0100
0010
2000
3020
0032
2003
,  // measure 85
3010
0100
0001
0000
1000
0000
0100
0010
0001
0000
0100
0000
0010
1000
0100
0000
,  // measure 86
0010
0100
1000
0010
0002
2003
3200
0302
,  // measure 87
2003
0000
3001
0200
0000
0301
0020
0000
,  // measure 88
0230
0000
0000
0000
0000
0000
0000
0000
0000
0000
0000
0000
0000
0000
0000
0000
1300
0000
0000
0000
0001
0000
0000
0000
0000
0000
0000
0000
0200
0300
0000
0000
0000
0000
0000
0000
0200
0300
0000
0000
0000
0000
0000
0000
1000
0000
0000
0000
0002
0000
0000
0000
0000
0000
0000
0000
0003
0000
0000
0000
0000
0000
0000
0000
,  // measure 89
1001
0001
0100
0010
2000
0100
3001
0100
,  // measure 90
1001
0001
0010
0100
2000
0001
3010
0001
,  // measure 91
0010
1000
0001
0010
0200
1000
0310
0001
,  // measure 92
0100
0000
0000
0000
0000
0000
0000
0000
0010
0000
0000
0000
0000
0000
0000
0000
1000
0000
0000
0000
0000
0000
0000
0000
0001
0000
0000
0000
0000
0000
0000
0000
1000
0000
0000
0000
0001
0000
0000
0000
1000
0000
0000
0000
0200
0300
0000
0000
0000
0000
0000
0000
0200
0300
0000
0000
0010
0000
0000
0000
1000
0000
0000
0000
,  // measure 93
0001
0010
0100
1000
1100
0001
0100
0010
,  // measure 94
1010
0001
0010
0100
1001
0001
0100
1000
,  // measure 95
0100
0010
0100
0010
0100
0001
0100
0001
1000
0100
0010
0001
0100
0010
1000
0001
,  // measure 96
2000
0000
0000
0000
0000
0000
0000
0000
0000
0000
0000
0000
0000
0000
0000
0000
3100
0000
0000
0000
0100
0000
0000
0000
0001
0000
0000
0000
0020
0030
0000
0000
0000
0000
0000
0000
0020
0030
0000
0000
1000
0000
0000
0000
0001
0000
0000
0000
0200
0000
0000
0000
0000
0000
0000
0000
0000
0000
0000
0000
0000
0000
0000
0000
,  // measure 97
0300
0000
0000
0000
;

//---------------dance-single - ----------------
#NOTEDATA:;
#CHARTNAME:;
#CHARTHASH:2343533448;
#STEPSTYPE:dance-single;
#BANNER:;
#DESCRIPTION:;
#CHARTSTYLE:;
#DIFFICULTY:Beginner;
#METER:5;
#METERF:0.000000;
#LASTSECONDHINT:138.574432;
#RADARVALUES:0.196966,0.308631,0.183835,0.084847,0.000000,195.000000,169.000000,26.000000,12.000000,0.000000,0.000000,0.000000,0.000000,0.000000,0.196966,0.308631,0.183835,0.084847,0.000000,195.000000,169.000000,26.000000,12.000000,0.000000,0.000000,0.000000,0.000000,0.000000;
#CREDIT:YOSEFU;
#NOTES:
// measure 0
0000
0000
0000
0000
,  // measure 1
0000
0000
0000
0000
,  // measure 2
0000
0000
0000
0000
,  // measure 3
0000
0000
0000
0000
,  // measure 4
0000
0000
1001
0000
,  // measure 5
1000
0000
0001
0000
,  // measure 6
1000
0000
0001
0000
,  // measure 7
0100
0000
0010
0000
,  // measure 8
0200
0000
0000
0300
,  // measure 9
0110
0000
0010
0000
,  // measure 10
0100
0000
0010
0000
,  // measure 11
1000
0000
0001
0000
,  // measure 12
1000
0000
0001
0000
,  // measure 13
1001
0000
1000
0000
,  // measure 14
0001
0000
1000
0000
,  // measure 15
0010
0000
0100
0000
,  // measure 16
0110
0000
0110
0000
,  // measure 17
0000
0001
0001
0000
,  // measure 18
1000
0000
0010
0000
,  // measure 19
0100
0000
0010
0000
,  // measure 20
1000
0000
1001
0000
,  // measure 21
1001
0000
0001
0000
,  // measure 22
1000
0000
0010
0000
,  // measure 23
0100
0000
0010
0000
,  // measure 24
1001
0000
0000
0000
,  // measure 25
1001
0000
0000
0000
,  // measure 26
0001
0000
0000
0000
,  // measure 27
0100
0000
0000
0000
,  // measure 28
0010
0000
0000
0000
,  // measure 29
1000
0000
0000
0000
,  // measure 30
0100
0000
0000
0000
,  // measure 31
0010
0000
0000
0000
,  // measure 32
0001
0000
0000
0000
,  // measure 33
1001
0000
0000
0000
,  // measure 34
1000
0000
0000
0000
,  // measure 35
0010
0000
0000
0000
,  // measure 36
0100
0000
0000
0000
,  // measure 37
0001
0000
0000
0000
,  // measure 38
0010
0000
0000
0000
,  // measure 39
0100
0000
0000
0000
,  // measure 40
2000
0000
0000
3000
,  // measure 41
1001
0000
0000
0002
,  // measure 42
0000
0000
0003
0200
,  // measure 43
0000
0000
0300
0002
,  // measure 44
0000
0000
0003
2000
,  // measure 45
0000
0000
3000
0200
,  // measure 46
0000
0000
0300
0020
,  // measure 47
0000
0000
0000
0000
0000
0000
0030
0002
,  // measure 48
0000
0000
0003
0000
,  // measure 49
1001
0000
0001
0001
,  // measure 50
0001
0000
0100
0100
,  // measure 51
0100
0000
0010
0010
,  // measure 52
0010
0000
1000
1000
,  // measure 53
1000
0000
0001
0000
,  // measure 54
1000
0000
0010
0000
,  // measure 55
0100
0100
0100
0100
,  // measure 56
0200
0000
0000
0300
,  // measure 57
1001
0000
1000
0000
,  // measure 58
0010
0000
0100
0000
,  // measure 59
0001
0000
0010
0000
,  // measure 60
0100
0000
1000
0000
,  // measure 61
1001
0000
0001
0000
,  // measure 62
0100
0000
0010
0000
,  // measure 63
1000
0000
0100
0000
,  // measure 64
0010
0000
0001
0000
,  // measure 65
1001
0000
1000
0000
,  // measure 66
0010
0000
0100
0000
,  // measure 67
0001
0000
0010
0000
,  // measure 68
0100
0000
1000
0000
,  // measure 69
1001
0000
0001
0000
,  // measure 70
1001
0000
1000
0000
,  // measure 71
0110
0000
0010
0000
,  // measure 72
0110
0000
1001
0000
,  // measure 73
0110
0000
1000
0000
,  // measure 74
0001
0000
1000
1000
,  // measure 75
1000
0000
0001
0000
,  // measure 76
0010
0000
0100
0100
,  // measure 77
0100
0000
1000
0000
,  // measure 78
0001
0000
0100
0100
,  // measure 79
0100
0000
0010
0000
,  // measure 80
1000
0000
0001
0001
,  // measure 81
0001
0000
0010
0000
,  // measure 82
0100
0000
1000
1000
,  // measure 83
1000
0000
0010
0000
,  // measure 84
0100
0000
0001
0001
,  // measure 85
0001
0000
1000
0000
,  // measure 86
0100
0000
0010
0010
,  // measure 87
0010
0000
0000
0000
,  // measure 88
0002
0000
0000
0003
,  // measure 89
1001
0000
1000
0000
,  // measure 90
0001
0000
0100
0100
,  // measure 91
0100
0000
0010
0000
,  // measure 92
1000
0000
1001
0000
,  // measure 93
1001
0000
0001
0000
,  // measure 94
0110
0000
1000
0000
,  // measure 95
1001
0000
0001
0000
,  // measure 96
0200
0000
0000
0000
,  // measure 97
0300
0000
0000
0000
;

//---------------dance-single - ----------------
#NOTEDATA:;
#CHARTNAME:;
#CHARTHASH:3506611461;
#STEPSTYPE:dance-single;
#BANNER:;
#DESCRIPTION:;
#CHARTSTYLE:;
#DIFFICULTY:Easy;
#METER:9;
#METERF:0.000000;
#LASTSECONDHINT:138.574432;
#RADARVALUES:0.342418,0.480093,0.289894,0.268682,0.000000,339.000000,298.000000,41.000000,38.000000,0.000000,0.000000,0.000000,0.000000,0.000000,0.342418,0.480093,0.289894,0.268682,0.000000,339.000000,298.000000,41.000000,38.000000,0.000000,0.000000,0.000000,0.000000,0.000000;
#CREDIT:YOSEFU;
#NOTES:
// measure 0
0000
0000
0000
0000
,  // measure 1
0000
0000
0000
0000
,  // measure 2
0000
0000
0000
0000
,  // measure 3
0000
0000
0000
0000
,  // measure 4
0000
0000
2002
3003
,  // measure 5
1000
0010
0100
0001
,  // measure 6
1000
0100
0010
0001
,  // measure 7
1000
0010
0100
0001
,  // measure 8
1000
0000
0000
0100
0000
0000
0020
0000
,  // measure 9
0031
0010
0110
0100
,  // measure 10
1000
0001
0101
0100
,  // measure 11
0010
1000
1001
0001
,  // measure 12
0010
0100
1100
1000
,  // measure 13
0001
0100
0101
0001
,  // measure 14
1000
0100
0110
0010
,  // measure 15
0001
1000
1010
0010
,  // measure 16
0220
0330
2002
3003
,  // measure 17
2000
3010
0110
0100
,  // measure 18
0001
1000
1100
0100
,  // measure 19
0010
0001
1001
1000
,  // measure 20
0010
0100
0110
0000
,  // measure 21
0101
0001
1001
1000
,  // measure 22
1100
0100
0110
0010
,  // measure 23
0011
0001
1000
0000
,  // measure 24
0100
0000
0000
0010
0000
0000
2000
0000
,  // measure 25
3200
0000
0320
0000
,  // measure 26
0032
0000
0203
0000
,  // measure 27
0320
0000
2030
0000
,  // measure 28
3020
0000
0230
0000
,  // measure 29
0302
0000
2003
0000
,  // measure 30
3200
0000
0320
0000
,  // measure 31
0032
0000
2003
0000
,  // measure 32
3020
0000
0130
0000
,  // measure 33
0001
0000
1000
0000
,  // measure 34
0100
0000
0010
0000
,  // measure 35
0001
0000
0010
0000
,  // measure 36
0100
0000
1000
0000
,  // measure 37
0001
0000
0100
0000
,  // measure 38
0010
0000
1000
0000
,  // measure 39
0100
0000
0010
0000
,  // measure 40
0002
0000
0000
1003
,  // measure 41
0002
0000
0000
0000
0000
0000
0000
0203
,  // measure 42
0000
0000
0000
0000
0000
0000
0000
0320
,  // measure 43
0000
0000
0000
0000
0000
2030
0000
3002
,  // measure 44
0000
0000
0000
0000
0000
0000
0000
0023
,  // measure 45
0000
0000
0000
0000
0000
0000
0000
0230
,  // measure 46
0000
0000
0000
0000
0000
0000
0000
2300
,  // measure 47
0000
0000
0000
0000
0000
0000
0000
3020
,  // measure 48
0000
0000
0230
0000
,  // measure 49
0301
1000
0001
1000
,  // measure 50
0010
0100
0010
0100
,  // measure 51
0001
1000
0001
1000
,  // measure 52
0100
0010
0100
0010
,  // measure 53
0001
0100
0010
1000
,  // measure 54
0001
0010
0100
1000
,  // measure 55
0001
0100
0010
1000
,  // measure 56
0100
0000
0000
0010
0000
0000
0002
0000
,  // measure 57
1003
0010
0100
0001
,  // measure 58
1000
0100
0010
0001
,  // measure 59
0100
0010
1000
0001
,  // measure 60
0010
0100
1000
0001
,  // measure 61
0100
0010
0100
0001
,  // measure 62
1000
0100
0010
0100
,  // measure 63
1000
0001
0100
0010
,  // measure 64
1000
0100
0001
0100
,  // measure 65
1001
0001
0100
0010
,  // measure 66
1000
0100
0010
0001
,  // measure 67
0101
0100
0010
1000
,  // measure 68
0001
0010
0110
0000
,  // measure 69
1001
1000
0010
0100
,  // measure 70
0101
0001
1000
0100
,  // measure 71
0110
0010
0011
0000
,  // measure 72
1010
0000
1001
0000
,  // measure 73
0110
0001
1000
0100
,  // measure 74
0010
0001
0100
1000
,  // measure 75
0100
0001
0010
0100
,  // measure 76
1000
0001
0100
0010
,  // measure 77
1000
0100
0010
0001
,  // measure 78
1000
0010
0001
0010
,  // measure 79
0100
0001
1000
0100
,  // measure 80
0010
0001
0100
0001
,  // measure 81
1001
1000
0100
0010
,  // measure 82
0001
0100
0010
1000
,  // measure 83
1001
0001
0010
0100
,  // measure 84
1000
0010
0100
0001
,  // measure 85
1001
0010
0100
0010
,  // measure 86
1001
0100
0010
0100
,  // measure 87
1001
0000
0000
0001
0000
0000
0200
0000
,  // measure 88
0000
0000
0000
0310
,  // measure 89
1001
1000
0100
0010
,  // measure 90
0001
0100
1000
0100
,  // measure 91
0101
0001
0010
0100
,  // measure 92
1000
0001
0110
0000
,  // measure 93
1001
0100
0010
0100
,  // measure 94
1001
0010
0100
0010
,  // measure 95
1001
0100
0010
0001
,  // measure 96
1001
0000
0000
0010
0000
0000
0200
0000
,  // measure 97
0300
0000
0000
0000
;

//---------------dance-single - ----------------
#NOTEDATA:;
#CHARTNAME:;
#CHARTHASH:2570518497;
#STEPSTYPE:dance-single;
#BANNER:;
#DESCRIPTION:;
#CHARTSTYLE:;
#DIFFICULTY:Medium;
#METER:13;
#METERF:0.000000;
#LASTSECONDHINT:138.574432;
#RADARVALUES:0.518173,0.617262,0.028282,0.763623,0.137876,513.000000,509.000000,4.000000,108.000000,0.000000,0.000000,0.000000,0.000000,0.000000,0.518173,0.617262,0.028282,0.763623,0.137876,513.000000,509.000000,4.000000,108.000000,0.000000,0.000000,0.000000,0.000000,0.000000;
#CREDIT:YOSEFU;
#NOTES:
// measure 0
0000
0000
0000
0000
,  // measure 1
0000
0000
0000
0000
,  // measure 2
0000
0000
0000
0000
,  // measure 3
0000
0000
0000
0000
,  // measure 4
0000
0000
2002
3003
,  // measure 5
1000
0010
0100
0001
,  // measure 6
1000
0010
0100
0001
1000
0010
0100
0001
,  // measure 7
1000
0100
0010
0001
1000
0100
0010
0001
,  // measure 8
0200
0000
0000
0000
0310
0000
1000
0000
0000
0001
0000
0000
0020
0000
0000
0000
,  // measure 9
0130
1000
0001
0010
0200
1300
0001
0100
,  // measure 10
0010
1000
0001
0100
0020
1030
0100
0010
,  // measure 11
0001
1000
0010
0100
0002
1003
0100
0010
,  // measure 12
0001
1000
0100
0010
0002
0103
0010
1000
,  // measure 13
0001
0010
0100
1000
0002
0103
0010
1000
,  // measure 14
0001
0010
0100
1000
0002
0103
0010
1000
,  // measure 15
0100
0010
0001
1000
0020
0130
0001
1000
,  // measure 16
2002
3003
0220
0330
,  // measure 17
1002
0000
0103
0010
2000
3001
0010
0100
,  // measure 18
1000
0010
0100
0001
2000
3100
0010
0001
,  // measure 19
1000
0010
0100
0001
2000
3100
0010
0001
,  // measure 20
1000
0010
0100
0001
0010
0100
0000
1000
,  // measure 21
0001
0100
0010
0000
1000
0100
0010
0000
,  // measure 22
0001
1000
0010
0000
0100
0001
1000
0000
,  // measure 23
0100
0000
0010
0000
0001
0000
1000
0000
0010
0000
0000
0100
0000
0000
0001
0000
,  // measure 24
2000
0000
0000
0000
3100
0000
0010
0000
0000
0001
0000
0000
0200
0000
0000
0000
,  // measure 25
0320
0000
0000
2030
0000
0000
0000
0000
,  // measure 26
0000
0000
0000
0000
3100
0010
0001
1000
,  // measure 27
0020
0000
0000
0230
0000
0000
0000
0000
,  // measure 28
0302
0000
0000
0000
0013
0100
1000
0100
,  // measure 29
0020
0000
0000
0032
0000
0000
0000
0000
,  // measure 30
0000
0000
0000
0000
0103
0010
1000
0001
,  // measure 31
0020
0000
0000
0230
0000
0000
0000
0000
,  // measure 32
2300
0000
0000
0000
3001
0100
0010
1000
,  // measure 33
0002
0000
0013
0200
0000
1300
0002
0000
,  // measure 34
0000
0000
0000
0000
0103
0010
1000
0001
,  // measure 35
0020
0000
0130
2000
0000
3010
0200
0000
,  // measure 36
0302
0000
0000
0000
0103
0010
1000
0001
,  // measure 37
0020
0000
0130
2000
0000
3100
0020
0000
,  // measure 38
0032
0000
0000
0000
0103
0010
1000
0100
,  // measure 39
0020
0000
0031
2000
0000
3010
0200
0000
,  // measure 40
0302
0000
0000
1003
,  // measure 41
0002
0000
0000
0000
0000
0000
0103
0020
,  // measure 42
0000
0000
0000
0000
0000
0000
1030
0002
,  // measure 43
0000
0000
0000
0000
0000
0013
0100
2000
,  // measure 44
0000
0000
0000
0000
0000
0000
3010
0200
,  // measure 45
0000
0000
0000
0000
0000
0000
0301
2000
,  // measure 46
0000
0000
0000
0000
0000
0000
3100
0020
,  // measure 47
0000
0000
0000
0000
0000
0000
0000
0032
,  // measure 48
0000
0000
2003
0000
,  // measure 49
3010
0000
0100
0000
0001
0000
1000
0100
,  // measure 50
0010
0000
0001
0000
1000
0000
0010
0100
,  // measure 51
0001
0000
1000
0000
0100
0000
0010
0001
,  // measure 52
0100
0000
0010
0000
1000
0000
0100
0010
,  // measure 53
0001
0010
0001
0010
0001
0100
0001
0100
,  // measure 54
0010
1000
0010
1000
0100
1000
0100
1000
,  // measure 55
0001
0100
0010
1000
0100
0010
0001
1000
,  // measure 56
0020
0000
0000
0000
0130
0000
0001
0000
0000
1000
0000
0000
0200
0000
0000
0000
,  // measure 57
0310
0000
0001
0000
1000
0000
0000
0010
0000
0100
0000
0001
0000
0000
0000
0000
,  // measure 58
1000
0000
0100
0000
0010
0000
0000
0001
0000
0100
0000
1000
0000
0000
0100
0000
,  // measure 59
0010
0000
0100
0000
0001
0000
0000
1000
0000
0100
0000
0010
0000
0000
0000
0000
,  // measure 60
0001
0000
0100
0000
0010
0000
0000
1000
0000
0100
0000
0001
0000
0000
0100
0000
,  // measure 61
0010
0000
0000
0001
0000
0000
0100
0000
0010
0000
1000
0000
0000
0000
0001
0000
,  // measure 62
0010
0000
0000
0100
0000
0000
1000
0000
0001
0000
0000
0100
0000
0000
0010
0000
,  // measure 63
1000
0000
0100
0000
0010
0000
0000
0001
0000
0100
0000
0010
0000
0000
1000
0000
,  // measure 64
0001
0000
0000
0010
0000
0000
0100
0000
1000
0000
0010
0000
0100
0000
0001
0000
,  // measure 65
1000
0000
0100
0000
0010
0000
0000
0001
0000
0100
0000
0010
0000
0000
1000
0000
,  // measure 66
0001
0000
0010
0000
0100
0000
0000
1000
0000
0010
0000
0001
0000
0000
0010
0000
,  // measure 67
0100
0000
0001
0000
1000
0000
0000
0100
0000
0010
0000
0001
0000
0000
0100
0000
,  // measure 68
0010
0000
1000
0000
0001
0000
0000
1000
0000
0100
0000
0001
0000
0000
0100
0000
,  // measure 69
0010
0001
0010
0001
1000
0010
1000
0010
,  // measure 70
0100
0001
0100
0001
1000
0100
1000
0100
,  // measure 71
0010
0000
0001
0000
1000
0000
0010
0000
0100
0000
0000
0001
0000
0000
1000
0000
,  // measure 72
0100
0000
0000
0010
0000
0000
0001
0000
2000
0000
0000
0000
0000
0000
0000
0000
,  // measure 73
3020
0000
0130
0002
0000
1003
0200
0000
,  // measure 74
0010
0000
1000
0000
0302
0203
0320
0032
,  // measure 75
2003
0000
3010
0200
0000
0301
2000
0000
,  // measure 76
0100
0000
0010
0000
3002
0203
0320
2030
,  // measure 77
3002
0000
0013
0200
0000
1300
0020
0000
,  // measure 78
0001
0000
0100
0000
0032
0023
0230
0302
,  // measure 79
1003
0000
0100
0010
0000
0001
0200
0000
,  // measure 80
1000
0000
0010
0000
0301
1000
0100
0010
,  // measure 81
0002
0000
0103
0020
0000
1030
0200
0000
,  // measure 82
1000
0000
0010
0000
0302
0203
2300
3002
,  // measure 83
0203
0000
0310
2000
0000
3100
0020
0000
,  // measure 84
0100
0000
0001
0000
0230
2300
3002
0203
,  // measure 85
0310
0000
1000
0001
0000
0010
0200
0000
,  // measure 86
1000
0000
0010
0000
0302
0203
2300
3002
,  // measure 87
0203
0000
0310
0002
0000
0013
2000
0000
,  // measure 88
3002
0000
0000
1003
,  // measure 89
0100
0010
0001
1000
0020
0130
0001
1000
,  // measure 90
0100
0010
0001
1000
0020
0130
0001
0010
,  // measure 91
0100
1000
0001
0100
0020
1030
0001
0010
,  // measure 92
0100
1000
0001
0100
0010
1000
0000
0001
,  // measure 93
0100
0010
1000
0010
,  // measure 94
0100
0001
1000
0100
,  // measure 95
0010
0001
0100
1000
0100
0001
0010
0100
,  // measure 96
2000
0000
0000
0000
3010
0000
0100
0000
0000
0001
0000
1000
0200
0000
0000
0000
,  // measure 97
0300
0000
0000
0000
;

//---------------dance-single - ----------------
#NOTEDATA:;
#CHARTNAME:;
#CHARTHASH:2968440677;
#STEPSTYPE:dance-single;
#BANNER:;
#DESCRIPTION:;
#CHARTSTYLE:;
#DIFFICULTY:Hard;
#METER:15;
#METERF:0.000000;
#LASTSECONDHINT:138.574432;
#RADARVALUES:0.644433,0.720139,0.056565,0.650494,0.328782,638.000000,630.000000,8.000000,92.000000,0.000000,0.000000,0.000000,0.000000,0.000000,0.644433,0.720139,0.056565,0.650494,0.328782,638.000000,630.000000,8.000000,92.000000,0.000000,0.000000,0.000000,0.000000,0.000000;
#CREDIT:YOSEFU;
#NOTES:
// measure 0
0000
0000
0000
0000
,  // measure 1
0000
0000
0000
0000
,  // measure 2
0000
0000
0000
0000
,  // measure 3
0000
0000
0000
0000
,  // measure 4
0000
0000
2002
3003
,  // measure 5
1001
1000
1010
0010
,  // measure 6
0100
0001
0100
0001
1000
0010
1000
0010
,  // measure 7
0100
0001
0100
0000
0010
1000
0010
0000
1000
0001
1000
0000
0100
0010
0100
0000
,  // measure 8
2000
0000
0000
0000
3001
0000
0100
0010
0000
1000
0000
0001
0020
0000
0000
0000
,  // measure 9
0130
1000
0001
0100
0020
1030
0001
0010
,  // measure 10
0100
1000
0010
0100
0002
0013
1000
0010
,  // measure 11
0001
1000
0100
0010
0002
1003
0010
0100
,  // measure 12
0001
1000
0100
0010
0002
0103
1000
0100
,  // measure 13
0001
0010
0100
1000
0002
0103
0010
1000
,  // measure 14
0100
0010
0001
1000
0002
0103
1000
0100
,  // measure 15
0001
0010
0100
1000
0002
0103
0010
1000
,  // measure 16
0001
0100
0000
0100
0000
0100
0010
0000
1000
0001
0000
0001
0000
0001
0010
0000
,  // measure 17
0200
0000
1300
0010
0100
0001
0010
0100
,  // measure 18
1000
0010
0100
0001
1000
0100
0010
0001
,  // measure 19
0100
0010
1000
0001
0010
0100
1000
0010
,  // measure 20
0100
0000
0001
0000
1000
0000
0100
0000
0010
0000
0001
1000
0000
0001
1000
0000
,  // measure 21
0010
0100
0001
1000
0100
0010
0001
0100
,  // measure 22
0010
1000
0001
0010
0100
1000
0010
0100
,  // measure 23
0001
0100
0001
0000
1000
0100
1000
0000
0001
0000
0000
0010
0000
0000
0100
0000
,  // measure 24
2000
0000
0000
0000
3010
0000
0100
0001
0000
1000
0000
0100
0020
0000
0000
0000
,  // measure 25
0032
0000
0000
0203
0000
0000
0000
0000
,  // measure 26
0000
0000
0000
0000
1300
0100
0001
1000
,  // measure 27
0200
0000
0000
0320
0000
0000
0000
0000
,  // measure 28
0032
0000
0000
0000
0103
0010
1000
0001
,  // measure 29
0020
0000
0000
0230
0000
0000
0000
0000
,  // measure 30
0000
0000
0000
0000
0301
0100
1000
0001
,  // measure 31
0200
0000
0000
0320
0000
0000
0000
0000
,  // measure 32
2030
0000
0000
0000
3100
0010
0100
1000
,  // measure 33
0002
0000
0103
2000
0000
3100
0002
0000
,  // measure 34
0010
0000
1000
0000
0023
2030
3020
0032
,  // measure 35
2003
0000
3100
0020
0000
0031
0100
0010
,  // measure 36
2000
0000
0100
0000
3002
0023
0230
2300
,  // measure 37
3020
0000
1030
0200
0000
0301
0200
0000
,  // measure 38
1000
0000
0010
0000
0302
0203
0320
0032
,  // measure 39
2003
0000
3010
0200
0000
0301
0020
0000
,  // measure 40
0100
0000
0000
0031
,  // measure 41
2000
0000
0000
0000
0000
0000
3010
0200
,  // measure 42
0000
0000
0000
0000
0000
0000
0301
0020
,  // measure 43
0000
0000
0000
0000
0000
1030
0010
0002
,  // measure 44
0000
0000
0000
0000
0000
0000
1003
0020
,  // measure 45
0000
0000
0000
0000
0000
0000
0130
0002
,  // measure 46
0000
0000
0000
0000
0000
0000
1003
0200
,  // measure 47
0000
0000
0000
0000
0000
0000
0000
0320
,  // measure 48
0000
0000
0032
0000
,  // measure 49
0103
0000
0010
0000
0100
0000
0001
1000
,  // measure 50
1100
0000
0000
0000
0100
0000
0000
0000
0010
0000
0000
0000
0001
0000
1000
0010
,  // measure 51
0100
0000
0001
0000
1000
0000
0100
0010
,  // measure 52
0011
0000
0000
0000
0001
0000
0000
0000
1000
0000
0000
0000
0010
0000
0100
0001
,  // measure 53
1000
0100
0010
0001
0100
0010
1000
0001
,  // measure 54
0010
0100
1000
0010
0100
0001
1000
0100
,  // measure 55
0010
0001
0010
0000
0001
1000
0001
0000
1000
0010
1000
0000
0001
0000
0100
0000
,  // measure 56
0110
0000
0000
0000
0010
0000
1000
0001
0000
0010
0000
0100
2000
0000
0000
0000
,  // measure 57
3001
0000
0100
0000
0010
0000
1000
0001
0000
0100
0000
0010
0000
1000
0001
0000
,  // measure 58
0010
0000
0100
0000
1000
0000
0001
0100
0000
0010
0000
0001
0000
0010
0100
0000
,  // measure 59
0001
0000
1000
0000
0100
0000
0010
0001
0000
1000
0000
0010
0000
0100
0001
0000
,  // measure 60
1000
0000
0100
0000
0010
0000
0001
0100
0000
0010
0000
1000
0000
0001
0010
0000
,  // measure 61
0100
0000
1000
0001
0000
1000
0100
0000
0010
0000
0001
0000
0000
1000
0010
0000
,  // measure 62
0100
0000
0001
1000
0000
0001
0100
0000
0001
0000
0010
0100
0000
1000
0100
0000
,  // measure 63
0010
0000
0001
0000
1000
0000
0010
0100
0000
0001
0000
1000
0000
0100
0010
0000
,  // measure 64
0001
0000
0100
0010
0000
1000
0001
0000
0010
0000
0100
0000
1000
0000
0010
0000
,  // measure 65
0100
0000
0001
0000
1000
0000
0100
0010
0000
0001
0000
1000
0000
0010
0100
0000
,  // measure 66
0001
0000
0010
0000
0100
0000
1000
0001
0000
0100
0000
1000
0000
0100
0010
0000
,  // measure 67
1000
0000
0100
0000
0010
0000
0001
0100
0000
0010
0000
1000
0000
0001
0010
0000
,  // measure 68
0100
0000
1000
0000
0010
0000
0100
0001
0000
1000
0000
0100
0000
0010
0001
0000
,  // measure 69
1000
0000
0010
0000
0100
0000
0001
0000
1000
0000
0100
0000
0010
0000
0001
1000
,  // measure 70
0010
0000
0100
0000
0001
0000
0010
0000
0100
0000
1000
0001
0000
0100
0001
0000
,  // measure 71
1000
0100
1000
0000
0001
0100
0001
0000
1000
0000
0000
0010
0000
0000
0100
0000
,  // measure 72
0202
0303
2002
3003
,  // measure 73
1000
0100
0010
0001
1000
0010
0100
0001
,  // measure 74
1000
0100
0010
0001
0200
2300
3200
0302
,  // measure 75
1003
0100
0010
0001
0100
0010
1000
0001
,  // measure 76
0010
0100
1000
0001
0200
0320
2030
3200
,  // measure 77
0310
0001
1000
0010
0100
0001
1000
0100
,  // measure 78
0010
0001
1000
0010
0002
0023
0230
0302
,  // measure 79
1003
0100
0010
0001
1000
0010
0100
1000
,  // measure 80
0100
0010
1000
0001
0010
0100
1000
0010
,  // measure 81
0100
0001
1000
0100
0010
0001
1000
0010
,  // measure 82
0100
0001
1000
0100
0002
0203
2300
3002
,  // measure 83
0103
0010
1000
0001
0010
0100
1000
0010
,  // measure 84
0100
0001
1000
0100
0010
0001
1000
0010
,  // measure 85
0100
0001
1000
0001
0100
0001
0010
0100
,  // measure 86
1000
0001
1000
0100
0020
2030
3002
0203
,  // measure 87
2300
0000
0000
3020
0000
0130
0002
0000
,  // measure 88
0203
0000
0000
0000
0310
1000
0000
0001
0000
1000
0000
0001
0020
0000
0000
0000
,  // measure 89
0130
1000
0001
0010
0200
1300
0010
0100
,  // measure 90
0001
1000
0100
0010
0002
1003
0010
0001
,  // measure 91
0010
0100
0001
1000
0002
0103
0010
1000
,  // measure 92
0001
0000
0010
0000
0100
0000
1000
0000
0001
0000
0100
0010
0000
0100
0001
0000
,  // measure 93
1000
0100
0010
0001
1000
0010
0100
0001
,  // measure 94
0010
0100
1000
0001
0100
0010
1000
0100
,  // measure 95
0010
0001
1000
0000
0010
1000
0001
0000
0100
0001
1000
0000
0100
0010
0001
0000
,  // measure 96
0200
0000
0000
0000
0310
0000
1000
0001
0000
0010
0000
0100
2000
0000
0000
0000
,  // measure 97
3000
0000
0000
0000
;
