#VERSION:0.83;
#TITLE:Kitanai Creature Bass;
#SUBTITLE:;
#ARTIST:m1dy;
#TITLETRANSLIT:;
#SUBTITLETRANSLIT:;
#ARTISTTRANSLIT:;
#GENRE:Speedcore;
#ORIGIN:Fucking Hardcore Tokyo Vol.2 [MOK269];
#TAGS:;
#CREDIT:skeleton made by RaverAce;
#BANNER:Kitanai Creature Bass.png;
#BACKGROUND:Kitanai Creature Bass-bg.png;
#PREVIEWVID:;
#JACKET:Kitanai Creature Bass-jacket.png;
#CDIMAGE:;
#DISCIMAGE:;
#LYRICSPATH:;
#CDTITLE:../_YSD cdtitles/ysd sale5 cdtitle.png;
#MUSIC:Kitanai Creature Bass.ogg;
#OFFSET:0.000000;
#SAMPLESTART:11.333000;
#SAMPLELENGTH:10.667000;
#SELECTABLE:YES;
#BPMS:0.000000=360.000000
;
#STOPS:61.000000=1.000000
,247.000000=0.333000
,438.000000=0.833000
,564.000000=0.333000
;
#DELAYS:;
#WARPS:;
#TIMESIGNATURES:0.000000=4=4
,60.000000=2=4
,62.000000=4=4
,246.000000=6=4
,252.000000=4=4
,436.000000=3=4
,439.000000=4=4
,563.000000=2=4
,565.000000=4=4
;
#TICKCOUNTS:0.000000=4
;
#COMBOS:0.000000=1
;
#SPEEDS:0.000000=1.000000=0.000000=0
;
#SCROLLS:0.000000=1.000000
;
#FAKES:;
#LABELS:0.000000=Song Start
;
#BGCHANGES:;
#KEYSOUNDS:;
#ATTACKS:
;

//---------------dance-single - ----------------
#NOTEDATA:;
#CHARTNAME:;
#CHARTHASH:1332700079;
#STEPSTYPE:dance-single;
#BANNER:;
#DESCRIPTION:;
#CHARTSTYLE:;
#DIFFICULTY:Beginner;
#METER:7;
#METERF:0.000000;
#LASTSECONDHINT:117.332336;
#RADARVALUES:0.294788,0.499615,0.190606,0.000000,0.000000,249.000000,226.000000,23.000000,0.000000,0.000000,0.000000,0.000000,0.000000,0.000000,0.294788,0.499615,0.190606,0.000000,0.000000,249.000000,226.000000,23.000000,0.000000,0.000000,0.000000,0.000000,0.000000,0.000000;
#CREDIT:YOSEFU;
#NOTES:
// measure 0
0000
0000
0000
0000
,  // measure 1
0000
0000
0000
0000
,  // measure 2
0000
0000
0000
0000
,  // measure 3
0000
0000
0000
0000
,  // measure 4
0000
0000
0000
0000
,  // measure 5
0000
0000
0000
0000
,  // measure 6
0000
0000
0000
0000
,  // measure 7
0000
0000
0000
0000
,  // measure 8
0000
0000
0000
0000
,  // measure 9
1001
0000
0000
0000
,  // measure 10
0000
0000
0000
1001
,  // measure 11
0000
1001
0000
0000
,  // measure 12
0000
0000
0000
0000
,  // measure 13
1000
0000
0001
0000
,  // measure 14
1000
0000
0000
1001
,  // measure 15
0000
0000
0001
0000
,  // measure 16
1000
0000
0010
0000
,  // measure 17
0000
0100
0000
0001
,  // measure 18
0000
1000
0000
0000
,  // measure 19
0000
0000
0100
0000
,  // measure 20
0010
0000
0001
0000
,  // measure 21
0000
1000
0000
0010
,  // measure 22
0000
0100
0000
0000
,  // measure 23
0000
0000
0001
0000
,  // measure 24
1000
0000
0100
0000
,  // measure 25
0000
0010
0000
0001
,  // measure 26
0000
0100
0000
0000
,  // measure 27
0000
0000
0010
0000
,  // measure 28
1000
0000
0001
0000
,  // measure 29
0000
1000
0000
0100
,  // measure 30
0000
0000
1001
0000
,  // measure 31
0000
0000
1001
0000
,  // measure 32
0100
0000
0100
0000
,  // measure 33
0000
0001
0000
0001
,  // measure 34
0000
0000
0000
0000
,  // measure 35
0100
0000
0010
0000
,  // measure 36
0010
0000
0000
0000
,  // measure 37
0000
1000
0000
1000
,  // measure 38
0000
0000
0000
0000
,  // measure 39
0100
0000
0010
0000
,  // measure 40
0010
0000
0000
0000
,  // measure 41
0000
0001
0000
0001
,  // measure 42
0000
0000
0000
0000
,  // measure 43
0100
0000
0010
0000
,  // measure 44
0010
0000
0000
0000
,  // measure 45
0000
1000
0000
1000
,  // measure 46
0000
0000
0100
0000
,  // measure 47
0100
0000
0110
0000
,  // measure 48
0100
0000
0000
1000
,  // measure 49
0000
1000
0000
1000
,  // measure 50
0000
0000
0000
0000
,  // measure 51
0001
0000
0100
0000
,  // measure 52
0100
0000
0000
0010
,  // measure 53
0000
1000
0000
1000
,  // measure 54
0000
0000
0000
0000
,  // measure 55
0001
0000
0010
0000
,  // measure 56
0010
0000
0000
0100
,  // measure 57
0000
1000
0000
1000
,  // measure 58
0000
0000
0000
0000
,  // measure 59
0001
0000
0100
0000
,  // measure 60
0100
0000
0000
0010
,  // measure 61
0000
0110
0000
0110
,  // measure 62
0000
0000
0000
0000
,  // measure 63
1000
0000
0001
0000
,  // measure 64
1000
0000
0000
0001
,  // measure 65
0000
1000
0000
0001
,  // measure 66
0000
0000
0000
0000
,  // measure 67
0010
0000
0100
0000
,  // measure 68
1000
0000
0000
0010
,  // measure 69
0000
0100
0000
0001
,  // measure 70
0000
0000
0000
0000
,  // measure 71
1000
0000
0001
0000
,  // measure 72
0010
0000
0000
0100
,  // measure 73
0000
1000
0000
0001
,  // measure 74
0000
0000
0000
0000
,  // measure 75
1000
0000
0001
0000
,  // measure 76
1000
0000
0001
0000
,  // measure 77
1000
0000
0001
0000
,  // measure 78
1000
0000
0001
0000
,  // measure 79
1001
0000
1000
0000
,  // measure 80
0010
0000
0000
0000
,  // measure 81
0100
0000
0001
0000
,  // measure 82
1000
0000
0000
0000
,  // measure 83
0100
0000
0010
0000
,  // measure 84
0001
0000
0000
0000
,  // measure 85
0100
0000
0010
0000
,  // measure 86
1000
0000
0000
0000
,  // measure 87
0001
0000
1000
0000
,  // measure 88
0100
0000
0000
0000
,  // measure 89
0010
0000
0001
0000
,  // measure 90
1000
0000
0000
0000
,  // measure 91
0010
0000
0100
0000
,  // measure 92
0001
0000
0000
0000
,  // measure 93
0010
0000
0100
0000
,  // measure 94
1000
0000
0000
0000
,  // measure 95
1001
0000
0001
0000
,  // measure 96
0100
0000
0000
0000
,  // measure 97
0010
0000
1000
0000
,  // measure 98
0100
0000
0000
0000
,  // measure 99
0010
0000
0001
0000
,  // measure 100
0100
0000
0000
0000
,  // measure 101
0010
0000
1000
0000
,  // measure 102
0001
0000
0000
0000
,  // measure 103
1001
0000
1000
0000
,  // measure 104
0100
0000
0000
0000
,  // measure 105
0010
0000
0001
0000
,  // measure 106
0100
0000
0000
0000
,  // measure 107
0010
0000
1000
0000
,  // measure 108
0001
0000
0000
0000
,  // measure 109
1001
0000
0000
1001
,  // measure 110
0000
0000
0000
0000
,  // measure 111
0000
0000
0100
0000
,  // measure 112
0100
0000
0000
0000
,  // measure 113
0000
0000
0000
0110
,  // measure 114
0000
0000
0000
0000
,  // measure 115
0000
0000
0001
0000
,  // measure 116
0001
0000
0000
0000
,  // measure 117
0000
0000
0000
1001
,  // measure 118
0000
0000
0000
0000
,  // measure 119
0000
0000
0110
0000
,  // measure 120
0110
0000
0000
0000
,  // measure 121
0000
0000
0000
1000
,  // measure 122
0000
0001
0000
1000
,  // measure 123
0000
0000
1001
0000
,  // measure 124
0000
0000
0000
0000
,  // measure 125
0010
0000
0000
1001
,  // measure 126
0000
1000
0000
0010
,  // measure 127
0000
0000
0100
0000
,  // measure 128
0001
0000
1000
0000
,  // measure 129
0000
0000
0000
0100
,  // measure 130
0000
0010
0000
0001
,  // measure 131
0000
0000
1000
0000
,  // measure 132
0010
0000
0100
0000
,  // measure 133
0000
0000
0000
0001
,  // measure 134
0000
0010
0000
0100
,  // measure 135
0000
0000
1000
0000
,  // measure 136
0001
0000
0100
0000
,  // measure 137
0000
0000
0000
0010
,  // measure 138
0000
1000
0000
0100
,  // measure 139
0000
0000
0110
0000
,  // measure 140
0110
0000
0000
1001
,  // measure 141
0000
1000
0000
0000
,  // measure 142
1000
0000
0000
1000
,  // measure 143
0000
0000
1000
0000
,  // measure 144
0000
1000
0000
0000
,  // measure 145
0000
0001
0000
0000
,  // measure 146
0001
0000
0000
0001
,  // measure 147
0000
0000
0001
0000
,  // measure 148
0000
0001
0000
0000
,  // measure 149
0000
0010
0000
0000
,  // measure 150
0010
0000
0000
0010
,  // measure 151
0000
0000
0010
0000
,  // measure 152
0000
0010
0000
0000
,  // measure 153
0000
0100
0000
0000
,  // measure 154
0100
0000
0000
0100
,  // measure 155
0000
0000
0100
0000
,  // measure 156
0000
0100
0000
0000
,  // measure 157
0000
1000
0000
0000
,  // measure 158
0001
0000
0000
0100
,  // measure 159
0000
0000
0010
0000
,  // measure 160
0000
1000
0000
0000
,  // measure 161
0000
0001
0000
0000
,  // measure 162
0010
0000
0000
0100
,  // measure 163
0000
0000
1000
0000
,  // measure 164
0000
0001
0000
0000
,  // measure 165
0000
1000
0000
0000
,  // measure 166
0010
0000
0000
0100
,  // measure 167
0000
0000
0001
0000
,  // measure 168
0000
0010
0000
0000
,  // measure 169
0000
0100
0000
0000
,  // measure 170
1000
0000
0000
0010
,  // measure 171
0000
0000
0100
0000
,  // measure 172
0000
0001
0000
0000
;

//---------------dance-single - ----------------
#NOTEDATA:;
#CHARTNAME:;
#CHARTHASH:2788516139;
#STEPSTYPE:dance-single;
#BANNER:;
#DESCRIPTION:;
#CHARTSTYLE:;
#DIFFICULTY:Easy;
#METER:11;
#METERF:0.000000;
#LASTSECONDHINT:117.999001;
#RADARVALUES:0.448693,0.502515,0.058010,0.356350,0.000000,379.000000,372.000000,7.000000,43.000000,0.000000,0.000000,0.000000,0.000000,0.000000,0.448693,0.502515,0.058010,0.356350,0.000000,379.000000,372.000000,7.000000,43.000000,0.000000,0.000000,0.000000,0.000000,0.000000;
#CREDIT:YOSEFU;
#NOTES:
// measure 0
0000
0000
0000
0000
,  // measure 1
0000
0000
0000
0000
,  // measure 2
0000
0000
0000
0000
,  // measure 3
0000
0000
0000
0000
,  // measure 4
0000
0000
0000
0000
,  // measure 5
0000
0000
0000
0000
,  // measure 6
0000
0000
0000
0000
,  // measure 7
0000
0000
0000
0000
,  // measure 8
0000
0000
0000
0000
,  // measure 9
1001
0000
0001
0000
,  // measure 10
0100
0000
0010
1000
,  // measure 11
0000
1000
0001
0000
,  // measure 12
0001
0100
0000
0100
,  // measure 13
0001
0000
1000
0000
,  // measure 14
0100
0000
0010
0001
,  // measure 15
0000
0000
1001
0000
,  // measure 16
1000
0000
0100
0000
,  // measure 17
0010
0001
0000
0001
,  // measure 18
1000
0000
1000
0010
,  // measure 19
0000
0010
0100
0000
,  // measure 20
0001
0000
1000
0000
,  // measure 21
0100
0010
0000
0010
,  // measure 22
0001
0000
0001
0100
,  // measure 23
0000
0100
0010
0000
,  // measure 24
1000
0000
0001
0000
,  // measure 25
1000
0100
0000
0100
,  // measure 26
0010
0000
0010
0001
,  // measure 27
0000
0001
0100
0000
,  // measure 28
0010
0000
1000
0000
,  // measure 29
0001
0010
0000
0010
,  // measure 30
0100
1000
0001
0000
,  // measure 31
1000
0000
0001
0000
,  // measure 32
0100
0000
0010
0000
,  // measure 33
1000
0001
0000
0001
,  // measure 34
1000
0000
0100
0000
,  // measure 35
0010
0001
0010
0000
,  // measure 36
0100
0000
1000
0000
,  // measure 37
0001
0100
0000
0100
,  // measure 38
0001
0000
0010
0000
,  // measure 39
0100
1000
0100
0000
,  // measure 40
0010
0000
0001
0000
,  // measure 41
1000
0010
0000
0010
,  // measure 42
1000
0000
0001
0000
,  // measure 43
0010
0100
0010
0000
,  // measure 44
0001
0000
1000
0000
,  // measure 45
0010
0100
0000
0100
,  // measure 46
0010
0000
1000
0000
,  // measure 47
0001
1000
0001
0000
,  // measure 48
1000
0000
0100
0010
,  // measure 49
0100
0010
0000
0001
,  // measure 50
1000
0000
0010
0000
,  // measure 51
0100
0001
0100
0000
,  // measure 52
0010
0000
1000
0001
,  // measure 53
1000
0001
0000
1000
,  // measure 54
0100
0000
0010
0000
,  // measure 55
0001
1000
0001
0000
,  // measure 56
0100
0000
0010
1000
,  // measure 57
0010
1000
0000
0001
,  // measure 58
0100
0000
0010
0000
,  // measure 59
1000
0001
1000
0000
,  // measure 60
0100
0000
0010
0001
,  // measure 61
0010
0001
0000
2002
,  // measure 62
0000
3003
0000
0000
,  // measure 63
1000
0000
0001
0000
,  // measure 64
0100
0000
0010
1000
,  // measure 65
0000
1000
0100
0000
,  // measure 66
0100
0010
0000
0010
,  // measure 67
0001
0000
0100
0000
,  // measure 68
0010
0000
0100
0001
,  // measure 69
0000
0001
0010
0000
,  // measure 70
0010
0100
0000
0100
,  // measure 71
1000
0000
0001
0000
,  // measure 72
0100
0000
0010
1000
,  // measure 73
0000
1000
0100
0000
,  // measure 74
0100
0010
0000
0010
,  // measure 75
0001
1000
0000
1000
,  // measure 76
0010
1000
0000
1000
,  // measure 77
0100
1000
0000
1000
,  // measure 78
0010
1000
0000
1000
,  // measure 79
0001
0000
0100
0010
,  // measure 80
0000
0010
0000
0010
,  // measure 81
1000
0000
1000
0001
,  // measure 82
0000
0010
0100
1000
,  // measure 83
0001
0000
0100
0010
,  // measure 84
0000
0010
0000
0010
,  // measure 85
1000
0000
1000
0001
,  // measure 86
0000
0001
1000
0100
,  // measure 87
0010
0000
0001
0100
,  // measure 88
0000
0100
0000
0100
,  // measure 89
0010
0000
0010
1000
,  // measure 90
0000
1000
0001
0010
,  // measure 91
0100
0000
0010
0001
,  // measure 92
0000
0001
0000
0001
,  // measure 93
0100
0000
0010
0000
,  // measure 94
1000
0000
0010
0000
,  // measure 95
0110
0000
0100
0001
,  // measure 96
0000
0001
0000
0001
,  // measure 97
1000
0000
1000
0100
,  // measure 98
0000
0100
0010
0001
,  // measure 99
1000
0000
0010
0100
,  // measure 100
0000
0100
0000
0100
,  // measure 101
0001
0000
0010
0000
,  // measure 102
0100
0000
1000
0000
,  // measure 103
1001
0000
0001
0100
,  // measure 104
0000
0100
0000
0100
,  // measure 105
0010
0000
0010
1000
,  // measure 106
0000
1000
0100
0010
,  // measure 107
0001
0000
0100
0000
,  // measure 108
0010
0000
1000
0000
,  // measure 109
1001
0000
0000
1000
,  // measure 110
0000
0001
0000
0100
,  // measure 111
0000
0010
1000
0000
,  // measure 112
1000
0100
0000
0100
,  // measure 113
0010
0000
0010
0001
,  // measure 114
0000
1000
0000
0010
,  // measure 115
0000
0100
0001
0000
,  // measure 116
0001
1000
0000
1000
,  // measure 117
0100
0000
0100
0010
,  // measure 118
0000
0001
0000
1000
,  // measure 119
0000
0010
0100
0000
,  // measure 120
0100
0001
0000
0001
,  // measure 121
1000
0000
1000
0100
,  // measure 122
0000
0010
0000
0001
,  // measure 123
0000
1000
0001
0000
,  // measure 124
0000
0100
0000
0010
,  // measure 125
0200
0000
0000
0300
0000
0000
1001
0000
,  // measure 126
0000
1000
0000
0010
,  // measure 127
0000
0100
0001
0000
,  // measure 128
0001
1000
0000
1000
,  // measure 129
0100
0000
0100
0010
,  // measure 130
0000
0001
0000
1000
,  // measure 131
0000
0010
0100
0000
,  // measure 132
0100
0001
0000
0001
,  // measure 133
0010
0000
0010
0100
,  // measure 134
0000
1000
0000
0001
,  // measure 135
0000
1000
0010
0000
,  // measure 136
0010
0100
0000
0100
,  // measure 137
0001
0000
0001
0010
,  // measure 138
0000
0100
0000
1000
,  // measure 139
0000
0001
0100
0000
,  // measure 140
0100
0010
2000
0000
,  // measure 141
3000
0002
0000
0000
,  // measure 142
0203
0000
0000
0320
,  // measure 143
0000
0000
0230
0000
,  // measure 144
0000
0302
0000
0000
,  // measure 145
0000
2003
0000
0000
,  // measure 146
3200
0000
0000
0320
,  // measure 147
0000
0000
0230
0000
,  // measure 148
0000
2300
0000
0000
,  // measure 149
0000
3002
0000
0000
,  // measure 150
0203
0000
0000
0320
,  // measure 151
0000
0000
2030
0000
,  // measure 152
0000
3002
0000
0000
,  // measure 153
0000
2003
0000
0000
,  // measure 154
3200
0000
0000
0320
,  // measure 155
0000
0031
0000
1000
,  // measure 156
0000
0002
0000
0000
,  // measure 157
0000
0203
0000
0000
,  // measure 158
0320
0000
0000
2030
,  // measure 159
0000
0000
3200
0000
,  // measure 160
0000
0320
0000
0000
,  // measure 161
0000
0032
0000
0000
,  // measure 162
2003
0000
0000
3020
,  // measure 163
0000
0000
0230
0000
,  // measure 164
0000
2300
0000
0000
,  // measure 165
0000
3200
0000
0000
,  // measure 166
0302
0000
0000
2003
,  // measure 167
0000
0000
3200
0000
,  // measure 168
0000
0320
0000
0000
,  // measure 169
0000
0032
0000
0000
,  // measure 170
2003
0000
0000
3002
,  // measure 171
0000
0000
2003
0000
,  // measure 172
0000
3020
0000
0000
,  // measure 173
0000
0030
0000
0000
;

//---------------dance-single - ----------------
#NOTEDATA:;
#CHARTNAME:;
#CHARTHASH:1399851666;
#STEPSTYPE:dance-single;
#BANNER:;
#DESCRIPTION:;
#CHARTSTYLE:;
#DIFFICULTY:Medium;
#METER:15;
#METERF:0.000000;
#LASTSECONDHINT:117.999001;
#RADARVALUES:0.735193,0.861455,0.174031,0.654689,0.000000,621.000000,600.000000,21.000000,79.000000,0.000000,0.000000,0.000000,0.000000,0.000000,0.735193,0.861455,0.174031,0.654689,0.000000,621.000000,600.000000,21.000000,79.000000,0.000000,0.000000,0.000000,0.000000,0.000000;
#CREDIT:YOSEFU;
#NOTES:
// measure 0
0000
0000
0000
0000
,  // measure 1
0000
0000
0000
0000
,  // measure 2
0000
0000
0000
0000
,  // measure 3
0000
0000
0000
0000
,  // measure 4
0000
0000
0000
0000
,  // measure 5
0000
0000
0000
0000
,  // measure 6
0000
0000
0000
0000
,  // measure 7
0000
0000
0000
0000
,  // measure 8
0000
0000
0000
0000
,  // measure 9
1001
0000
0000
0000
0010
0000
0000
0010
,  // measure 10
0100
0000
0000
0100
0010
0000
0110
0000
,  // measure 11
0000
0000
0110
0000
0001
0000
0000
0001
,  // measure 12
1000
0020
0000
0130
,  // measure 13
0001
0001
1000
1000
,  // measure 14
0100
0100
0010
0022
,  // measure 15
0000
0033
1001
1000
,  // measure 16
0010
0100
0001
0010
,  // measure 17
0100
0010
0001
1000
,  // measure 18
0010
0100
0001
0010
,  // measure 19
0100
1000
0001
0100
,  // measure 20
0001
0010
0001
0100
,  // measure 21
0010
1000
0100
0010
,  // measure 22
0001
0100
0010
0001
,  // measure 23
0010
0100
0001
0010
,  // measure 24
0100
1000
0010
1000
,  // measure 25
0100
0010
0001
1000
,  // measure 26
0010
0100
0001
1000
,  // measure 27
0100
0010
0100
1000
,  // measure 28
0010
0100
0001
1000
,  // measure 29
0100
0110
0000
1001
,  // measure 30
1000
0001
1000
0000
0220
0000
0000
0000
,  // measure 31
0030
0300
2001
0000
,  // measure 32
3001
0100
1000
0100
,  // measure 33
0001
2000
0000
3001
,  // measure 34
1000
0100
0001
0100
,  // measure 35
1000
0001
0200
0000
,  // measure 36
0301
0010
1000
0010
,  // measure 37
0001
2000
0000
3001
,  // measure 38
1000
0100
0001
0100
,  // measure 39
1000
0010
0200
0000
,  // measure 40
0301
0100
1000
0100
,  // measure 41
0001
0020
0000
0130
,  // measure 42
1000
0001
0100
1000
,  // measure 43
0100
0001
0020
0000
,  // measure 44
0130
1000
0010
0001
,  // measure 45
0010
2000
0000
3001
,  // measure 46
1000
0100
0001
0100
,  // measure 47
1000
0010
0120
0000
,  // measure 48
1030
0100
0001
2000
,  // measure 49
3020
0032
0000
1003
,  // measure 50
0001
0100
1000
0002
,  // measure 51
0023
2030
3200
0000
,  // measure 52
0310
1000
0001
0200
,  // measure 53
2300
3002
0000
0103
,  // measure 54
0010
0001
1000
0200
,  // measure 55
0302
0023
0230
0000
,  // measure 56
0301
0100
1000
0020
,  // measure 57
0032
2003
0000
3100
,  // measure 58
1000
0100
0001
0020
,  // measure 59
2030
3002
0203
0000
,  // measure 60
1300
0010
0001
0020
,  // measure 61
1030
2002
3003
2002
,  // measure 62
0000
3003
0000
0000
,  // measure 63
1001
1000
0100
0010
,  // measure 64
0001
0100
0010
0100
,  // measure 65
0001
1000
0100
0010
,  // measure 66
0001
0100
0010
1000
,  // measure 67
0001
0010
0001
0100
,  // measure 68
0001
0010
0100
1000
,  // measure 69
0010
0100
1000
0100
,  // measure 70
0001
0010
1000
0020
,  // measure 71
0031
0100
0010
1000
,  // measure 72
0100
1000
0010
0100
,  // measure 73
0001
1000
0100
0010
,  // measure 74
0001
1000
0010
0002
,  // measure 75
0013
0200
0000
0301
,  // measure 76
0010
0200
0000
1300
,  // measure 77
0010
0200
0000
0301
,  // measure 78
0010
0200
0000
1300
,  // measure 79
2001
0000
3001
0100
,  // measure 80
0010
0001
0010
0100
,  // measure 81
0001
0010
1000
0010
,  // measure 82
0001
2000
3020
0230
,  // measure 83
0302
0000
1003
0100
,  // measure 84
0010
1000
0010
0100
,  // measure 85
1000
0010
0001
0010
,  // measure 86
1000
0200
0320
0032
,  // measure 87
2003
0000
3010
0100
,  // measure 88
1000
0100
0010
1000
,  // measure 89
0100
0001
0100
1000
,  // measure 90
0001
0200
0320
2030
,  // measure 91
3002
0000
0013
0100
,  // measure 92
0001
0100
0010
0001
,  // measure 93
0100
1000
0100
0001
,  // measure 94
0010
0100
1000
0001
,  // measure 95
0200
0000
1300
0100
,  // measure 96
0001
1000
0100
0010
,  // measure 97
1000
0010
0001
0100
,  // measure 98
0010
0002
0023
2030
,  // measure 99
3200
0000
0301
0100
,  // measure 100
1000
0001
0100
0010
,  // measure 101
0001
0010
1000
0100
,  // measure 102
0010
0001
0100
0010
,  // measure 103
2000
0000
3001
0010
,  // measure 104
1000
0010
0001
1000
,  // measure 105
0010
0001
1000
0100
,  // measure 106
0001
0010
0100
0001
,  // measure 107
0100
0100
1000
1000
,  // measure 108
0001
0000
0001
0000
0100
0000
0100
0001
,  // measure 109
0200
0000
0300
1001
,  // measure 110
0000
0000
1000
0000
0000
1000
0010
0000
,  // measure 111
0000
0010
0100
0000
0002
0000
0000
0000
,  // measure 112
1003
0000
0100
0000
0000
0100
0010
0000
,  // measure 113
0002
0000
0103
0110
,  // measure 114
0000
0000
0010
0000
0000
0010
1000
0000
,  // measure 115
0000
1000
0001
0000
0020
0000
0000
0000
,  // measure 116
0130
0000
1000
0000
0000
1000
0010
0000
,  // measure 117
0200
0000
0301
1001
,  // measure 118
0000
0000
1000
0000
0000
1000
0100
0000
,  // measure 119
0000
0100
0010
0000
0011
0000
0000
0000
,  // measure 120
0011
0000
0001
0000
0000
0001
1000
0000
,  // measure 121
0200
0000
0310
0001
,  // measure 122
0001
0100
0100
1000
,  // measure 123
1000
0100
0002
0000
,  // measure 124
1003
0000
0100
0000
0000
0010
0001
0000
,  // measure 125
0200
0000
0000
0300
0000
0000
1001
0000
,  // measure 126
1000
0001
0010
0100
,  // measure 127
1000
0001
0100
0010
,  // measure 128
0100
0001
1000
0100
,  // measure 129
0010
0001
0100
0010
,  // measure 130
0100
0001
0010
0100
,  // measure 131
1000
0001
0100
0010
,  // measure 132
1000
0100
0010
0001
,  // measure 133
0100
0010
0001
0010
,  // measure 134
0100
0001
0010
0100
,  // measure 135
1000
0010
0100
0001
,  // measure 136
1000
0100
0010
0001
,  // measure 137
1000
0010
0100
0001
,  // measure 138
1000
0100
0010
0100
,  // measure 139
1000
0001
1001
0000
,  // measure 140
1000
0000
0001
1000
0001
1000
0001
0000
,  // measure 141
0000
1000
0100
0010
,  // measure 142
0001
0010
0100
1000
,  // measure 143
0100
0010
0001
0010
,  // measure 144
0100
0000
1000
0000
0001
0000
0100
0001
,  // measure 145
0000
0001
1000
0000
0010
0000
0100
0000
,  // measure 146
0001
0100
0010
1000
,  // measure 147
0010
0100
0001
0100
,  // measure 148
0010
1000
0100
0001
,  // measure 149
0100
1000
0100
0010
,  // measure 150
0001
0010
0100
1000
,  // measure 151
0100
0010
0001
0010
,  // measure 152
0100
0000
1000
0000
0001
0000
0100
0010
,  // measure 153
0000
0010
1000
0000
0010
0000
0100
0000
,  // measure 154
0001
0100
0010
1000
,  // measure 155
0010
0000
0100
0001
0100
0000
0001
1000
,  // measure 156
0001
1000
0002
0000
0000
0000
0000
0000
,  // measure 157
0000
1003
0100
0010
,  // measure 158
0001
0100
0010
1000
,  // measure 159
0100
0010
0001
0100
,  // measure 160
0010
0000
1000
0000
0001
0000
0010
0100
,  // measure 161
0000
0100
1000
0000
0001
0000
0100
0000
,  // measure 162
0010
1000
0100
0010
,  // measure 163
0001
0100
0010
1000
,  // measure 164
0001
0010
1000
0010
,  // measure 165
0001
1000
0010
0100
,  // measure 166
0001
0010
0100
1000
,  // measure 167
0001
0100
0010
1000
,  // measure 168
0100
0000
0010
0001
0010
0000
0001
1000
,  // measure 169
0001
1000
0002
0000
0000
0000
0000
0000
,  // measure 170
2003
0000
0000
3002
,  // measure 171
0000
0000
2003
0000
,  // measure 172
0000
3020
0000
0000
,  // measure 173
0000
0030
0000
0000
;

//---------------dance-single - ----------------
#NOTEDATA:;
#CHARTNAME:Chart for 'The Stinky';
#CHARTHASH:698296978;
#STEPSTYPE:dance-single;
#BANNER:;
#DESCRIPTION:;
#CHARTSTYLE:;
#DIFFICULTY:Hard;
#METER:18;
#METERF:0.000000;
#LASTSECONDHINT:117.999001;
#RADARVALUES:1.015774,1.148606,0.546955,1.002751,0.016574,858.000000,792.000000,66.000000,121.000000,0.000000,0.000000,0.000000,0.000000,0.000000,1.015774,1.148606,0.546955,1.002751,0.016574,858.000000,792.000000,66.000000,121.000000,0.000000,0.000000,0.000000,0.000000,0.000000;
#CREDIT:YOSEFU ft. Foul Bass;
#NOTES:
// measure 0
0000
0000
0000
0000
,  // measure 1
0000
0000
0000
0000
,  // measure 2
0000
0000
0000
0000
,  // measure 3
0000
0000
0000
0000
,  // measure 4
0000
0000
0000
0000
,  // measure 5
0000
0000
0000
0000
,  // measure 6
0000
0000
0000
0000
,  // measure 7
0000
0000
0000
0000
,  // measure 8
0000
0000
0000
0000
,  // measure 9
2002
0000
3003
0000
1000
0000
0010
0100
,  // measure 10
0001
0000
1000
0100
0010
0000
0022
0000
,  // measure 11
0033
0000
0011
0000
0001
0000
0100
0010
,  // measure 12
1000
0002
0000
0013
,  // measure 13
0110
0000
1000
0000
0001
0000
0100
0010
,  // measure 14
1000
0000
0001
0010
0100
0000
2200
0000
,  // measure 15
0000
0000
0000
0000
0000
0000
0000
0000
0000
3300
0000
0000
0000
0000
0000
0000
1001
0000
0000
0000
0000
0000
0000
0000
1000
0000
0000
0000
0000
0000
0000
0000
,  // measure 16
0100
0000
0010
0001
1000
0000
1000
0010
,  // measure 17
0100
0002
1000
0203
,  // measure 18
0310
0000
1000
0001
0010
0000
0200
0000
,  // measure 19
1000
0310
0002
0100
,  // measure 20
1003
0000
0010
0100
0001
0000
0001
0010
,  // measure 21
0100
2000
0100
3002
,  // measure 22
0103
0000
0010
1000
0001
0000
0001
0010
,  // measure 23
0100
1000
0010
0000
0200
0000
0001
0000
,  // measure 24
0310
0000
1000
0001
0010
0000
0010
0100
,  // measure 25
1000
0002
0100
2003
,  // measure 26
3100
0000
0010
0001
1000
0000
0020
0000
,  // measure 27
0100
0000
1030
0001
0020
0000
0100
0000
,  // measure 28
0031
0000
0100
0010
1000
0100
0010
0100
,  // measure 29
1000
2001
0000
3100
,  // measure 30
0010
0100
0010
0000
0021
0000
0000
0000
,  // measure 31
0031
0100
0010
0000
2010
0000
0001
0000
,  // measure 32
3100
0000
0010
0001
1000
0001
0010
0001
,  // measure 33
1000
0020
0100
2030
,  // measure 34
3001
0000
0010
0001
1000
0001
0010
0001
,  // measure 35
0200
0310
2000
0001
,  // measure 36
3010
0000
0100
0001
1000
0001
0100
0001
,  // measure 37
1000
0200
0010
2300
,  // measure 38
3001
0000
1000
0010
0100
0010
1000
0100
,  // measure 39
0020
0031
0020
0100
,  // measure 40
0031
0000
1000
0010
0100
0010
1000
0010
,  // measure 41
0100
0002
0010
2003
,  // measure 42
3100
0000
0010
0001
0010
0100
0010
0001
,  // measure 43
2000
3010
0200
0010
,  // measure 44
0301
0000
0010
0100
1000
0100
0010
0100
,  // measure 45
1000
0002
0100
2003
,  // measure 46
3100
0000
0010
0001
0010
0100
1000
0010
,  // measure 47
0200
0301
1002
0100
,  // measure 48
1003
0000
0100
0010
0001
0010
0200
0000
,  // measure 49
2300
3200
0010
2300
,  // measure 50
3010
0000
0100
0001
1000
0001
0010
0000
,  // measure 51
0110
1100
2000
0001
,  // measure 52
3010
0000
0100
0001
1000
0100
2000
0000
,  // measure 53
3200
2300
0001
3020
,  // measure 54
0130
0000
0001
0100
0010
1000
0100
0010
,  // measure 55
0001
0011
0020
0100
,  // measure 56
0031
0000
1000
0010
1000
0001
0020
0000
,  // measure 57
0230
0320
0001
0230
,  // measure 58
1300
0000
0010
0100
0001
1000
0100
0000
,  // measure 59
0110
0011
0002
0100
,  // measure 60
1003
0000
0010
0100
0001
0010
0001
1000
,  // measure 61
0010
0000
0000
0000
0000
0000
0000
0000
0110
0000
0000
0000
0000
0000
0000
0000
0000
0000
0000
0000
0000
0000
0000
0000
2002
3003
0000
0000
0000
0000
0000
0000
,  // measure 62
0020
0230
0000
0300
,  // measure 63
1001
0000
1000
0000
0010
0000
0100
0001
,  // measure 64
1000
0000
1000
0100
0010
0000
0002
0000
,  // measure 65
1000
0000
0023
0000
0130
0000
1000
0001
,  // measure 66
0100
0020
1000
0130
,  // measure 67
0002
0000
0010
0000
1003
0000
0100
0010
,  // measure 68
0001
0000
0001
0100
0010
0000
2000
0000
,  // measure 69
0010
0000
3001
0010
0100
0000
0100
1000
,  // measure 70
0010
0000
0010
0100
0001
0010
0100
0000
,  // measure 71
2100
0000
0001
0000
3010
0000
1000
0001
,  // measure 72
0100
0000
0100
0010
1000
0000
0002
0000
,  // measure 73
0010
0000
2003
0000
3010
0000
0100
0001
,  // measure 74
1000
0000
0200
0000
0310
0001
0100
0000
,  // measure 75
0010
0000
0010
1000
0100
0000
0100
0010
,  // measure 76
1000
0000
1000
0010
0100
0000
0100
1000
,  // measure 77
0010
0000
0010
0100
0001
0000
0001
0100
,  // measure 78
1000
0000
1000
0100
0010
0000
0110
0000
,  // measure 79
1002
0000
0100
0000
1003
0010
0100
0000
,  // measure 80
0100
0001
1000
0000
1000
0100
0010
0001
,  // measure 81
0100
0000
0010
0000
0001
0010
0100
0000
,  // measure 82
0001
2000
3200
0320
,  // measure 83
0032
0000
0010
0000
1003
0001
0010
0000
,  // measure 84
0010
0100
1000
0000
1000
0010
0100
0001
,  // measure 85
0010
0000
1000
0000
0010
0100
1000
0000
,  // measure 86
0010
0100
0002
0000
0023
0000
0130
0000
,  // measure 87
1200
0000
0010
0000
1300
0001
0100
0000
,  // measure 88
0100
0010
1000
0000
1000
0100
0010
0001
,  // measure 89
0100
0000
0010
0000
0001
0010
0100
0000
,  // measure 90
0001
0020
0230
2300
,  // measure 91
3020
0000
0100
0000
1030
0001
0010
0000
,  // measure 92
0010
0100
1000
0000
1000
0010
0100
0001
,  // measure 93
0010
0110
0100
1100
,  // measure 94
1000
0010
0100
1000
0100
0010
0200
0000
,  // measure 95
0302
0000
0100
0000
1003
0100
0010
0000
,  // measure 96
0010
0001
0100
0000
0100
0010
1000
0100
,  // measure 97
0010
0000
1000
0000
0010
0001
1000
0000
,  // measure 98
0010
0200
0302
0023
,  // measure 99
0230
0000
1000
0000
0310
0001
1000
0000
,  // measure 100
1000
0010
0100
0000
0100
0001
0010
0100
,  // measure 101
1000
1100
0100
0110
,  // measure 102
0010
1000
0010
0100
1000
0001
0200
0000
,  // measure 103
0320
0000
1000
0000
0130
0001
0010
0000
,  // measure 104
0010
0100
1000
0000
1000
0010
0100
0001
,  // measure 105
0010
0000
1000
0000
0010
0001
0100
0000
,  // measure 106
0010
2000
3200
0310
,  // measure 107
0011
0001
1010
1000
,  // measure 108
0101
0000
0001
0000
1100
0000
1000
0100
,  // measure 109
0020
0000
0000
0000
0000
0000
0000
0000
0000
0000
0000
0000
0000
0000
0000
0000
0000
0030
0000
0000
0000
0000
0000
0000
1002
0000
0000
0000
0000
0000
0000
0000
,  // measure 110
0000
0000
0103
0000
0010
0100
0001
0000
,  // measure 111
1000
0100
0010
0000
0002
0000
0000
0000
,  // measure 112
2003
0000
3010
0000
0100
0001
1000
0000
,  // measure 113
0200
0000
0310
0021
,  // measure 114
0000
0000
0130
0000
1000
0001
0100
0000
,  // measure 115
0010
1000
0001
0000
0020
0000
0000
0000
,  // measure 116
0230
0000
1300
0000
0001
0100
0010
0000
,  // measure 117
2000
0000
3001
0012
,  // measure 118
0000
0000
1003
0000
0010
0100
0001
0000
,  // measure 119
1000
0100
0010
0000
0022
0000
0033
0000
,  // measure 120
0011
0000
0001
0000
0100
0010
1000
0000
,  // measure 121
0002
0000
1003
1100
,  // measure 122
0100
0000
0010
0000
0001
0100
0010
0000
,  // measure 123
1000
0001
0010
0000
0220
0000
0300
0000
,  // measure 124
0032
0000
0103
0000
0010
1000
0001
0000
,  // measure 125
0200
0000
0300
1001
,  // measure 126
0001
0000
0100
0000
0010
1000
0001
0000
,  // measure 127
0001
0010
0100
0000
2000
0000
0001
0000
,  // measure 128
3200
0000
0310
0000
0001
1000
0010
0000
,  // measure 129
0200
0001
0310
2000
,  // measure 130
0100
0000
3001
0000
0010
0100
1000
0000
,  // measure 131
1000
0010
0100
0000
0002
0000
0100
0000
,  // measure 132
2003
0000
3100
0000
0010
0001
1000
0000
,  // measure 133
1000
0010
0100
0001
0010
0000
0200
0000
,  // measure 134
1000
0000
0310
0000
0001
1000
0010
0000
,  // measure 135
0010
0100
0001
0000
2000
0000
0100
0000
,  // measure 136
3002
0000
0103
0000
0010
1000
0001
0000
,  // measure 137
0020
0000
0100
0000
0031
1000
0010
0000
,  // measure 138
0010
1000
0001
0000
0001
0010
0100
0010
,  // measure 139
0001
1000
0010
0000
0110
0000
0100
0001
,  // measure 140
0010
0001
0100
0010
1000
0001
2000
0000
,  // measure 141
0000
3000
0000
0000
0000
0000
0000
0000
1010
0000
0000
0000
0000
0000
0000
0000
0001
0000
0000
0000
0000
0000
0000
0000
0100
0000
0000
0000
0000
0000
0000
0000
,  // measure 142
1010
0001
0100
1010
,  // measure 143
0001
0100
1010
0001
,  // measure 144
0100
0000
1010
0000
0001
0000
0010
1000
,  // measure 145
0000
0010
0001
0000
1000
0000
0100
0000
,  // measure 146
0011
1000
0100
0011
,  // measure 147
1000
0100
0010
0000
0011
0000
1000
0000
,  // measure 148
0100
0000
0011
0000
1000
0010
0100
0001
,  // measure 149
0010
0100
1000
0000
0001
0000
0100
0000
,  // measure 150
1010
0001
0010
1100
,  // measure 151
0001
0100
1010
0001
,  // measure 152
0010
0000
1100
0000
0001
0000
0100
1000
,  // measure 153
0000
0100
0001
0000
0010
0000
0100
0000
,  // measure 154
0011
1000
0010
0101
,  // measure 155
1000
0000
0001
0100
1000
0100
0001
1000
,  // measure 156
0100
0010
0002
0000
0000
0000
0000
0000
,  // measure 157
0003
0101
0010
0100
,  // measure 158
1010
0100
0010
0101
,  // measure 159
1000
0100
1010
0100
,  // measure 160
1000
0000
0101
0000
1000
0000
0010
0001
,  // measure 161
0000
0010
1000
0000
0100
0000
0010
0000
,  // measure 162
1001
0100
0010
1001
,  // measure 163
1000
0010
0100
0000
0101
0000
0001
0000
,  // measure 164
0010
0000
1100
0000
1000
0100
0010
0100
,  // measure 165
1000
0010
0100
0000
0010
0000
1000
0000
,  // measure 166
0101
0001
0010
1100
,  // measure 167
1000
0010
0101
1000
,  // measure 168
0001
0000
1000
0100
0001
0100
1000
0001
,  // measure 169
0100
0010
2000
0000
0000
0000
0000
0000
,  // measure 170
3002
0000
0000
2003
,  // measure 171
0000
0000
3002
0000
,  // measure 172
0000
0203
0000
0000
,  // measure 173
0000
0300
0000
0000
;

//---------------dance-double - ----------------
#NOTEDATA:;
#CHARTNAME:;
#CHARTHASH:4284894390;
#STEPSTYPE:dance-double;
#BANNER:;
#DESCRIPTION:;
#CHARTSTYLE:;
#DIFFICULTY:Beginner;
#METER:8;
#METERF:0.000000;
#LASTSECONDHINT:117.332336;
#RADARVALUES:0.304259,0.570988,0.198893,0.049723,0.000000,257.000000,233.000000,24.000000,6.000000,0.000000,0.000000,0.000000,0.000000,0.000000,0.304259,0.570988,0.198893,0.049723,0.000000,257.000000,233.000000,24.000000,6.000000,0.000000,0.000000,0.000000,0.000000,0.000000;
#CREDIT:YOSEFU;
#NOTES:
00000000
00000000
00000000
00000000
,
00000000
00000000
00000000
00000000
,
00000000
00000000
00000000
00000000
,
00000000
00000000
00000000
00000000
,
00000000
00000000
00000000
00000000
,
00000000
00000000
00000000
00000000
,
00000000
00000000
00000000
00000000
,
00000000
00000000
00000000
00000000
,
00000000
00000000
00000000
00000000
,
00011000
00000000
00000000
00000000
,
00000000
00000000
00000000
00011000
,
00000000
00011000
00000000
00000000
,
00000000
00000000
00000000
00000000
,
00010000
00000000
00001000
00000000
,
00010000
00000000
00000000
00011000
,
00000000
00000000
00001000
00000000
,
01000000
00000000
00010000
00000000
,
00000000
10000000
00000000
01000000
,
00000000
00100000
00000000
00000000
,
00000000
00000000
00001000
00000000
,
01000000
00000000
00010000
00000000
,
00000000
01000000
00000000
00001000
,
00000000
00010000
00000000
00000000
,
00000000
00000000
00000100
00000000
,
00001000
00000000
00000001
00000000
,
00000000
00000100
00000000
00000010
,
00000000
00010000
00000000
00000000
,
00000000
00000000
00001000
00000000
,
01000000
00000000
00010000
00000000
,
00000000
10010000
00000000
10010000
,
00000000
00000000
10010000
00000000
,
01000000
00000000
10010000
00000000
,
10000000
00000000
00100000
00000000
,
00000000
01000000
00000000
00001000
,
00000000
00000000
00000000
00000000
,
00010000
00000000
00000010
00000000
,
00001000
00000000
00000000
00000000
,
00000000
00000010
00000000
00000100
,
00000000
00000000
00000000
00000000
,
00000001
00000000
00000010
00000000
,
00000100
00000000
00000000
00000000
,
00000000
00010000
00000000
00001000
,
00000000
00000000
00000000
00000000
,
01000000
00000000
00010000
00000000
,
10000000
00000000
00000000
00000000
,
00000000
01000000
00000000
00100000
,
00000000
00000000
00000000
00000000
,
00010000
00000000
10010000
00000000
,
00010000
00000000
00000000
10000000
,
00000000
00100000
00000000
01000000
,
00000000
00000000
00000000
00000000
,
00001000
00000000
00010000
00000000
,
00000100
00000000
00000000
00000010
,
00000000
00000001
00000000
00001000
,
00000000
00000000
00000000
00000000
,
00000010
00000000
00010000
00000000
,
00001000
00000000
00000000
00100000
,
00000000
00001000
00000000
10000000
,
00000000
00000000
00000000
00000000
,
00100000
00000000
01000000
00000000
,
00001000
00000000
00000000
00000000
,
00000000
00011000
00000000
00011000
,
00000000
00000000
00000000
00000000
,
00011000
00000000
00010000
00000000
,
00000010
00000000
00000000
00000100
,
00000000
00000001
00000000
00001000
,
00000000
00000000
00000000
00000000
,
00000100
00000000
00000010
00000000
,
00000001
00000000
00000000
00000100
,
00000000
00000010
00000000
00010000
,
00000000
00000000
00000000
00000000
,
00001000
00000000
00100000
00000000
,
01000000
00000000
00000000
10000000
,
00000000
00010000
00000000
01000000
,
00000000
00000000
00000000
00000000
,
00200000
00300000
01000000
00000000
,
00002000
00003000
01000000
00000000
,
00020000
00030000
01000000
00000000
,
00002000
00003000
00010000
00000000
,
00011000
00000000
00001000
00000000
,
00010000
00000000
00000000
00000000
,
00000100
00000000
00000010
00000000
,
00000001
00000000
00000000
00000000
,
00000100
00000000
00000010
00000000
,
00001000
00000000
00000000
00000000
,
00000001
00000000
00000010
00000000
,
00000100
00000000
00000000
00000000
,
00000010
00000000
00000001
00000000
,
00000100
00000000
00000000
00000000
,
00001000
00000000
00010000
00000000
,
00000100
00000000
00000000
00000000
,
00010000
00000000
00001000
00000000
,
01000000
00000000
00000000
00000000
,
01100000
00000000
01100000
00000000
,
01100000
00000000
00000000
00000000
,
10010000
00000000
10000000
00000000
,
01000000
00000000
00000000
00000000
,
00100000
00000000
00001000
00000000
,
00010000
00000000
00000000
00000000
,
00100000
00000000
00010000
00000000
,
00001000
00000000
00000000
00000000
,
00000010
00000000
00001000
00000000
,
00010000
00000000
00000000
00000000
,
00011000
00000000
00001000
00000000
,
01000000
00000000
00000000
00000000
,
00001000
00000000
00010000
00000000
,
00000100
00000000
00000000
00000000
,
00000110
00000000
00000000
00000000
,
00000110
00000000
00000000
00000000
,
00000220
00000000
00000330
00001001
,
00000000
00000001
00000000
00000100
,
00000000
00000000
00000010
00000000
,
00010000
00000000
00001000
00000000
,
00000000
00000000
00000000
00100000
,
00000000
00001000
00000000
01000000
,
00000000
00000000
00100000
00000000
,
10000000
00000000
00010000
00000000
,
00000000
00000000
00000000
10010000
,
00000000
10000000
00000000
01000000
,
00000000
00000000
00100000
00000000
,
00001000
00000000
00010000
00000000
,
00000000
00000000
00000000
00000010
,
00000000
00001000
00000000
00000001
,
00000000
00000000
00001001
00000000
,
00000000
00000000
00000000
00000000
,
00000000
00000000
00000000
00001000
,
00000000
00000100
00000000
00010000
,
00000000
00000000
00001000
00000000
,
01000000
00000000
00010000
00000000
,
00000000
00000000
00000000
01000000
,
00000000
00001000
00000000
00010000
,
00000000
00000000
00000100
00000000
,
00000010
00000000
00000001
00000000
,
00000000
00000000
00000000
00000100
,
00000000
00001000
00000000
00010000
,
00000000
00000000
00001000
00000000
,
00100000
00000000
01000000
00000000
,
00000000
00000000
00000000
00100000
,
00000000
00010000
00000000
10000000
,
00000000
00010000
00000000
00100000
,
00000000
00010000
00000000
10000000
,
00000000
00100000
00000000
00000000
,
00100000
00000000
00000000
00100000
,
00000000
00000000
00100000
00000000
,
00000000
00100000
00000000
00000000
,
00000000
01000000
00000000
00000000
,
01000000
00000000
00000000
01000000
,
00000000
00000000
01000000
00000000
,
00000000
01000000
00000000
00000000
,
00000000
00001000
00000000
00000000
,
00001000
00000000
00000000
00001000
,
00000000
00000000
00001000
00000000
,
00000000
00001000
00000000
00000000
,
00000000
00010000
00000000
00000000
,
00010000
00000000
00000000
00010000
,
00000000
00000000
00010000
00000000
,
00000000
00010000
00000000
00000000
,
00000000
00000100
00000000
00000000
,
00000100
00000000
00000000
00000010
,
00000000
00000000
00000010
00000000
,
00000000
00000001
00000000
00000000
,
00000000
00000100
00000000
00000000
,
00000100
00000000
00000000
00000010
,
00000000
00000000
00000010
00000000
,
00000000
00001000
00000000
00000000
,
00000000
00000010
00000000
00000000
,
00000010
00000000
00000000
00000100
,
00000000
00000000
00000100
00000000
,
00000000
00001000
00000000
00000000
,
00000000
00010000
00000000
00000000
,
00001000
00000000
00000000
00010000
,
00000000
00000000
00001000
00000000
,
00000000
00010000
00000000
00000000
;

//---------------dance-double - ----------------
#NOTEDATA:;
#CHARTNAME:;
#CHARTHASH:401109601;
#STEPSTYPE:dance-double;
#BANNER:;
#DESCRIPTION:;
#CHARTSTYLE:;
#DIFFICULTY:Easy;
#METER:12;
#METERF:0.000000;
#LASTSECONDHINT:117.999001;
#RADARVALUES:0.466451,0.574303,0.058010,0.381211,0.000000,394.000000,387.000000,7.000000,46.000000,0.000000,0.000000,0.000000,0.000000,0.000000,0.466451,0.574303,0.058010,0.381211,0.000000,394.000000,387.000000,7.000000,46.000000,0.000000,0.000000,0.000000,0.000000,0.000000;
#CREDIT:YOSEFU;
#NOTES:
00000000
00000000
00000000
00000000
,
00000000
00000000
00000000
00000000
,
00000000
00000000
00000000
00000000
,
00000000
00000000
00000000
00000000
,
00000000
00000000
00000000
00000000
,
00000000
00000000
00000000
00000000
,
00000000
00000000
00000000
00000000
,
00000000
00000000
00000000
00000000
,
00000000
00000000
00000000
00000000
,
00011000
00000000
00001000
00000000
,
01000000
00000000
00010000
10000000
,
00000000
10000000
01000000
00000000
,
01000000
00100000
00000000
00100000
,
00001000
00000000
00010000
00000000
,
00000010
00000000
00001000
00000001
,
00000000
00000000
00001001
00000000
,
00001000
00000000
00000100
00000000
,
00000010
00000001
00000000
00000001
,
00001000
00000000
00001000
00000010
,
00000000
00000010
00010000
00000000
,
00001000
00000000
00100000
00000000
,
01000000
10000000
00000000
10000000
,
00100000
00000000
00100000
01000000
,
00000000
01000000
00001000
00000000
,
00010000
00000000
00100000
00000000
,
01000000
00010000
00000000
00010000
,
00100000
00000000
00100000
00001000
,
00000000
00001000
00010000
00000000
,
00000010
00000000
00001000
00000010
,
00000100
00000001
00000000
00001000
,
00000100
00000010
00000001
00000000
,
00002000
00003000
00000001
00000000
,
00000100
00000010
00000100
00000010
,
00000000
00001000
00000000
00000001
,
00001000
00000001
00001000
00000000
,
00000100
00000000
00010000
00000000
,
00001000
00100000
00001000
00100000
,
00000000
00010000
00000000
10000000
,
00100000
10000000
00100000
00000000
,
01000000
00000000
00010000
00000000
,
00100000
01000000
00100000
01000000
,
00000000
10000000
00000000
00010000
,
01000000
00010000
01000000
00000000
,
00001000
00000000
00010000
00000000
,
00000100
00001000
00000100
00001000
,
00000000
00000001
00000000
00000100
,
00000010
00000100
00000010
00000000
,
00001000
00000001
00001000
00000000
,
00000100
00000010
00000100
00000010
,
00000000
00000001
00000000
00001000
,
00000010
00001000
00000010
00000000
,
00000100
00000001
00000100
00000000
,
00000010
00001000
00000010
00001000
,
00000000
00000001
00000000
00001000
,
00000100
00001000
00000100
00000000
,
00010000
00001000
00010000
00000000
,
00001000
01000000
00001000
01000000
,
00000000
00100000
00000000
10000000
,
00010000
10000000
00010000
00000000
,
10000000
01000000
10000000
00000000
,
00010000
01000000
00010000
01000000
,
00000000
01001000
00000000
00022000
,
00000000
00000000
00033000
00000000
,
00010000
00000000
00000100
00000000
,
00001000
00000000
00000010
00000100
,
00000000
00000100
00000001
00000000
,
00000001
00000010
00000000
00000010
,
00000100
00000000
00010000
00000000
,
00001000
00000000
01000000
00001000
,
00000000
00001000
00010000
00000000
,
00010000
00100000
00000000
00200000
,
01300000
00000000
00010000
00000000
,
00100000
00000000
01000000
10000000
,
00000000
10000000
00100000
00000000
,
00100000
01000000
00000000
01000000
,
00010000
01000000
00000000
01000000
,
00001000
01000000
00000000
01000000
,
00100000
01000000
00000000
01000000
,
00010000
01000000
00000000
01000000
,
00001000
00000000
00010000
00000100
,
00000000
00000100
00000000
00000100
,
00000010
00000000
00000010
00000001
,
00000000
00000001
00000100
00000010
,
00001000
00000000
00000001
00000010
,
00000000
00000010
00000000
00000010
,
00000100
00000000
00000100
00010000
,
00000000
00010000
00001000
01000000
,
00010000
00000000
10000000
01000000
,
00000000
01000000
00000000
01000000
,
00100000
00000000
00100000
00010000
,
00000000
00010000
01000000
00100000
,
10000000
00000000
01000000
00100000
,
00000000
00100000
00000000
00100000
,
00001000
00000000
00010000
00000000
,
00000010
00001000
00000010
00000000
,
00001001
00000000
00001000
00000010
,
00000000
00000010
00000000
00000010
,
00000100
00000000
00000100
00000001
,
00000000
00000001
00000010
00000100
,
00001000
00000000
00000001
00000100
,
00000000
00000100
00000000
00000100
,
00000010
00000000
00010000
00000000
,
00001000
00100000
00001000
00000000
,
00101000
00000000
00100000
01000000
,
00000000
01000000
00000000
01000000
,
10000000
00000000
10000000
00100000
,
00000000
00100000
01000000
00010000
,
10000000
00000000
01000000
00100000
,
00000000
00100000
00000000
00100000
,
00002000
00000000
00003000
00010000
,
00000000
00000010
00000000
00001000
,
00000000
00000001
00000010
00000000
,
00000010
00000100
00000000
00000100
,
00001000
00000000
00001000
00000010
,
00000000
00000100
00000000
00000001
,
00000000
00000010
00000100
00000000
,
00000100
00001000
00000000
00001000
,
00000010
00000000
00000010
00010000
,
00000000
00001000
00000000
00100000
,
00000000
01000000
00100000
00000000
,
00100000
00010000
00000000
00010000
,
01000000
00000000
01000000
00100000
,
00000000
10000000
00000000
00010000
,
00000000
00100000
01000000
00000000
,
01000000
10000000
00000000
10000000
,
00200000
00000000
00000000
00300000
00000000
00000000
10010000
00000000
,
00000000
00010000
00000000
00100000
,
00000000
01000000
10000000
00000000
,
10000000
00010000
00000000
00010000
,
01000000
00000000
01000000
00001000
,
00000000
00010000
00000000
00000100
,
00000000
00000010
00000001
00000000
,
00000001
00000100
00000000
00000100
,
00000010
00000000
00000010
00010000
,
00000000
00001000
00000000
00000100
,
00000000
00000010
00001000
00000000
,
00001000
00000100
00000000
00000100
,
00010000
00000000
00010000
00001000
,
00000000
01000000
00000000
00010000
,
01000000
00100000
10000000
00000000
,
01000000
00100000
10000000
00200000
,
00300000
00002000
00000000
00000000
,
00023000
00000000
00000000
00030020
,
00000000
00000000
00000230
00000000
,
00000000
00002300
00000000
00000000
,
00000000
00003200
00000000
00000000
,
00000320
00000000
00000000
00000230
,
00000000
00000000
00000302
00000000
,
00000000
00000023
00000000
00000000
,
00000000
00000230
00000000
00000000
,
00000320
00000000
00000000
00002030
,
00000000
00000000
00023000
00000000
,
00000000
00230000
00000000
00000000
,
00000000
02300000
00000000
00000000
,
03020000
00000000
00000000
00230000
,
00000000
01300000
00000000
10000000
,
00000000
00020000
00000000
00000000
,
00000000
02030000
00000000
00000000
,
23000000
00000000
00000000
32000000
,
00000000
00000000
03200000
00000000
,
00000000
02300000
00000000
00000000
,
00000000
03002000
00000000
00000000
,
00023000
00000000
00000000
00030200
,
00000000
00000000
00000302
00000000
,
00000000
00000203
00000000
00000000
,
00000000
00002300
00000000
00000000
,
00003020
00000000
00000000
00000032
,
00000000
00000000
00000023
00000000
,
00000000
00000230
00000000
00000000
,
00000000
00002300
00000000
00000000
,
00023000
00000000
00000000
00032000
,
00000000
00000000
00023000
00000000
,
00000000
00032000
00000000
00000000
,
00000000
00003000
00000000
00000000
;

//---------------dance-double - ----------------
#NOTEDATA:;
#CHARTNAME:;
#CHARTHASH:349552021;
#STEPSTYPE:dance-double;
#BANNER:;
#DESCRIPTION:;
#CHARTSTYLE:;
#DIFFICULTY:Medium;
#METER:16;
#METERF:0.000000;
#LASTSECONDHINT:117.999001;
#RADARVALUES:0.752951,0.789667,0.157457,0.837007,0.000000,636.000000,617.000000,19.000000,101.000000,0.000000,0.000000,0.000000,0.000000,0.000000,0.752951,0.789667,0.157457,0.837007,0.000000,636.000000,617.000000,19.000000,101.000000,0.000000,0.000000,0.000000,0.000000,0.000000;
#CREDIT:YOSEFU;
#NOTES:
00000000
00000000
00000000
00000000
,
00000000
00000000
00000000
00000000
,
00000000
00000000
00000000
00000000
,
00000000
00000000
00000000
00000000
,
00000000
00000000
00000000
00000000
,
00000000
00000000
00000000
00000000
,
00000000
00000000
00000000
00000000
,
00000000
00000000
00000000
00000000
,
00000000
00000000
00000000
00000000
,
00022000
00000000
00033000
00000000
00001000
00000000
00000000
00001000
,
01000000
00000000
00000000
01000000
00100000
00000000
20200000
00000000
,
30300000
00000000
10100000
00000000
10000000
00000000
00000000
10000000
,
01000000
00200000
00000000
00301000
,
00010000
00010000
00000100
00000100
,
00000010
00000010
00000001
00002002
,
00000000
00003003
00000002
00000103
,
00000010
00000100
00000001
00000010
,
00000100
00020000
00031000
02000000
,
03100000
00010000
00100000
02000000
,
03010000
00100000
02000000
13000000
,
00010000
01000000
00100000
10000000
,
00010000
00200000
01300000
00020000
,
00031000
00010000
00000100
00001000
,
00000010
00000100
00000002
00001003
,
00000100
00000010
00000001
00000100
,
00000010
00020000
00031000
00000020
,
00001030
00010000
00001000
02000000
,
03100000
10000000
02000000
03100000
,
00010000
00000000
01000000
00000000
00100000
10000000
00100000
00000000
,
01000000
00020000
00030000
01010000
,
01000000
00010000
20020000
00000000
,
00030000
30000000
00020000
10030000
,
01000000
00010000
00001000
00000100
,
00000010
00000200
00000301
00002000
,
00003100
00000010
00001000
00000010
,
00000002
00000103
00000020
00010030
,
00001000
00000100
00000010
00000100
,
00000001
00000020
00000130
00002000
,
00003010
00000100
00001000
00010000
,
00100000
01000000
00020000
00130000
,
01000000
10000000
00100000
01000000
,
00010000
20000000
31000000
00200000
,
01300000
00010000
00001000
00000100
,
00000002
00000013
00000200
00001300
,
00000010
00000100
00000001
00001000
,
00000100
00000020
00000031
00000200
,
00001300
00000000
00010000
00000000
00001000
00010000
00001000
00000000
,
01000000
00010000
01010000
00010000
,
00100000
01000000
10000000
00200000
,
00320000
00032000
00003010
00000002
,
00000103
00001000
00010000
00002000
,
00003200
00000302
00000023
00001030
,
00010000
00001000
00000010
00002000
,
00023000
00230000
01300000
00020000
,
00130000
01000000
10000000
00100000
,
00010000
00001000
00020000
01030000
,
10000000
00100000
00010000
00002000
,
00003200
00000320
00000130
00000001
,
00000010
00000100
00001000
00000020
,
00000230
00000302
00002003
00003100
,
00000010
00000100
00000001
00000200
,
00001300
00001100
00000000
00002200
,
00003000
00000300
00000000
00000000
,
00011000
00001000
00100000
00010000
,
01000000
00100000
10000000
00020000
,
10030000
02000000
03100000
01000000
,
10000000
00200000
01300000
00100000
,
00020000
00031000
00010000
00000100
,
00000010
00000001
00000100
00000020
,
00001030
00000020
00000031
00000010
,
00001000
00000100
00000010
00001000
,
00020000
00031000
01000000
00100000
,
00010000
00100000
01000000
00020000
,
00130000
02000000
13000000
00100000
,
01000000
00020000
10030000
01000000
,
00100000
10000000
00100000
00010000
,
01000000
00100000
00010000
00001000
,
00000100
00000010
00000001
00000010
,
00001000
00000100
00000010
00000001
,
00001001
00000000
00001000
00000010
,
00000000
00000010
00000100
00000000
00000000
00000100
00000001
00000000
,
00001000
00000100
00000001
00000100
,
00001000
00000001
00000100
00000010
,
00010000
00000000
00001000
00100000
,
00000000
00100000
01000000
00000000
00000000
01000000
10000000
00000000
,
00100000
00010000
00100000
10000000
,
01000000
00100000
00001000
01000000
,
00010000
00000000
01000000
00100000
,
00000000
00100000
10000000
00000000
00000000
10000000
01000000
00000000
,
00100000
10000000
00100000
00001000
,
00010000
00000010
00000100
00000010
,
00001000
00000000
00000100
00000010
,
00000000
00000010
00000001
00000000
00000000
00000001
00000100
00000000
,
00000010
00000010
00010000
00010000
,
00001000
00001000
00100000
00100000
,
01000000
00000000
00100000
10000000
,
00000000
10000000
01000000
00000000
00000000
01000000
00100000
00000000
,
00001000
00010000
00100000
00010000
,
00001000
00000010
00000100
00001000
,
00000001
00000000
00000100
00000010
,
00000000
00000010
00010000
00000000
00000000
00010000
00001000
00000000
,
00100000
00100000
01000000
01000000
,
10000000
10000000
00010000
00010000
,
01000000
00000000
00100000
10000000
,
00000000
10000000
01000000
00000000
00000000
01000000
00010000
00000000
,
00001000
00000010
00000001
00000100
,
00001000
00010000
00001000
00000010
,
00000001
00000001
00000100
00000100
,
00001000
00000000
00001000
00000000
00010000
00000000
00010000
00001000
,
00020000
00000000
00030000
00022000
,
00033000
00000000
00001000
00000000
00000000
00001000
01000000
00000000
,
00000000
01000000
00100000
00000000
20000000
00000000
00000000
00000000
,
30010000
00000000
00100000
00000000
00000000
00100000
01000000
00000000
,
10000000
00000000
00100000
02200000
,
03300000
00000000
01000000
00000000
00000000
01000000
00001000
00000000
,
00000000
00001000
00010000
00000000
00000200
00000000
00000000
00000000
,
00001300
00000000
00000010
00000000
00000000
00000010
00000100
00000000
,
00000002
00000000
00000013
00000220
,
00000330
00000000
00000100
00000000
00000000
00001000
00000010
00000000
,
00000000
00000010
00010000
00000000
00022000
00000000
00033000
00000000
,
00011000
00000000
00001000
00000000
00000000
00001000
00100000
00000000
,
02000000
00000000
13000000
00010000
,
00010000
01000000
01000000
00100000
,
00100000
10000000
10010000
00000000
,
00010000
00000000
00100000
00000000
00000000
00100000
01000000
00000000
,
20000000
00000000
00000000
30000000
00000000
00000000
10100000
00000000
,
00100000
01000000
00100000
10000000
,
01000000
00100000
00002000
00013000
,
00000020
00000130
00001000
00000100
,
00000020
00001030
00000100
00000020
,
00000031
00001000
00000010
00000100
,
00000001
00001000
00000200
00000310
,
00002000
00013000
00001000
00100000
,
00010000
01000000
00100000
20000000
,
30010000
00100000
01000000
10000000
,
00100000
01000000
00002000
00013000
,
02000000
03010000
00001000
00010000
,
00000020
00000130
00000001
00000020
,
00000130
00000000
00001000
00000000
00000010
00000000
00000100
00000001
,
00000100
00000010
00001010
00000000
,
00001000
00000000
00000010
00000000
00010000
00001000
00020000
00000000
,
00030000
00001000
00010000
00100000
,
00010000
00001000
00000010
00001000
,
00010000
00100000
00010000
00001000
,
00000010
00000000
00001000
00000000
00010000
00000000
00100000
01000000
,
00000000
01000000
00010000
00000000
00100000
00000000
01000000
00000000
,
10000000
01000000
00100000
00010000
,
00100000
01000000
10000000
01000000
,
00100000
00010000
10000000
00100000
,
01000000
00001000
00010000
01000000
,
00010000
00001000
00000100
00001000
,
00010000
01000000
00010000
00001000
,
00000100
00000000
00000010
00000000
00001000
00000000
00000100
00000010
,
00000000
00000010
00000001
00000000
00000010
00000000
00000100
00000000
,
00001000
00000100
00000010
00000001
,
00000010
00000100
00001000
00000001
,
00001000
00000010
00002000
00000000
00000000
00000000
00000000
00000000
,
00000000
00003100
00000010
00001000
,
00010000
00100000
01000000
00100000
,
00010000
00001000
00000010
00000100
,
00000010
00000000
00001000
00000000
00010000
00000000
00100000
01000000
,
00000000
01000000
00010000
00000000
00100000
00000000
01000000
00000000
,
10000000
00100000
01000000
00010000
,
10000000
01000000
00100000
00010000
,
01000000
00100000
10000000
00100000
,
00010000
00001000
00000010
00000001
,
00000100
00001000
00010000
00100000
,
10000000
01000000
00010000
00001000
,
00000010
00000000
00000001
00001000
00000001
00000000
00001000
00000001
,
00001000
00000002
00000000
00000000
,
00002003
00000000
00000000
00003002
,
00000000
00000000
00002003
00000000
,
00000000
00003020
00000000
00000000
,
00000000
00000030
00000000
00000000
;

//---------------dance-double - ----------------
#NOTEDATA:;
#CHARTNAME:;
#CHARTHASH:2193674241;
#STEPSTYPE:dance-double;
#BANNER:;
#DESCRIPTION:;
#CHARTSTYLE:;
#DIFFICULTY:Hard;
#METER:18;
#METERF:0.000000;
#LASTSECONDHINT:117.999001;
#RADARVALUES:0.967235,1.076818,0.497232,1.044187,0.012431,817.000000,757.000000,60.000000,126.000000,0.000000,0.000000,0.000000,0.000000,0.000000,0.967235,1.076818,0.497232,1.044187,0.012431,817.000000,757.000000,60.000000,126.000000,0.000000,0.000000,0.000000,0.000000,0.000000;
#CREDIT:YOSEFU;
#NOTES:
00000000
00000000
00000000
00000000
,
00000000
00000000
00000000
00000000
,
00000000
00000000
00000000
00000000
,
00000000
00000000
00000000
00000000
,
00000000
00000000
00000000
00000000
,
00000000
00000000
00000000
00000000
,
00000000
00000000
00000000
00000000
,
00000000
00000000
00000000
00000000
,
00000000
00000000
00000000
00000000
,
00022000
00000000
00033000
00000000
00010000
00000000
00001000
00100000
,
01000000
00000000
10000000
00010000
01000000
00000000
02020000
00000000
,
03030000
00000000
01010000
00000000
00010000
00000000
00100000
01000000
,
10000000
00200000
00000000
01300000
,
01010000
00010000
01000000
00001000
,
00010000
00000100
00000010
00000022
,
00000000
00000000
00000000
00000000
00000000
00000000
00000000
00000000
00000000
00000033
00000000
00000000
00000000
00000000
00000000
00000000
00001001
00000000
00000000
00000000
00000000
00000000
00000000
00000000
00001000
00000000
00000000
00000000
00000000
00000000
00000000
00000000
,
00000100
00000000
00000010
00000100
00010000
00000000
00001000
01000000
,
00010000
20000000
00000000
30020000
,
01030000
00000000
00100000
10000000
00010000
00000000
00200000
00000000
,
00000000
01300000
20000000
00000000
,
30100000
00000000
01000000
00001000
00010000
00000000
00000100
00000010
,
00000001
00000200
00000000
00000320
,
00001030
00000000
00000001
00000010
00000100
00000000
00010000
00001000
,
01000000
00010000
00100000
00000000
02000000
00000000
00000000
00000000
,
13000000
00000000
00100000
01000000
00001000
00000000
00010000
00000100
,
00001000
00000200
00000000
00000320
,
00000031
00000000
00001000
00000010
00000100
00000000
00000002
00000000
,
00000000
00000000
00000013
00000100
00001000
00000000
00001100
00000000
,
00010000
00000000
00011000
00000000
00001000
01000000
00100000
01000000
,
00001000
02002000
03003000
01010000
,
00010000
00100000
01000000
00000000
22000000
00000000
00000000
00000000
,
30000000
03000000
20000000
30010000
,
01000000
00000000
00100000
10000000
00010000
10000000
00100000
10000000
,
00010000
00200000
00310000
20000000
,
30100000
00000000
01000000
00010000
10000000
00010000
01000000
00010000
,
00200000
01300000
20000000
30010000
,
01000000
00000000
00001000
00010000
00000100
00010000
00001000
00010000
,
00000100
00000020
00000031
00000200
,
00000310
00000000
00001000
00000010
00010000
00000010
00001000
00000010
,
00020000
00031000
00200000
01300000
,
10000000
00000000
00010000
01000000
00100000
01000000
00010000
01000000
,
00001000
00020000
00030100
00000020
,
00000130
00000000
00001000
00000001
00000100
00000001
00001000
00000001
,
00000020
00000130
00020000
00031000
,
01000000
00000000
00010000
10000000
00100000
10000000
00010000
10000000
,
00100000
02000000
03001000
00020000
,
00030100
00000000
00000010
00000001
00001000
00000001
00000100
00000010
,
00002000
00003100
00020000
00031000
,
01000000
00000000
00100000
00010000
00001000
00010000
00200000
00000000
,
02300000
03020000
10030000
02000000
,
03100000
00000000
01000000
10000000
00100000
10000000
02000000
00000000
,
03200000
00320000
02030000
03100000
,
00010000
00000000
00001000
00000010
00000100
00000010
00002000
00000000
,
00003020
00000032
00000103
00000010
,
00001000
00000000
00000100
00001000
00000010
00001000
00000200
00000000
,
00000320
00000032
00000203
00000310
,
00000100
00000000
00001000
00010000
00000100
00010000
00002000
00000000
,
00003020
00002030
00013000
00200000
,
01300000
00000000
00010000
00100000
00010000
01000000
00100000
00000000
,
00010000
00001000
00000010
00000001
,
00000100
00000000
00000010
00000000
00000001
00000010
00000100
00000001
,
00001000
00000000
00000000
00000000
00000000
00000000
00000000
00000000
00002002
00000000
00000000
00000000
00000000
00000000
00000000
00000000
00003003
00000000
00000000
00000000
00000000
00000000
00000000
00000000
00002002
00003003
00000000
00000000
00000000
00000000
00000000
00000000
,
00000020
00000230
00000000
00000300
,
00001001
00000000
00000001
00000000
00000100
00000000
00000010
00001000
,
00000100
00000000
00010000
00001000
01000000
00000000
00200000
00000000
,
10300000
00000000
00020000
00000000
00130000
00000000
01000000
10000000
,
00010000
02000000
03100000
10000000
,
00020000
00000000
01030000
00000000
00100000
00000000
01000000
00001000
,
00010000
00000000
00000100
00000010
00000001
00000000
00000200
00000000
,
00000310
00000000
00001000
00000100
00000010
00000000
00000010
00000001
,
00000100
00000000
00000100
00001000
00010000
00000000
00002000
00000000
,
00203000
00000000
01300000
00000000
10000000
00000000
00100000
01000000
,
00010000
00000000
01000000
00001000
00010000
00000000
00000200
00000000
,
00001300
00000000
00000001
00000000
00000100
00000000
00000010
00001000
,
00000100
00000000
00000020
00000000
00000031
00000100
00000020
00000000
,
00001030
00000000
00001000
00000100
00000010
00000000
00000010
00000001
,
00000100
00000000
00000100
00001000
00010000
00000000
00010000
01000000
,
00100000
00000000
00100000
00010000
01000000
00000000
01000000
00100000
,
00010000
00000000
00010000
00100000
10000000
00000000
00010000
00000000
,
10010000
00000000
10000000
00000000
01000000
00100000
00010000
00000000
,
10000000
00000000
00100000
00000000
01000000
00000000
00001000
00010000
,
00000100
00000000
00001000
00000000
00000001
00000100
00000010
00000000
,
00001000
00000200
00000320
00000032
,
00000203
00000000
00000310
00000000
00001000
00000001
00000010
00000000
,
00000100
00000000
00010000
00000000
00001000
00000000
01000000
00100000
,
00010000
00000000
00001000
00000000
00010000
00100000
01000000
00000000
,
00100000
01000000
00020000
00000000
00230000
00000000
02300000
00000000
,
23000000
00000000
30010000
00000000
01000000
00100000
10000000
00000000
,
00010000
00000000
00100000
00000000
01000000
00000000
00100000
00001000
,
00010000
00000000
00000010
00000000
00001000
00000001
00000100
00000000
,
00000010
00002000
00003200
00000320
,
00000032
00000000
00000103
00000000
00000010
00001000
00000001
00000000
,
00000010
00000000
00000100
00000000
00010000
00000000
00001000
00000010
,
00000100
00001100
00000001
00000101
,
00000100
00000001
00000010
00000001
00000100
00001000
00020000
00000000
,
00032000
00000000
00103000
00000000
01000000
10000000
00010000
00000000
,
01000000
00000000
00100000
00000000
10000000
00000000
00010000
00100000
,
01000000
00000000
00100000
00000000
00001000
00010000
00000010
00000000
,
00001000
00000020
00000230
00000302
,
00000023
00000000
00001030
00000000
00010000
00100000
01000000
00000000
,
00010000
00000000
10000000
00000000
01000000
00000000
00100000
00010000
,
01000000
01010000
10000000
11000000
,
01000000
10000000
00100000
10000000
01000000
00010000
00002000
00000000
,
00023000
00000000
00030010
00000000
00000100
00000001
00001000
00000000
,
00000100
00000000
00000010
00000000
00000001
00000000
00000100
00000010
,
00010000
00000000
00001000
00000000
00100000
01000000
10000000
00000000
,
00100000
01000000
00010000
00100000
,
01000000
11000000
00010000
10010000
,
10000000
00000000
11000000
00000000
00010000
00000000
01000000
00001000
,
00020000
00000000
00000000
00000000
00000000
00000000
00000000
00000000
00000000
00000000
00000000
00000000
00000000
00000000
00000000
00000000
00000000
00030000
00000000
00000000
00000000
00000000
00000000
00000000
00022000
00000000
00000000
00000000
00000000
00000000
00000000
00000000
,
00033000
00000000
00001000
00000000
00010000
00000010
00001000
00000000
,
00000001
00001000
00000100
00000000
00000020
00000000
00000000
00000000
,
00000032
00000000
00000103
00000000
00000010
00001000
00000001
00000000
,
00000020
00000000
00000130
00020000
,
00000000
00000000
00031000
00000000
01000000
00010000
10000000
00000000
,
01000000
00100000
00010000
00000000
20000000
00000000
00000000
00000000
,
30200000
00000000
01300000
00000000
00010000
10000000
01000000
00000000
,
00200000
00000000
00301000
00022000
,
00033000
00000000
00010000
00000000
00000010
00001000
00000001
00000000
,
00000010
00000100
00001000
00000000
00002200
00000000
00003300
00000000
,
00001100
00000000
00000100
00000000
00001000
00000001
00000100
00000000
,
00000020
00000000
00010030
00001000
,
00011000
00100000
01100000
10000000
,
10010000
00100000
02200000
03300000
,
10000000
00000000
00100000
00000000
01000000
00010000
10000000
00000000
,
02000000
00000000
00000000
03000000
00000000
00000000
10010000
00000000
,
10000000
00000000
00100000
00000000
01000000
00010000
00100000
00000000
,
00001000
00010000
00000010
00000000
00000200
00000000
00000301
00000000
,
00002000
00000000
00003100
00000000
00000010
00000001
00001000
00000000
,
00000020
00000130
00000001
00002000
,
00003010
00000000
00000100
00000000
00000010
00010000
00001000
00000000
,
00100000
01000000
10000000
00000000
00200000
00000000
01300000
00000000
,
00010000
00100000
01000000
00000000
10000000
00010000
01000000
00000000
,
00100000
00010000
00001000
00000000
00020000
00000000
00030200
00000000
,
00000310
00000000
00000001
00000000
00000100
00000010
00001000
00000000
,
00000010
00010000
00001000
00000000
00200000
00000000
00310000
00000000
,
10000000
00000000
00100000
00000000
01000000
00010000
00100000
00000000
,
02000000
13000000
00010000
01010000
,
01000000
00001000
00010000
00000000
00010100
00000000
00000100
00000010
,
00000001
00000000
00001000
00000000
00001010
00000000
00000010
00001000
,
00000100
00001000
00000010
00000100
00001000
00010000
01000000
00000000
,
00000000
11000000
10000000
00010000
,
01010000
00001000
00010000
00010100
,
00000100
00000010
00000011
00001000
,
00000010
00000000
00000110
00000000
00000100
00000000
00000001
00000010
,
00000000
00001000
00000010
00000000
00000001
00000000
00000100
00000000
,
00000110
00001000
00000010
00010010
,
00010000
00001000
00100000
00000000
00110000
00000000
00010000
00000000
,
10000000
00000000
10100000
00000000
00100000
01000000
00010000
00100000
,
01000000
10000000
00010000
00000000
01000000
00000000
00100000
00000000
,
10010000
10000000
01000000
00110000
,
00001000
00010000
00010010
00000010
,
00000100
00000000
00001001
00000000
00000001
00000000
00001000
00000100
,
00000000
00000001
00000100
00000000
00001000
00000000
00000010
00000000
,
00000101
00000001
00000010
00001100
,
00010000
00000000
00001000
00010000
00100000
10000000
01000000
00010000
,
00001000
00010000
02000000
00000000
00000000
00000000
00000000
00000000
,
00000000
13000000
00100000
01000000
,
01001000
00001000
00010000
00010100
,
00000100
00000010
00001001
00000001
,
00000100
00000000
00001010
00000000
00001000
00000000
00000100
00000001
,
00000000
00000100
00010000
00000000
00001000
00000000
01000000
00000000
,
01100000
00010000
00100000
11000000
,
00010000
01000000
00100000
00000000
10010000
00000000
10000000
00000000
,
01000000
00000000
01100000
00000000
00010000
01000000
00100000
10000000
,
01000000
00100000
00001000
00000000
00010000
00000000
00000100
00000000
,
00001100
00000001
00000100
00001010
,
00000001
00000010
00001100
00000001
,
00000100
00000000
00001000
00000100
00000001
00000010
00001000
00010000
,
00000010
00000100
00002000
00000000
00000000
00000000
00000000
00000000
,
00023000
00000000
00000000
00032000
,
00000000
00000000
00023000
00000000
,
00000000
00032000
00000000
00000000
,
00000000
00003000
00000000
00000000
;
