#VERSION:0.83;
#TITLE:Key of timepieces;
#SUBTITLE:;
#ARTIST:かめりあ;
#TITLETRANSLIT:;
#SUBTITLETRANSLIT:;
#ARTISTTRANSLIT:Camellia;
#GENRE:Drum n Bass;
#ORIGIN:Cyphisonia E.P. [CTCD-014];
#TAGS:;
#CREDIT:;
#BANNER:Key of timepieces.png;
#BACKGROUND:Key of timepieces-bg.png;
#PREVIEWVID:;
#JACKET:Key of timepieces-jacket.png;
#CDIMAGE:;
#DISCIMAGE:;
#LYRICSPATH:;
#CDTITLE:../_YSD cdtitles/ysd sum mem cdtitle.png;
#MUSIC:Key of timepieces.ogg;
#OFFSET:0.000000;
#SAMPLESTART:44.138000;
#SAMPLELENGTH:22.069000;
#SELECTABLE:YES;
#BPMS:0.000000=174.000000
;
#STOPS:;
#DELAYS:;
#WARPS:;
#TIMESIGNATURES:0.000000=4=4
;
#TICKCOUNTS:0.000000=4
;
#COMBOS:0.000000=1
;
#SPEEDS:0.000000=1.000000=0.000000=0
;
#SCROLLS:0.000000=1.000000
,120.000000=0.000000
,120.500000=0.071429
,121.000000=0.142857
,121.500000=0.214286
,122.000000=0.285714
,122.500000=0.357143
,123.000000=0.428571
,123.500000=0.500000
,124.000000=0.571429
,124.500000=0.642857
,125.000000=0.714286
,125.500000=0.785714
,126.000000=0.857143
,126.500000=0.928571
,127.000000=1.000000
,224.000000=0.000000
,224.291672=0.100000
,224.604172=0.200000
,224.895828=0.300000
,225.208328=0.400000
,225.500000=0.500000
,225.791672=0.600000
,226.104172=0.700000
,226.395828=0.800000
,226.708328=0.900000
,227.000000=1.000000
,380.000000=0.000000
,380.250000=0.100000
,380.500000=0.200000
,380.750000=0.300000
,381.000000=0.400000
,381.250000=0.500000
,381.500000=0.600000
,381.750000=0.700000
,382.000000=0.800000
,382.250000=0.900000
,382.500000=1.000000
,382.750000=1.100000
,383.000000=1.200000
,383.250000=1.300000
,383.500000=1.400000
,383.750000=1.500000
;
#FAKES:;
#LABELS:0.000000=Song Start
;
#BGCHANGES:;
#KEYSOUNDS:;
#ATTACKS:
;

//---------------dance-single - ----------------
#NOTEDATA:;
#CHARTNAME:;
#CHARTHASH:1378552897;
#STEPSTYPE:dance-single;
#BANNER:;
#DESCRIPTION:;
#CHARTSTYLE:;
#DIFFICULTY:Beginner;
#METER:3;
#METERF:3.000000;
#LASTSECONDHINT:88.275856;
#RADARVALUES:0.094325,0.142441,0.066769,0.014838,0.000000,89.000000,80.000000,9.000000,2.000000,0.000000,0.000000,0.000000,0.000000,0.000000,0.094325,0.142441,0.066769,0.014838,0.000000,89.000000,80.000000,9.000000,2.000000,0.000000,0.000000,0.000000,0.000000,0.000000;
#CREDIT:YOSEFU;
#NOTES:
// measure 0
0000
0000
0000
0000
,  // measure 1
0000
0000
0000
0000
,  // measure 2
0000
0000
0000
0000
,  // measure 3
0000
0000
0000
0000
,  // measure 4
0000
0000
0000
0000
,  // measure 5
0000
0000
0000
0000
,  // measure 6
0000
0000
0000
0000
,  // measure 7
0000
0000
0000
0000
,  // measure 8
1000
0000
0000
0000
,  // measure 9
0001
0000
0000
0000
,  // measure 10
0100
0000
0000
0000
,  // measure 11
0010
0000
0000
0000
,  // measure 12
1000
0000
0000
0000
,  // measure 13
0001
0000
0000
0000
,  // measure 14
0010
0000
0000
0000
,  // measure 15
0100
0000
0000
0000
,  // measure 16
1001
0000
0000
0000
,  // measure 17
1000
0000
0000
0000
,  // measure 18
0001
0000
0000
0000
,  // measure 19
0100
0000
0000
0000
,  // measure 20
0010
0000
0000
0000
,  // measure 21
1000
0000
0000
0000
,  // measure 22
0100
0000
0000
0000
,  // measure 23
0010
0000
0000
0000
,  // measure 24
0001
0000
0000
0000
,  // measure 25
0100
0000
0000
0000
,  // measure 26
0010
0000
0000
0000
,  // measure 27
1000
0000
0000
0000
,  // measure 28
0001
0000
0000
0000
,  // measure 29
0010
0000
0000
0000
,  // measure 30
0200
0000
0000
0000
,  // measure 31
0000
0000
0300
0000
,  // measure 32
1001
0000
0001
0000
,  // measure 33
0001
0000
0001
0000
,  // measure 34
0000
0000
1000
0000
,  // measure 35
1000
0000
1000
0000
,  // measure 36
1001
0000
0010
0000
,  // measure 37
0010
0000
0010
0000
,  // measure 38
0000
0000
0100
0000
,  // measure 39
0100
0000
0100
0000
,  // measure 40
0110
0000
0001
0000
,  // measure 41
0001
0000
0001
0000
,  // measure 42
0000
0000
0100
0000
,  // measure 43
0100
0000
0100
0000
,  // measure 44
1001
0000
0000
0001
,  // measure 45
0000
0000
0010
0000
,  // measure 46
0100
0000
0100
0000
,  // measure 47
0000
0000
1000
0000
,  // measure 48
1001
0000
0001
0000
,  // measure 49
0001
0000
0001
0000
,  // measure 50
0000
0000
0100
0000
,  // measure 51
0100
0000
0100
0000
,  // measure 52
1001
0000
0010
0000
,  // measure 53
0010
0000
0010
0000
,  // measure 54
0000
1000
0000
1000
,  // measure 55
0000
1000
0000
1000
,  // measure 56
0200
0000
0000
0300
,  // measure 57
0000
0000
0010
0000
,  // measure 58
0010
0000
0001
0000
,  // measure 59
0100
0000
0100
0000
,  // measure 60
0110
0000
0010
0010
,  // measure 61
0000
0000
1000
1000
,  // measure 62
0000
0100
0000
0100
,  // measure 63
0000
0010
0000
0000
,  // measure 64
1001
0000
0000
0000
;

//---------------dance-single - ----------------
#NOTEDATA:;
#CHARTNAME:;
#CHARTHASH:11614846;
#STEPSTYPE:dance-single;
#BANNER:;
#DESCRIPTION:;
#CHARTSTYLE:;
#DIFFICULTY:Easy;
#METER:7;
#METERF:7.000000;
#LASTSECONDHINT:132.413788;
#RADARVALUES:0.285093,0.462932,0.267076,0.044513,0.000000,269.000000,233.000000,36.000000,6.000000,0.000000,0.000000,0.000000,0.000000,0.000000,0.285093,0.462932,0.267076,0.044513,0.000000,269.000000,233.000000,36.000000,6.000000,0.000000,0.000000,0.000000,0.000000,0.000000;
#CREDIT:YOSEFU;
#NOTES:
0000
0000
0000
0000
,
0000
0000
0000
0000
,
0000
0000
0000
0000
,
0000
0000
0000
0000
,
0000
0000
0000
0000
,
0000
0000
0000
0000
,
0000
0000
0000
0000
,
0000
0000
0000
0000
,
1000
0000
0001
0000
,
0100
0000
0001
0000
,
1000
0000
0100
0000
,
0010
0000
0100
0000
,
1000
0000
0001
0000
,
0100
0000
0010
0000
,
0100
0000
0001
0000
,
1000
0000
0100
0000
,
0110
0010
0010
0000
,
0001
0001
0001
0000
,
1000
1000
1000
0000
,
0010
0010
0010
0000
,
0100
0100
0100
0000
,
0001
0001
0001
0000
,
1000
1000
1000
0000
,
0100
0010
0100
0010
,
0001
0011
0000
1001
,
1000
1010
0000
0101
,
0001
1001
0000
1100
,
1000
1010
0000
1001
,
0001
0011
0001
1001
,
1000
1010
1000
0001
,
2002
0000
0000
0000
,
0000
0000
0000
3003
,
1000
0100
1000
0000
,
0001
0100
0001
0000
,
1000
0100
0010
0000
,
0100
1000
0001
0100
,
0110
0010
1000
0000
,
0001
0010
0100
0000
,
0010
0001
1000
0010
,
0001
0010
0100
0001
,
1001
1000
0100
0000
,
0010
0001
1000
0000
,
0010
0100
1000
0000
,
0100
0001
1000
0000
,
1100
0000
0100
0110
,
0000
0001
1001
0000
,
1000
0000
1010
0010
,
0000
0000
0110
0000
,
1001
0001
0010
0000
,
0100
1000
0001
0000
,
0100
0000
0000
0101
0000
0000
0001
0000
,
0000
1001
1000
0100
,
0010
0001
1000
0000
,
0010
0100
0001
0000
,
1000
0100
0001
0100
,
1000
0010
0001
0010
,
0220
0000
0000
0330
,
0000
0000
1000
0001
,
0010
1000
0010
0100
,
1000
0001
1000
0000
,
1010
0010
0001
0010
,
0200
0301
0010
1000
,
0010
0001
0100
0010
,
0001
0010
0110
1001
,
1100
0100
0000
1100
,
0000
1000
0000
1001
,
0000
0001
0000
0101
,
0000
0010
0000
1010
,
0000
1000
0000
1001
,
0000
0001
0000
0011
,
0000
0100
0000
1001
,
0000
0010
0000
0101
,
0000
0001
0000
1000
,
0000
0100
0000
1000
,
0000
0010
0000
0100
,
0000
1000
0000
0100
,
0000
0001
0000
0010
,
0000
1000
0000
0010
,
0000
0100
0000
1000
,
0000
0001
0000
0100
,
0001
0000
1000
0000
,
0100
0000
1000
0001
,
1000
0000
0001
0000
,
0100
0000
0010
1000
,
0010
0000
0100
0000
,
0001
0000
1000
0100
,
1000
0000
0001
0000
,
0010
0000
0100
1000
,
0100
0000
0010
0000
,
1000
0000
0010
0001
,
1000
0000
0001
0000
,
0100
0000
0010
0001
,
0010
0000
1000
0000
,
0100
0000
0010
1000
,
0010
0000
0001
0000
,
0200
0000
0000
0000
,
0300
0000
0000
0000
;

//---------------dance-single - ----------------
#NOTEDATA:;
#CHARTNAME:;
#CHARTHASH:2447831107;
#STEPSTYPE:dance-single;
#BANNER:;
#DESCRIPTION:;
#CHARTSTYLE:;
#DIFFICULTY:Medium;
#METER:11;
#METERF:11.000000;
#LASTSECONDHINT:132.413788;
#RADARVALUES:0.456785,0.605373,0.356102,0.103863,0.033385,431.000000,383.000000,48.000000,14.000000,0.000000,0.000000,0.000000,0.000000,0.000000,0.456785,0.605373,0.356102,0.103863,0.033385,431.000000,383.000000,48.000000,14.000000,0.000000,0.000000,0.000000,0.000000,0.000000;
#CREDIT:YOSEFU;
#NOTES:
0000
0000
0000
0000
,
0000
0000
0000
0000
,
0000
0000
0000
0000
,
0000
0000
0000
0000
,
0000
0000
0000
0000
,
0000
0000
0000
0000
,
0000
0000
0000
0000
,
0000
0000
0000
0000
,
1000
0000
0001
0000
0000
0100
0001
0000
,
0000
1000
0100
0000
0000
1000
0001
0000
,
0100
0000
0010
0000
0000
1000
0010
0000
,
0000
1000
0001
0000
0000
0010
0100
0000
,
1000
0000
0100
0000
0000
0010
0001
0000
,
0000
1000
0010
0000
0000
0100
0010
0000
,
1000
0000
0001
0000
0000
0010
0100
0000
,
0000
1000
0100
0010
0000
0001
0000
1000
,
0010
0100
0010
1000
,
0010
0000
0100
0001
0000
0010
0000
0100
,
1000
0100
0010
0001
,
1000
0000
0001
0100
0000
0010
0000
0100
,
0001
1000
0100
0010
,
0001
0000
0010
0100
0000
1000
0000
0001
,
0100
0010
0100
0001
,
1000
0100
0010
0001
,
0010
0110
0100
1100
,
1000
1001
0001
0101
,
0100
0110
0001
1010
,
0001
1100
0010
1001
,
1000
0000
1100
0000
0000
0001
1001
0000
,
0000
1000
1010
0000
0000
0001
0011
0000
,
2002
0000
0000
0000
,
0000
0000
0000
0000
3003
0000
1000
0100
,
0110
0000
0010
0001
1000
0000
0010
0100
,
0001
0000
1000
0100
0010
0000
0200
0000
,
1300
0000
0001
0100
0010
0000
1000
0010
,
0100
0000
0001
0010
0100
0000
1000
0000
,
1010
0000
0010
1000
0001
0000
0010
0001
,
1000
0000
0010
1000
0100
0000
0020
0000
,
0031
0000
0010
0000
0000
0001
0010
0000
,
0000
0100
1000
0000
0000
0001
0100
0000
,
0110
0000
0010
1000
0001
0000
0010
0100
,
1000
0000
0100
0010
0001
0000
2000
0000
,
3010
0000
0001
0010
1000
0000
0001
0010
,
1000
0000
0010
0100
1000
0000
0001
0000
,
0101
0000
0000
0100
0100
0010
1000
0000
,
0000
0001
0000
0010
0100
1000
0010
0000
,
0200
0000
0300
0001
0010
0001
0200
0000
,
0000
0000
0001
0000
0000
0001
0000
0000
0310
0000
0100
0000
0000
0001
0000
0000
,
1001
0000
1000
0100
0010
0000
0100
1000
,
0010
0000
0100
0001
0010
0100
2000
0000
,
3001
0000
0000
1010
0000
0010
0110
0000
,
0000
1000
1010
0000
0000
0001
0101
0000
,
0100
0000
0001
1000
0100
0000
0010
0001
,
0100
0000
0010
1000
0001
0000
2000
0000
,
3100
0000
0000
1000
0100
0010
0001
0100
0000
0001
0010
0100
,
0001
0000
0100
0100
1000
1000
0001
0000
,
0202
0000
0303
1001
,
0000
1000
1100
0000
0100
0000
2000
0000
,
3001
0000
0000
0101
0000
0100
0110
0000
,
0000
0001
1001
0000
0000
1000
1100
0000
,
0100
0000
1000
0010
0001
0010
0100
0001
,
2000
0000
3001
0010
1000
0010
0100
1000
,
0001
1000
0100
0001
0000
0100
1000
0001
,
0000
0000
0100
0000
1000
0000
0100
0000
0000
0001
1000
0000
0000
0001
1000
0000
,
1001
0000
0011
0000
0000
0010
0110
0000
,
0000
0100
1100
0000
0000
1000
1001
0000
,
0001
0000
0101
0000
0000
0100
0110
0000
,
0000
0010
1010
0000
0000
1000
1001
0000
,
0001
0000
0011
0000
0000
0010
0110
0000
,
0000
0100
1100
0000
0000
1000
1010
0000
,
0010
0000
1010
0000
0000
0001
0011
0000
,
0000
1000
1010
0000
0000
0001
0101
0000
,
0001
0000
1001
0000
0000
1000
0100
0000
,
0000
0010
0100
0000
0000
1000
0001
0000
,
0100
0000
0110
0000
0000
0010
1000
0000
,
0000
0001
0010
0000
0000
0100
1000
0000
,
0001
0000
0100
0000
0000
0001
1000
0000
,
0000
0001
0010
0000
0000
0001
1000
0000
,
0010
0000
0100
0000
0000
0010
1000
0000
,
0000
0001
0010
0000
0000
0100
1000
0000
,
0001
0000
0100
0000
0000
0001
0000
0000
,
1000
0000
0000
0100
0000
0010
0100
1000
,
0000
0000
0001
0000
0000
0100
0000
0000
,
0010
0000
0000
1000
0000
0010
0100
0010
,
0000
0000
1000
0000
0000
0001
0000
0000
,
0010
0000
0000
0100
0000
0001
0100
0010
,
0000
0000
0001
0000
0000
1000
0000
0000
,
0010
0000
0000
0100
0000
0010
1000
0100
,
0000
0000
0010
0000
0000
0100
0000
0000
,
0001
0000
0000
0100
0000
1000
0001
0100
,
0000
0000
0010
0000
0000
0001
0000
0000
,
0010
0000
0000
1000
0000
0001
0010
0100
,
0000
0000
1000
0000
0000
0100
0000
0000
,
0010
0000
0000
1000
0000
0010
0001
1000
,
0000
0000
0010
0000
0000
0100
0000
0000
,
0002
0000
0000
0000
,
0003
0000
0000
0000
;

//---------------dance-single - XMOD, FS, XO----------------
#NOTEDATA:;
#CHARTNAME:Lost to Time;
#CHARTHASH:2992466291;
#STEPSTYPE:dance-single;
#BANNER:;
#DESCRIPTION:XMOD, FS, XO;
#CHARTSTYLE:Pad Singles;
#DIFFICULTY:Hard;
#METER:15;
#METERF:15.000000;
#LASTSECONDHINT:132.413788;
#RADARVALUES:0.672990,0.890254,0.244820,0.526734,0.463674,635.000000,602.000000,33.000000,71.000000,0.000000,0.000000,0.000000,0.000000,0.000000,0.672990,0.890254,0.244820,0.526734,0.463674,635.000000,602.000000,33.000000,71.000000,0.000000,0.000000,0.000000,0.000000,0.000000;
#CREDIT:Yosefu (Timely);
#NOTES:
0000
0000
0000
0000
,
0000
0000
0000
0000
,
0000
0000
0000
0000
,
0000
0000
0000
0000
,
0000
0000
0000
0000
,
0000
0000
0000
0000
,
0000
0000
0000
0000
,
0000
0000
0000
0000
,
1000
0000
0001
0100
0000
0001
1000
0000
,
0100
0010
0000
0010
0000
0100
1000
0001
,
0000
0000
0100
0010
0000
1000
0100
0000
,
0001
0100
0000
0100
0000
1000
0001
0100
,
0000
0000
0010
1000
0000
0001
0010
0000
,
0100
1000
0000
1000
0000
0010
0100
0001
,
0000
0000
1000
0001
0000
1000
0010
0000
,
0001
0010
0000
0100
0000
0010
0000
1000
,
0001
0100
0010
1000
0001
0100
0010
1000
,
0001
0100
0010
1000
0001
0100
0010
1000
,
0001
0010
0100
1000
0001
0010
0100
1000
,
0001
0010
0100
1000
0001
0010
0100
1000
,
0001
0100
0010
0100
0001
1000
0100
1000
,
0001
0100
0010
0100
0001
1000
0100
1000
,
0001
0010
0100
0010
0001
1000
0010
1000
,
0001
0010
0100
0010
0001
1000
0010
1000
,
0001
0100
0010
0001
0010
0100
0001
0010
,
0100
0001
0100
0010
0001
1000
0010
0100
,
1000
0100
0010
1000
0100
0010
1000
0010
,
0100
1000
0001
0100
0010
0001
0010
0100
,
0001
0000
0000
0000
1010
0000
0000
1000
0000
0000
0100
0000
0110
0000
0000
0010
,
0000
0000
0001
0000
1001
0000
0000
1000
0000
0000
0010
0000
0110
0000
0000
0000
,
2002
0000
0000
0000
,
0000
0000
0000
0000
0000
0000
0000
0000
3000
0000
0000
0000
1003
0100
0010
0001
,
0200
0000
0000
0000
0000
0000
0000
0000
0301
0000
0000
0000
0020
0030
0000
0000
0020
0030
0000
0000
1000
0000
0000
0000
0001
0000
0000
0000
0020
0000
0030
0000
,
0020
0000
0030
0000
1000
0000
0000
0000
0001
0000
0000
0000
0020
0030
0000
0000
0020
0030
1000
0000
0001
0000
0000
0000
0010
0000
0100
0000
1000
0000
0001
0000
,
0200
0000
0000
0000
0000
0000
0000
0000
0301
0000
0000
0000
0200
0300
0000
0000
0200
0300
0000
0000
1000
0000
0000
0000
0001
0000
0000
0000
0200
0300
0000
0000
,
0200
0300
0000
0000
1000
0000
0000
0000
0001
0000
0000
0000
0020
0030
0000
0000
0020
0030
1000
0000
0010
0000
0100
0000
0001
0000
0010
0000
0100
0000
1000
0000
,
0002
0000
0000
0000
0000
0000
0000
0000
1003
0000
0000
0000
0020
0030
0000
0000
0020
0030
0000
0000
0001
0000
0000
0000
1000
0000
0000
0000
0020
0030
0000
0000
,
0020
0030
0000
0000
0001
0000
0000
0000
1000
0000
0000
0000
0020
0030
0000
0000
0020
0030
0001
0000
1000
0000
0000
0000
0010
0000
0001
0000
0010
0000
0100
0000
,
0001
0000
0000
0000
2000
0000
0000
3200
0000
0000
0320
0000
0000
0032
0000
0000
,
0203
0000
0000
0320
0000
0000
2030
0000
0000
3001
0010
0100
1000
0001
0100
0010
,
2000
0000
0000
0000
0000
0000
0000
0000
3001
0000
0000
0000
0020
0030
0000
0000
0020
0030
0000
0000
1000
0000
0000
0000
0001
0000
0000
0000
0020
0030
0000
0000
,
0020
0030
0000
0000
1000
0000
0000
0000
0001
0000
0000
0000
0020
0030
0000
0000
0020
0030
1000
0000
0001
0000
0000
0000
0010
0000
0100
0000
1000
0000
0001
0000
,
0200
0000
0000
0000
0000
0000
0000
0000
0301
0000
0000
0000
0020
0030
0000
0000
0020
0030
0000
0000
1000
0000
0000
0000
0001
0000
0000
0000
0020
0030
0000
0000
,
0020
0030
0000
0000
1000
0000
0000
0000
0001
0000
0000
0000
0020
0030
0000
0000
0020
0030
1000
0000
0001
0000
0010
0000
0100
0000
0010
0000
0001
0000
1000
0000
,
0020
0030
0000
0100
0101
0001
0002
0000
,
0000
0000
1000
0000
0000
0000
1000
0000
1003
0000
0001
0100
0001
0010
0100
1000
,
0002
0000
0000
0000
0000
0000
0000
0000
0000
0000
0000
0000
0203
0300
0000
0000
0200
0300
0000
0000
1000
0000
0000
0000
2000
0000
0000
0000
0000
0000
0000
0000
,
0000
0000
0100
0000
0000
0100
0000
0000
3010
0000
1010
0000
0000
1010
0000
0000
,
1001
0000
0000
0000
0000
0000
0000
0000
0001
0000
0000
0000
0200
0300
0000
0000
0200
0300
0000
0000
1000
0000
0000
0000
0010
0000
0000
0000
0200
0300
0000
0000
,
0200
0300
0000
0000
1000
0000
0000
0000
0001
0000
0000
0000
0200
0300
0000
0000
0200
0300
1000
0000
0100
0000
1000
0000
0010
0000
0100
0000
0001
0000
1000
0000
,
0200
0000
0300
1100
1000
0001
1001
1000
,
1000
0000
0010
0000
0110
0000
0100
0000
0001
0010
0100
1000
0010
1000
0001
0010
,
0200
0000
0000
0000
0000
0000
0000
0000
1300
0000
0000
0000
0200
0300
0000
0000
0200
0300
0000
0000
0001
0000
0000
0000
1000
0000
0000
0000
0200
0300
0000
0000
,
0200
0300
0000
0000
0010
0000
0000
0000
1000
0000
0000
0000
0200
0300
0000
0000
0200
0300
0001
0000
0100
0000
0010
0000
0001
0000
0010
0000
0100
0000
0001
0000
,
1000
0000
0000
0000
0000
0000
0000
0000
0000
0000
0000
0000
0001
0000
0000
0100
0000
0000
1000
0000
0000
0100
0000
0000
0001
0000
0000
0000
0100
0000
0000
0000
0000
0000
0000
0000
0010
0000
0000
0000
1000
0000
0000
0000
0001
0000
0000
0000
,
0010
0000
0100
0000
0001
0000
0100
0000
1000
0000
0100
0010
0001
1000
0010
0000
,
2020
0000
3030
0201
,
0300
0000
0001
0000
1001
0000
1000
0000
1000
0001
0100
0001
0010
0100
1000
0001
,
0100
0000
0010
1000
0000
0010
1000
0000
0001
0000
1000
0000
1100
0000
0100
0000
,
0100
0000
0010
0000
0011
0000
0001
0000
0001
0010
0100
1000
0010
1000
0001
0010
,
0200
0000
0301
1000
0010
0001
1000
0010
,
0200
0000
1300
0001
0010
1000
0001
0010
,
0100
0000
1000
0100
0000
1000
0010
0000
1000
0000
0001
0010
0000
0001
0100
0000
,
0001
0000
1000
0100
0000
1000
0010
0000
1000
0100
0100
0100
1000
0100
0100
0100
,
1000
0000
1001
0001
0000
1000
1100
0000
,
0100
0000
0010
0000
0011
0000
0000
0001
0100
0010
1000
0000
1010
0000
0000
0000
,
0010
0000
0101
0100
0000
0001
1001
0000
,
1000
0000
0100
0000
0110
0000
0000
0010
0001
1000
0010
0000
0110
0000
0000
0000
,
0200
0300
0101
0001
0000
1000
1100
0000
,
0100
0000
0010
0000
0011
0000
0000
0001
1000
0010
0100
0000
0101
0000
0000
0000
,
0001
0000
1100
1000
0000
0001
0101
0000
,
0100
0000
0010
0000
1010
0000
0000
1000
0100
0010
0001
0000
1001
0000
0000
0000
,
1000
0000
0010
0100
0000
0001
1000
0000
,
0100
0010
0001
0000
1000
0010
0100
0000
,
0001
0000
0010
0100
0000
1000
0001
0000
,
0100
0010
1000
0000
0100
0010
0001
0000
,
1000
0000
0010
0100
0000
0001
1000
0000
,
0100
0010
0001
0000
0100
0010
1000
0000
,
0001
0000
1000
0100
0000
1000
0001
0000
,
0100
0010
1000
0000
0100
0010
0001
0000
,
1000
0000
0010
1000
0000
0001
1000
0000
,
0001
0010
0000
0010
0000
0100
1000
0001
,
0000
0000
1000
0010
0000
1000
0100
0000
,
0001
0100
0000
0100
0000
1000
0001
0100
,
0000
0000
0010
1000
0000
0001
0010
0000
,
0001
0100
0000
0100
0000
0001
1000
0100
,
0000
0000
0010
0001
0000
1000
0010
0000
,
0001
0010
0000
0010
0000
1000
0001
0010
,
0000
0000
0001
1000
0000
0010
0100
0000
,
0001
0010
0000
0010
0000
0100
1000
0001
,
0000
0000
0100
0010
0000
1000
0010
0000
,
0001
0010
0000
0010
0000
1000
0001
0010
,
0000
0000
0100
1000
0000
0001
0100
0000
,
0010
1000
0000
1000
0000
0001
0010
0100
,
0000
0000
1000
0100
0000
0010
0001
0000
,
0200
0000
0000
0000
,
0300
0000
0000
0000
;
