#VERSION:0.83;
#TITLE:JINGLE DEATH;
#SUBTITLE:;
#ARTIST:DJ Myosuke & Gram;
#TITLETRANSLIT:;
#SUBTITLETRANSLIT:;
#ARTISTTRANSLIT:;
#GENRE:Festive Hardcore;
#ORIGIN:Single Release (2019);
#TAGS:;
#CREDIT:;
#BANNER:JINGLE DEATH.png;
#BACKGROUND:JINGLE DEATH-bg.png;
#PREVIEWVID:;
#JACKET:JINGLE DEATH-jacket.png;
#CDIMAGE:;
#DISCIMAGE:;
#LYRICSPATH:;
#CDTITLE:../_YSD cdtitles/ysd xmas2023 cdtitle.png;
#MUSIC:JINGLE DEATH.ogg;
#OFFSET:-0.244000;
#SAMPLESTART:109.832001;
#SAMPLELENGTH:17.297001;
#SELECTABLE:YES;
#DISPLAYBPM:65.000000:444.000000;
#BPMS:0.000000=65.000000
,16.416666=130.000000
,16.541666=65.000000
,17.000000=130.000000
,17.125000=65.000000
,17.395834=130.000000
,17.479166=65.000000
,18.000000=111.000000
,56.000000=222.000000
,60.000000=444.000000
,116.000000=222.000000
,120.000000=444.000000
,184.000000=888.000000
,185.000000=444.000000
,185.500000=222.000000
,186.000000=444.000000
,312.000000=222.000000
,344.000000=111.000000
,360.000000=222.000000
,424.000000=111.000000
,426.000000=222.000000
,430.000000=444.000000
,554.000000=111.000000
,562.000000=65.000000
,568.000000=888.000000
;
#STOPS:16.416666=0.058000
,17.000000=0.058000
,17.395834=0.038000
,457.500000=0.135000
,488.500000=0.135000
,519.500000=0.135000
,546.500000=0.135000
;
#DELAYS:;
#WARPS:;
#TIMESIGNATURES:0.000000=2=4
,56.000000=4=4
,60.000000=8=4
,116.000000=4=4
,120.000000=8=4
,312.000000=4=4
,344.000000=2=4
,360.000000=4=4
,424.000000=2=4
,426.000000=4=4
,430.000000=8=4
,454.000000=7=4
,461.000000=8=4
,485.000000=7=4
,492.000000=8=4
,516.000000=7=4
,523.000000=8=4
,539.000000=7=4
,546.000000=8=4
,554.000000=2=4
,568.000000=1=4
;
#TICKCOUNTS:0.000000=4
;
#COMBOS:0.000000=1
;
#SPEEDS:0.000000=1.000000=0.000000=0
;
#SCROLLS:0.000000=1.000000
;
#FAKES:;
#LABELS:0.000000=Song Start
;
#BGCHANGES:;
#KEYSOUNDS:;
#ATTACKS:
;

//---------------dance-single - ----------------
#NOTEDATA:;
#CHARTNAME:;
#CHARTHASH:4084369796;
#STEPSTYPE:dance-single;
#BANNER:;
#DESCRIPTION:;
#CHARTSTYLE:;
#DIFFICULTY:Beginner;
#METER:9;
#METERF:0.000000;
#LASTSECONDHINT:139.086639;
#RADARVALUES:0.370847,0.735454,0.140320,0.217497,0.007016,370.000000,350.000000,20.000000,31.000000,0.000000,0.000000,0.000000,0.000000,0.000000,0.370847,0.735454,0.140320,0.217497,0.007016,370.000000,350.000000,20.000000,31.000000,0.000000,0.000000,0.000000,0.000000,0.000000;
#CREDIT:YOSEFU;
#DISPLAYBPM:65.000000:444.000000;
#NOTES:
// measure 0
0000
0000
0000
0000
,  // measure 1
0000
0000
0000
0000
,  // measure 2
0000
0000
0000
0000
1000
1000
1000
0000
,  // measure 3
0001
0001
0001
0000
0100
1000
0100
0001
,  // measure 4
2000
0000
0000
0000
3100
0010
0100
0000
,  // measure 5
1000
0001
1000
0000
0001
0100
0010
0100
,  // measure 6
0002
0000
0000
0000
1003
0100
1000
0000
,  // measure 7
0001
0100
0001
0000
1000
0100
0010
0001
,  // measure 8
2000
0000
3020
0000
0130
0001
0100
0000
,  // measure 9
0001
1000
0001
0000
1000
0100
0010
0100
,  // measure 10
2000
0000
3010
0100
0002
0000
0000
0013
,  // measure 11
0100
0000
1000
0001
0200
0000
0000
0301
,  // measure 12
2000
0000
0000
0000
3100
0100
0100
0000
,  // measure 13
0010
0000
0010
0000
0010
0000
0000
0000
0001
0000
1000
0000
0001
0000
0000
0100
,  // measure 14
0001
1000
1001
0000
,  // measure 15
0001
0000
0100
0000
,  // measure 16
0001
0000
1000
0000
,  // measure 17
0100
0000
0010
0000
,  // measure 18
1001
0000
0000
0000
,  // measure 19
0001
0000
0100
0000
,  // measure 20
0010
0000
1000
0000
,  // measure 21
0001
0000
0010
0000
,  // measure 22
1001
0000
0000
0000
,  // measure 23
1000
0000
0010
0000
,  // measure 24
0100
0000
0001
0000
,  // measure 25
0010
0000
0100
0000
,  // measure 26
1001
0000
0000
0000
,  // measure 27
0110
0000
0000
0000
,  // measure 28
1001
0000
0000
0000
,  // measure 29
1000
0000
0000
0110
,  // measure 30
0001
0000
0100
0000
,  // measure 31
0002
0000
0000
0000
,  // measure 32
1003
0000
0100
0000
,  // measure 33
2000
0000
0000
0000
,  // measure 34
3010
0000
0001
0000
,  // measure 35
0010
0000
1000
0000
,  // measure 36
0002
0000
0000
0000
,  // measure 37
0000
0000
0000
0000
,  // measure 38
0013
0000
0010
0000
,  // measure 39
0010
0000
0010
0000
,  // measure 40
0010
0000
0100
0000
,  // measure 41
0100
0000
0100
0000
,  // measure 42
1000
0000
1000
0000
,  // measure 43
0010
0000
0100
0000
,  // measure 44
0002
0000
0000
0000
,  // measure 45
0000
0000
1003
0010
,  // measure 46
1000
0000
0001
0000
,  // measure 47
0010
0000
0100
0000
,  // measure 48
2000
0000
0000
0000
,  // measure 49
0000
0000
3001
0010
,  // measure 50
0001
0000
1000
0000
,  // measure 51
0010
0000
0100
0000
,  // measure 52
0002
0000
0000
0000
,  // measure 53
0000
0000
1003
0100
,  // measure 54
1000
0000
0010
0000
,  // measure 55
0100
0000
0001
0000
,  // measure 56
2000
0000
0000
0000
,  // measure 57
0000
0000
3100
0010
,  // measure 58
0100
0000
0100
0000
,  // measure 59
1000
0000
0001
0000
,  // measure 60
0200
0000
0000
0000
,  // measure 61
0000
0000
0301
1000
,  // measure 62
0001
0000
0010
0000
,  // measure 63
0100
0000
1000
0000
,  // measure 64
0002
0000
0000
0000
,  // measure 65
0000
0000
0103
0001
,  // measure 66
0100
0000
0010
0000
,  // measure 67
1000
0000
0001
0000
,  // measure 68
0020
0000
0000
0000
,  // measure 69
0000
0000
0130
1000
,  // measure 70
0100
0000
0010
0000
,  // measure 71
0001
0000
1000
0000
,  // measure 72
0010
0000
0010
0000
,  // measure 73
0010
0000
0010
0000
,  // measure 74
0001
0000
0010
0000
,  // measure 75
1000
0000
0100
0000
,  // measure 76
0020
0000
0000
0000
,  // measure 77
0032
0000
0000
0000
,  // measure 78
1003
0010
2000
0000
,  // measure 79
3001
0010
0002
0000
,  // measure 80
1003
0010
0100
0001
,  // measure 81
2000
0000
0000
0000
,  // measure 82
3001
0100
0001
0000
,  // measure 83
1000
0100
1000
0000
,  // measure 84
0001
0010
0100
1000
,  // measure 85
0020
0000
0230
0000
,  // measure 86
0301
1000
0001
0000
1000
0100
1000
0000
,  // measure 87
0001
0100
0010
1000
0100
0000
0010
0001
,  // measure 88
0100
0000
0000
0010
0100
0000
0001
1000
,  // measure 89
0100
0000
0000
0010
0001
0000
1001
0000
,  // measure 90
1000
0000
0001
0100
,  // measure 91
0010
0000
1000
0001
,  // measure 92
0011
0000
0010
0100
,  // measure 93
1000
0000
0001
0100
,  // measure 94
0110
0000
0010
1000
,  // measure 95
1001
0000
0001
0010
,  // measure 96
0110
0000
1100
0000
,  // measure 97
1001
0000
0101
0000
,  // measure 98
0100
0001
0100
0000
,  // measure 99
0001
1000
0001
0000
,  // measure 100
1000
0100
1000
0000
,  // measure 101
0001
0100
0001
0000
,  // measure 102
1000
0100
1000
0100
,  // measure 103
0010
0001
0010
0001
,  // measure 104
1000
0010
0100
0001
,  // measure 105
0010
0000
0100
0000
,  // measure 106
1001
0000
1000
0010
,  // measure 107
0100
0001
1000
0000
,  // measure 108
0100
0000
0010
0000
,  // measure 109
0100
0000
1000
0000
,  // measure 110
0001
0000
0100
0000
,  // measure 111
1001
0000
0001
0000
,  // measure 112
0010
0000
0100
0000
,  // measure 113
0010
0001
0000
1000
,  // measure 114
0001
0000
1000
0001
,  // measure 115
0000
0200
0000
0301
,  // measure 116
0000
0010
0000
0100
,  // measure 117
0000
1000
0000
0001
,  // measure 118
0000
0100
0000
1001
,  // measure 119
0000
0000
0001
0000
,  // measure 120
0000
1000
0000
0000
,  // measure 121
0010
0000
1000
0001
,  // measure 122
0000
1000
0001
0000
,  // measure 123
1000
0000
0001
0000
,  // measure 124
0100
0000
0001
0000
,  // measure 125
1000
0000
0100
0000
,  // measure 126
0010
0000
0001
0000
,  // measure 127
1000
0000
0010
0000
,  // measure 128
0100
0000
0001
1000
,  // measure 129
0000
0001
1000
0000
,  // measure 130
0001
1000
0000
1001
,  // measure 131
0000
0001
0000
0100
,  // measure 132
0000
0010
0000
1000
,  // measure 133
0000
0001
0000
0010
,  // measure 134
0000
0200
0000
1300
,  // measure 135
0000
0001
0000
0000
0000
0000
0000
0100
,  // measure 136
0000
0000
0000
0000
0002
0003
1000
0000
,  // measure 137
0000
0000
0100
0000
0000
0010
0000
0000
,  // measure 138
0001
0000
2000
0000
,  // measure 139
0000
0000
3000
0000
,  // measure 140
0000
0000
0000
0000
0001
0001
0001
0000
,  // measure 141
1000
0000
1000
1000
0000
0000
0000
0000
0100
0000
0001
0000
0100
0000
1000
0000
,  // measure 142
2002
0000
0000
0000
,  // measure 143
0000
0000
0000
0000
,  // measure 144
0000
0000
0000
0000
,  // measure 145
0000
0000
0000
0000
,  // measure 146
0000
0000
0000
0000
,  // measure 147
0000
0000
0000
0000
,  // measure 148
0000
0000
0000
0000
,  // measure 149
0000
0000
0000
3003
;

//---------------dance-single - ----------------
#NOTEDATA:;
#CHARTNAME:;
#CHARTHASH:112354873;
#STEPSTYPE:dance-single;
#BANNER:;
#DESCRIPTION:;
#CHARTSTYLE:;
#DIFFICULTY:Easy;
#METER:12;
#METERF:0.000000;
#LASTSECONDHINT:139.086639;
#RADARVALUES:0.462055,0.945584,0.203465,0.259593,0.091208,461.000000,432.000000,29.000000,37.000000,0.000000,0.000000,0.000000,0.000000,0.000000,0.462055,0.945584,0.203465,0.259593,0.091208,461.000000,432.000000,29.000000,37.000000,0.000000,0.000000,0.000000,0.000000,0.000000;
#CREDIT:YOSEFU;
#DISPLAYBPM:65.000000:444.000000;
#NOTES:
// measure 0
0000
0000
0000
0000
,  // measure 1
0000
0000
0000
0000
,  // measure 2
0000
0000
0000
0000
1000
1000
1000
0000
,  // measure 3
0001
0001
0001
0000
0100
1000
0100
0001
,  // measure 4
2000
0000
0000
0000
3001
0001
0002
0000
,  // measure 5
0013
0000
0000
0020
0000
0000
0000
0000
0130
0000
1000
0000
0001
0100
0001
0000
,  // measure 6
2000
0000
0000
0000
0000
0000
3100
0010
0001
0000
0001
0000
0001
0000
0001
1000
,  // measure 7
0001
0100
0010
1000
0100
0010
0001
1000
,  // measure 8
0020
0000
0230
0000
0301
0001
0002
0000
,  // measure 9
1003
0000
0000
2000
0000
0000
0000
0000
3100
0000
0010
0000
0001
1000
0001
0000
,  // measure 10
0200
0000
0310
1000
0002
0000
0000
0013
,  // measure 11
0200
0000
0000
0000
0310
0000
0001
0000
2000
0000
0000
0000
0000
0000
3001
0100
,  // measure 12
0002
0000
0000
0000
1003
1000
1000
0000
,  // measure 13
0001
0000
0001
0000
0001
0000
0000
0000
0100
0000
0010
0000
1000
0000
0000
0001
,  // measure 14
1000
0100
1001
0000
,  // measure 15
1000
0000
0100
0000
,  // measure 16
1001
0000
0001
0000
,  // measure 17
0100
0001
0100
0000
,  // measure 18
1001
0000
0000
0000
,  // measure 19
1000
0100
1000
0000
,  // measure 20
1001
0000
0001
0000
,  // measure 21
0100
0010
0100
0010
,  // measure 22
2000
0000
0000
0000
,  // measure 23
3001
0000
0010
0100
,  // measure 24
0010
0000
0011
0000
,  // measure 25
0001
1000
0001
1000
,  // measure 26
0020
0000
0000
0000
,  // measure 27
0130
0000
0000
0100
0000
0000
0100
0000
,  // measure 28
0001
0000
0000
0001
0000
0000
0001
0000
,  // measure 29
1000
0100
0010
0011
,  // measure 30
0001
0000
1010
0000
,  // measure 31
0010
0000
0101
0000
,  // measure 32
0001
0000
1100
0000
,  // measure 33
0100
0000
0000
0000
0010
0000
0100
0000
0000
0000
0000
0000
,  // measure 34
1000
0000
0101
0000
,  // measure 35
0100
0000
0000
0000
0000
0000
0010
0000
0000
0000
1000
0000
,  // measure 36
0010
0000
0110
0000
,  // measure 37
1001
0000
0001
0000
,  // measure 38
0110
0000
1000
0000
,  // measure 39
0110
0000
0001
0000
,  // measure 40
0110
0000
1000
0000
,  // measure 41
1001
0000
0001
0000
,  // measure 42
0010
0000
0010
0000
,  // measure 43
0100
0000
1000
0000
,  // measure 44
2002
0000
0000
0000
,  // measure 45
0000
0000
3003
0000
,  // measure 46
1000
0000
0001
0000
,  // measure 47
0100
0000
0010
0000
,  // measure 48
1000
0000
0001
0000
,  // measure 49
0010
0000
0100
1000
,  // measure 50
0100
0000
0010
0000
,  // measure 51
0001
0000
1000
0000
,  // measure 52
0010
0000
0100
0000
,  // measure 53
0001
0000
1000
0001
,  // measure 54
1000
0000
0100
0000
,  // measure 55
0010
0000
0100
0000
,  // measure 56
1000
0000
0001
0000
,  // measure 57
0100
0000
0010
1000
,  // measure 58
0010
0000
0100
0000
,  // measure 59
0001
0000
0010
0000
,  // measure 60
0100
0000
1000
0000
,  // measure 61
0010
0000
1000
0001
,  // measure 62
1000
0000
0001
0000
,  // measure 63
0010
0000
0100
0000
,  // measure 64
1000
0000
0010
0000
,  // measure 65
0100
0000
0001
1000
,  // measure 66
0001
0000
1000
0000
,  // measure 67
0100
0000
0010
0000
,  // measure 68
0001
0000
0100
0000
,  // measure 69
0010
0000
1000
0001
,  // measure 70
1000
0000
0001
0000
,  // measure 71
0010
0000
0100
0000
,  // measure 72
1000
0000
1000
0000
,  // measure 73
1000
0000
0001
1000
,  // measure 74
0001
0000
0100
0000
,  // measure 75
0001
0000
1000
0000
,  // measure 76
0200
0000
0000
0000
,  // measure 77
0320
0000
0000
0000
,  // measure 78
0031
0001
0002
0000
,  // measure 79
0103
0000
0000
0200
0000
0000
0000
0000
,  // measure 80
0310
0000
1000
0000
0001
0010
0001
0000
,  // measure 81
2000
0000
0000
0000
0000
0000
3010
0100
,  // measure 82
0001
0000
0001
0000
0001
0000
0001
1000
,  // measure 83
0001
0010
0100
1000
,  // measure 84
0010
0100
0001
1000
,  // measure 85
0200
0000
0320
0000
,  // measure 86
0031
0000
0001
0000
0002
0000
0000
0000
1003
0000
0000
2000
0000
0000
0000
0000
,  // measure 87
3100
0000
0010
0000
0001
1000
0001
0000
0200
0000
0000
0000
0310
0000
1000
0000
,  // measure 88
0002
0000
0000
0013
0200
0000
0310
0001
,  // measure 89
2000
0000
0000
0000
0000
0000
3001
0100
0001
0000
0000
0000
1001
0000
0000
0000
,  // measure 90
1000
0000
0001
0000
0100
0000
0001
1000
,  // measure 91
0000
0001
1000
0000
0010
0000
0100
0001
,  // measure 92
0100
0000
0010
0000
1000
0000
0001
0010
,  // measure 93
0000
0001
1000
0000
0001
0100
0001
0000
,  // measure 94
0101
0000
0100
0000
0001
0000
1000
0001
,  // measure 95
1000
0000
0100
0000
0010
0000
0001
0010
,  // measure 96
0001
0000
0000
0000
0011
0000
0000
0001
,  // measure 97
1000
0010
0110
0000
,  // measure 98
0100
0001
0100
0001
,  // measure 99
1000
0100
1000
0100
,  // measure 100
0010
0001
0010
0001
,  // measure 101
1000
0001
1000
0001
,  // measure 102
0100
0000
0000
0100
0000
0000
0000
0000
0001
0000
0000
0001
0000
0000
0000
0000
,  // measure 103
1000
0000
0000
1000
0000
0000
0000
0000
0100
0000
0000
0100
0000
0000
0000
0000
,  // measure 104
0010
0000
0010
0000
0010
0000
0001
0000
0001
0000
0001
0000
,  // measure 105
1000
0000
0010
0000
0100
0000
0001
0000
1000
0000
0100
0000
,  // measure 106
2002
3003
1000
0100
,  // measure 107
0010
1001
1000
0000
,  // measure 108
0001
0000
0100
0000
,  // measure 109
0001
1000
0001
0000
,  // measure 110
1000
0000
0100
0000
,  // measure 111
1001
0000
1000
0001
,  // measure 112
1000
0000
0001
0000
,  // measure 113
1000
0010
0000
0100
,  // measure 114
0001
0000
1000
0001
,  // measure 115
0000
0010
0000
0100
,  // measure 116
1000
0100
0000
0010
,  // measure 117
0000
0001
0000
1000
,  // measure 118
0010
1000
0000
1001
,  // measure 119
0000
0000
0001
0000
,  // measure 120
0000
1000
0000
0000
,  // measure 121
1001
0000
0001
0100
,  // measure 122
0000
0001
1000
0000
,  // measure 123
0001
1000
0001
0000
,  // measure 124
0100
0000
0001
1000
,  // measure 125
0000
0100
1000
0000
,  // measure 126
0001
0100
0001
0000
,  // measure 127
1000
0001
1000
0000
,  // measure 128
0100
0000
0010
0001
,  // measure 129
0000
1000
0001
0000
,  // measure 130
1000
0010
0000
1001
,  // measure 131
0000
1000
0001
1000
,  // measure 132
0000
0001
0000
0100
,  // measure 133
0001
0100
0001
1000
,  // measure 134
0000
0100
0000
0010
,  // measure 135
0000
0001
0000
0000
0100
0000
0000
0001
,  // measure 136
0000
0000
1000
0000
0002
0003
0100
0000
,  // measure 137
0001
0000
0100
0000
0000
0010
0000
0000
,  // measure 138
1000
0001
2002
0000
,  // measure 139
0000
0000
3003
0000
,  // measure 140
0000
0000
0000
0000
1000
1000
1000
0000
,  // measure 141
0001
0000
0001
0001
0000
0000
0000
0000
0100
0000
1000
0000
0100
0000
0001
0000
,  // measure 142
2002
0000
0000
0000
,  // measure 143
0000
0000
0000
0000
,  // measure 144
0000
0000
0000
0000
,  // measure 145
0000
0000
0000
0000
,  // measure 146
0000
0000
0000
0000
,  // measure 147
0000
0000
0000
0000
,  // measure 148
0000
0000
0000
0000
,  // measure 149
0000
0000
0000
3003
;

//---------------dance-single - ----------------
#NOTEDATA:;
#CHARTNAME:;
#CHARTHASH:781559638;
#STEPSTYPE:dance-single;
#BANNER:;
#DESCRIPTION:;
#CHARTSTYLE:;
#DIFFICULTY:Medium;
#METER:15;
#METERF:0.000000;
#LASTSECONDHINT:139.086639;
#RADARVALUES:0.593355,0.945584,0.280641,0.406929,0.154352,592.000000,552.000000,40.000000,58.000000,0.000000,0.000000,0.000000,0.000000,0.000000,0.593355,0.945584,0.280641,0.406929,0.154352,592.000000,552.000000,40.000000,58.000000,0.000000,0.000000,0.000000,0.000000,0.000000;
#CREDIT:YOSEFU;
#DISPLAYBPM:65.000000:444.000000;
#NOTES:
// measure 0
0000
0000
0000
0000
,  // measure 1
0000
0000
0000
0000
,  // measure 2
0000
0000
0000
0000
1000
1000
1000
0000
,  // measure 3
0001
0001
0001
0000
0100
1000
0100
0001
,  // measure 4
2000
0000
0000
0000
3100
0100
0200
0000
,  // measure 5
0310
0000
0010
0020
0000
0000
0000
0000
0031
0000
0100
0000
0010
1000
0001
0000
,  // measure 6
0020
0000
0000
0000
0000
0000
0031
1000
0010
0000
0010
0000
0010
0000
0010
0010
,  // measure 7
0010
0100
0001
0010
0100
0010
0001
1000
,  // measure 8
0020
0000
0230
0000
0301
0001
0002
0000
,  // measure 9
1003
0000
1000
2000
0000
0000
0000
0000
3010
0000
0001
0000
0010
0100
0001
0000
,  // measure 10
0020
0000
0130
1000
0002
0000
0003
0010
,  // measure 11
0002
0000
0000
0000
0103
0000
0010
0000
2000
0000
0000
0000
0000
0000
3100
0010
,  // measure 12
0002
0000
0000
0000
0103
0100
0100
0000
,  // measure 13
0001
0000
0001
0000
0001
0000
0000
0000
1000
0000
0100
0000
0010
0000
0000
0001
,  // measure 14
1000
0010
0001
0010
2000
0000
3002
0000
,  // measure 15
0023
0000
0130
1000
,  // measure 16
2001
0000
3001
0100
,  // measure 17
0010
1000
0100
0010
,  // measure 18
0002
0000
2003
0000
,  // measure 19
3001
0100
1000
0100
,  // measure 20
0010
1000
0100
0010
,  // measure 21
0001
0010
1000
0010
,  // measure 22
0200
0000
2300
0000
,  // measure 23
3020
0000
0130
0001
,  // measure 24
1002
0000
0013
0100
,  // measure 25
1000
0010
0100
0001
,  // measure 26
2000
0000
3020
0000
,  // measure 27
0130
0000
0000
0101
0000
0000
0001
0000
,  // measure 28
1000
0000
0000
1100
0000
0000
0100
0000
,  // measure 29
0010
0000
0000
0001
0000
0000
1000
0001
1000
0010
0000
0000
,  // measure 30
1010
0000
0000
0000
0000
0000
1000
0000
0000
0000
0001
0000
,  // measure 31
0010
0000
0000
0000
0000
0000
0100
0000
0000
0000
1000
0000
,  // measure 32
0001
0000
0000
0000
0100
0000
0001
0000
0000
0000
1000
0000
,  // measure 33
0100
0000
1001
0000
,  // measure 34
1000
0000
0000
0000
0000
0000
0010
0000
0000
0000
0100
0000
,  // measure 35
0001
0000
0000
0000
0000
0000
1000
0000
0000
0000
0100
0000
,  // measure 36
1000
0000
0000
0000
0001
0000
0100
0000
0000
0000
0010
0000
,  // measure 37
1000
0000
1001
0000
,  // measure 38
1010
0000
0000
0000
0000
0000
0010
0000
0000
0000
0100
0000
,  // measure 39
0001
0000
0000
0000
0000
0000
0011
0000
0000
0000
0010
0000
,  // measure 40
0100
0000
1000
0000
,  // measure 41
1010
0000
0000
0000
0000
0000
0010
0000
0000
0000
1000
0000
,  // measure 42
0100
0000
0000
0000
0000
0000
1000
0000
0001
0000
1000
0000
,  // measure 43
0001
0000
0010
0000
,  // measure 44
0201
0000
0000
0000
,  // measure 45
0000
0000
0301
1000
,  // measure 46
0100
0000
1000
0001
,  // measure 47
0100
0001
0010
0100
,  // measure 48
1000
0001
0100
0001
,  // measure 49
1000
0100
0010
0001
,  // measure 50
1000
0010
0100
0001
,  // measure 51
0010
0100
1000
0001
,  // measure 52
0100
0001
1000
0100
,  // measure 53
0010
0001
1000
0010
,  // measure 54
0100
0001
1000
0100
,  // measure 55
0010
0100
1000
0001
,  // measure 56
0100
0010
1000
0100
,  // measure 57
0010
0001
1000
0010
,  // measure 58
0100
1000
0100
0010
,  // measure 59
1000
0001
0010
0100
,  // measure 60
0010
0001
1000
0010
,  // measure 61
0100
0001
0010
0100
,  // measure 62
1000
0001
0100
0010
,  // measure 63
0001
0010
0100
0001
,  // measure 64
1000
0100
0010
0001
,  // measure 65
0100
0010
1000
0001
,  // measure 66
0010
0100
0001
0100
,  // measure 67
0010
0001
1000
0010
,  // measure 68
0100
0001
0010
0100
,  // measure 69
1000
0001
0100
0010
,  // measure 70
1000
0001
0010
1000
,  // measure 71
0010
0100
1000
0001
,  // measure 72
0100
0010
0001
0010
,  // measure 73
1000
0001
0010
0100
,  // measure 74
0001
0100
1000
0001
,  // measure 75
0100
0010
0001
0010
,  // measure 76
2000
0000
0000
0000
,  // measure 77
3200
0000
0000
0000
,  // measure 78
0310
0001
0011
0000
,  // measure 79
1000
0000
0001
0001
0000
0000
0101
0000
,  // measure 80
0100
0000
1000
0000
0100
0010
1000
0000
,  // measure 81
0001
0000
0000
0000
0011
0000
0010
0100
,  // measure 82
1000
0000
1000
0000
1000
0000
1000
1000
,  // measure 83
1000
0000
0001
0000
0100
0010
1000
0000
,  // measure 84
0200
0320
0032
2003
,  // measure 85
3100
0010
0001
0000
0100
0010
1000
0000
,  // measure 86
0001
0000
0001
0000
0002
0000
0000
0000
0103
0000
0100
0200
0000
0000
0000
0000
,  // measure 87
0310
0000
0001
0000
0010
0100
0001
0000
2000
0000
0000
0000
3100
0000
0010
0000
,  // measure 88
0002
0000
0000
1003
0020
0000
0130
0001
,  // measure 89
0002
0000
0000
0000
0000
0000
0013
0100
1000
0000
0000
0000
1001
0000
0000
0000
,  // measure 90
0001
0000
0100
0000
0000
0001
0000
0000
1000
0000
0000
0000
0100
0000
0010
0000
,  // measure 91
0000
0000
0001
0000
0000
0100
0000
0000
0010
0000
0000
0000
1000
0000
0001
0000
,  // measure 92
0010
0000
0001
0000
0000
0100
0000
0000
0010
0000
0000
0000
1000
0000
0200
0000
,  // measure 93
0000
0301
0100
0010
0001
0100
1000
0100
,  // measure 94
0001
0000
1000
0000
0000
0100
0000
0000
0010
0000
0000
0000
0001
0000
1000
0000
,  // measure 95
0010
0000
0100
0000
0000
0001
0000
0000
0010
0000
0000
0000
1000
0000
0010
0000
,  // measure 96
0001
0000
1000
0010
0110
0000
0000
0100
,  // measure 97
0101
1001
1100
0000
,  // measure 98
1000
0001
0100
0001
,  // measure 99
0010
0100
1000
0010
,  // measure 100
0100
0001
1000
0100
,  // measure 101
0010
0001
1000
0010
,  // measure 102
0100
0000
0000
0001
0000
0000
0100
0000
0001
0000
0000
1000
0000
0000
0100
0000
,  // measure 103
1000
0000
0000
0001
0000
0000
0100
0000
0001
0000
0000
0010
0000
0000
0100
0000
,  // measure 104
1000
0001
1000
0002
0000
0000
0103
0010
0100
0020
0000
0000
,  // measure 105
1030
0000
0001
0000
0010
0000
0100
0000
1000
0000
0001
0000
,  // measure 106
2002
3003
2000
3200
,  // measure 107
0310
1001
0001
0000
,  // measure 108
0100
0000
0101
0000
,  // measure 109
0001
0010
1000
0010
,  // measure 110
0100
0000
1000
0001
,  // measure 111
0101
0000
0100
0010
,  // measure 112
1000
0000
1001
0000
,  // measure 113
0001
0010
0000
1000
,  // measure 114
0010
0000
0002
0003
1000
0000
0010
0000
,  // measure 115
0001
0020
0000
0130
,  // measure 116
0001
1000
0000
1100
,  // measure 117
0000
0110
0000
0010
,  // measure 118
0001
0100
0010
1010
,  // measure 119
0000
0000
1000
0000
0001
0000
0000
0101
,  // measure 120
0000
0000
1000
0000
0000
1010
0000
0000
,  // measure 121
0020
0000
0031
0010
,  // measure 122
2000
3000
0001
0000
0010
0000
0100
0000
,  // measure 123
1000
0001
0100
0000
,  // measure 124
0110
0000
0010
0002
,  // measure 125
0000
0013
1000
0001
,  // measure 126
0010
0100
1100
0000
,  // measure 127
1000
0010
0001
0010
,  // measure 128
0100
0000
0001
0020
,  // measure 129
0000
0000
1030
0000
0010
0000
0002
0003
,  // measure 130
1000
0100
0001
0200
,  // measure 131
0000
1300
0001
0100
,  // measure 132
0000
0010
1000
1010
,  // measure 133
0000
1001
0001
0010
,  // measure 134
0100
1100
0000
1001
,  // measure 135
0000
0001
0000
0000
0101
0000
0000
1000
,  // measure 136
0000
0000
1100
0000
0200
0300
1000
0000
,  // measure 137
0010
0000
0001
0000
0000
0011
0000
0000
,  // measure 138
0010
1000
2002
0000
,  // measure 139
0000
0000
3003
0000
,  // measure 140
0000
0000
0000
0000
1000
1000
1000
0000
,  // measure 141
0001
0000
0001
0001
0000
0000
0000
0000
0100
0000
1000
0000
0100
0000
0001
0000
,  // measure 142
2002
0000
0000
0000
,  // measure 143
0000
0000
0000
0000
,  // measure 144
0000
0000
0000
0000
,  // measure 145
0000
0000
0000
0000
,  // measure 146
0000
0000
0000
0000
,  // measure 147
0000
0000
0000
0000
,  // measure 148
0000
0000
0000
0000
,  // measure 149
0000
0000
0000
3003
;

//---------------dance-single - ----------------
#NOTEDATA:;
#CHARTNAME:;
#CHARTHASH:462714461;
#STEPSTYPE:dance-single;
#BANNER:;
#DESCRIPTION:;
#CHARTSTYLE:;
#DIFFICULTY:Hard;
#METER:18;
#METERF:0.000000;
#LASTSECONDHINT:139.086639;
#RADARVALUES:0.758732,1.155713,0.336769,0.449025,0.280641,757.000000,709.000000,48.000000,64.000000,0.000000,0.000000,0.000000,0.000000,0.000000,0.758732,1.155713,0.336769,0.449025,0.280641,757.000000,709.000000,48.000000,64.000000,0.000000,0.000000,0.000000,0.000000,0.000000;
#CREDIT:YOSEFU;
#DISPLAYBPM:65.000000:444.000000;
#NOTES:
// measure 0
0000
0000
0000
0000
,  // measure 1
0000
0000
0000
0000
,  // measure 2
0000
0000
0000
0000
1000
1000
1000
0000
,  // measure 3
0001
0001
0001
0000
0100
1000
0100
0001
,  // measure 4
2000
0000
0000
0000
3100
0100
0200
0000
,  // measure 5
0310
0000
0010
0020
0000
0000
0000
0000
0130
0000
0001
0000
0100
0010
0001
0000
,  // measure 6
0200
0000
0000
0000
0000
0000
0310
1000
0001
0000
0001
0000
0001
0000
0001
0001
,  // measure 7
0001
0010
0100
1000
0100
0010
0001
0100
,  // measure 8
0020
0000
2030
0000
3100
0100
0200
0000
,  // measure 9
1300
0000
1000
2000
0000
0000
0000
0000
3010
0000
0001
0000
0010
1000
0001
0000
,  // measure 10
2000
0000
3100
0010
0002
0000
0000
0103
,  // measure 11
0020
0000
0000
0000
1030
0000
0001
0000
0002
0000
0000
0000
0000
0000
0013
0100
,  // measure 12
2000
0000
0000
0000
3001
0001
0001
0000
,  // measure 13
1000
0000
1000
0000
1000
0000
0000
0000
0010
0000
0001
0000
0010
0000
0000
1000
,  // measure 14
0001
0000
0000
0000
1000
0010
1000
0010
1000
0000
0000
0000
0001
0000
0000
0000
,  // measure 15
2000
0000
0000
0000
3001
0100
0001
0100
,  // measure 16
0020
0000
0000
0000
1030
0001
1000
0001
,  // measure 17
1000
0001
0010
0000
0001
0000
0100
0000
,  // measure 18
2000
0000
3100
0000
,  // measure 19
0001
0000
1000
0001
1000
0000
0100
0000
,  // measure 20
1000
0001
1000
0000
0100
0000
1000
0001
,  // measure 21
1000
0001
1000
0000
0100
0000
0010
0000
,  // measure 22
2000
0000
3020
0000
,  // measure 23
0032
0000
0000
0000
1003
0010
1000
0010
,  // measure 24
0200
0000
0000
0000
0301
1000
0001
1000
,  // measure 25
0001
1000
0100
0000
1000
0000
0010
0000
,  // measure 26
0002
0000
0023
0000
,  // measure 27
0130
0000
0000
0101
0000
0000
0001
1000
,  // measure 28
0100
0000
0000
0110
0000
0000
0010
0000
,  // measure 29
0002
0000
0000
1000
0000
0000
0103
0001
1000
0100
0000
0000
,  // measure 30
0020
0000
0000
0000
0000
0000
0031
0000
1000
0000
0001
0000
,  // measure 31
0200
0000
0000
0000
0000
0000
0301
0000
1000
0000
0100
0000
,  // measure 32
1000
0000
0001
0000
0100
0000
0010
0000
1000
0000
0001
0000
,  // measure 33
0010
0000
0001
0000
1000
0000
0020
0000
0000
0000
0000
0000
,  // measure 34
2030
0000
0000
0000
0000
0000
3100
0000
0010
0000
0001
0000
,  // measure 35
2000
0000
0000
0000
0000
0000
3010
0000
0100
0000
0001
0000
,  // measure 36
0010
0000
0100
0000
1000
0000
0010
0000
0100
0000
0001
0000
,  // measure 37
1000
0000
1100
0000
,  // measure 38
0200
0000
0302
0000
,  // measure 39
0203
0000
0000
0000
0000
0000
1300
0000
0001
0000
0100
0000
,  // measure 40
0010
0000
0100
0000
0001
0000
1000
0000
0100
0000
0010
0000
,  // measure 41
2000
0000
3020
0000
,  // measure 42
0032
0000
0000
0000
0000
0000
1003
0000
0010
0000
0100
0000
,  // measure 43
0002
0000
0000
0000
0000
0000
1003
0000
0100
0000
0010
0000
,  // measure 44
0002
0000
0000
0000
,  // measure 45
0000
0000
0103
0010
,  // measure 46
1000
0000
0001
0100
,  // measure 47
0010
0000
1000
0000
0001
1000
0001
1000
,  // measure 48
0001
0010
0100
0010
,  // measure 49
0001
0000
1000
0000
0010
1000
0010
1000
,  // measure 50
0010
0100
0001
0010
,  // measure 51
0100
0000
1000
0000
0001
0100
0001
0100
,  // measure 52
0001
1000
0100
0010
,  // measure 53
0001
0000
1000
0000
0010
1000
0010
1000
,  // measure 54
0010
0100
0001
0010
,  // measure 55
0100
0000
0010
0000
0001
1000
0001
1000
,  // measure 56
0001
0100
0010
1000
,  // measure 57
0001
0000
0010
0000
0100
1000
0100
1000
,  // measure 58
0100
0010
0001
1000
,  // measure 59
0010
0000
0100
0000
0001
1000
0001
1000
,  // measure 60
0001
0010
0100
1000
,  // measure 61
0001
0100
0001
0100
0001
0100
0001
0100
,  // measure 62
0010
1000
0100
0010
,  // measure 63
0001
0000
1000
0000
0010
0100
0010
1000
,  // measure 64
0001
0010
0100
0010
,  // measure 65
0001
0000
1000
0000
0100
0010
0100
1000
,  // measure 66
0001
0100
0010
1000
,  // measure 67
0001
0000
0010
0000
0100
0010
0001
1000
,  // measure 68
0001
0100
0001
0010
,  // measure 69
0100
0000
1000
0000
0001
0100
0010
0100
,  // measure 70
0001
1000
0100
0010
,  // measure 71
0100
1000
0100
1000
0001
0100
0001
1000
,  // measure 72
0001
0010
0100
0010
,  // measure 73
0001
1000
0001
1000
0010
1000
0010
1000
,  // measure 74
0001
0010
0100
0010
,  // measure 75
0001
0100
0001
0100
0001
1000
0001
0000
,  // measure 76
1000
0100
1000
0100
1000
0001
1000
0001
,  // measure 77
1000
0001
0100
0001
0100
0010
1000
0001
,  // measure 78
1000
0000
0000
0000
1000
0000
0001
0000
0101
0000
0000
0000
0000
0000
0000
0100
,  // measure 79
0001
0000
0100
0000
0001
0000
1000
0000
1100
0000
0000
0100
0010
0000
0000
0000
,  // measure 80
0011
0000
0000
0000
0010
0000
0000
0000
1000
0000
0010
0000
0001
0000
0000
1000
,  // measure 81
0001
0000
0000
0100
0001
0000
0000
0000
1001
0000
1000
0000
0001
0000
1000
0010
,  // measure 82
1000
0000
1000
0000
1000
0000
1000
1000
,  // measure 83
1000
0000
0100
0000
0010
0000
0001
0000
0101
0000
0000
0100
0001
0000
1000
0000
,  // measure 84
1100
0100
0010
0001
,  // measure 85
1000
0010
0100
0010
1000
0001
0010
0100
,  // measure 86
1100
0000
1000
0000
1001
0000
0000
0000
0001
0000
0001
0001
0101
0000
0000
0000
,  // measure 87
0100
0000
0001
0000
1000
0100
0010
0000
0001
0000
0000
0000
0101
0000
0100
0000
,  // measure 88
0001
0000
0000
0010
0110
0000
0100
1000
,  // measure 89
1001
0000
0000
0000
0000
0000
0001
0100
0010
0000
0000
0000
1010
0000
0000
0000
,  // measure 90
1000
0000
0001
0000
1000
0010
0000
1000
0001
0000
0010
0000
0001
0000
1000
0000
,  // measure 91
0001
0000
0100
0000
0010
1000
0000
0001
1000
0000
0100
0000
0010
0001
0010
0000
,  // measure 92
0100
0000
1000
0000
0001
0100
0000
0001
1000
0000
0100
0000
0010
0000
0200
0000
,  // measure 93
0000
0000
0301
0000
0100
0000
1000
0000
0001
0100
0001
0000
1000
0001
1000
0000
,  // measure 94
0100
0000
0010
0000
0001
1000
0000
0001
0100
0000
0001
0000
1000
0000
0100
0000
,  // measure 95
0110
0000
0000
0000
0010
0001
0000
1000
0001
0000
0100
0000
0010
1000
0010
0000
,  // measure 96
0100
0001
1000
0100
1100
0000
1000
0001
,  // measure 97
0101
1001
2200
3300
,  // measure 98
1000
0001
0100
0001
,  // measure 99
1000
0100
0001
0100
,  // measure 100
1000
0001
1000
0100
,  // measure 101
0010
0001
1000
0010
,  // measure 102
0110
0000
0000
0100
0000
0000
0001
0000
1001
0000
0000
1000
0000
0000
0100
0000
,  // measure 103
0110
0000
0000
0010
0000
0000
0001
0000
1001
0000
0000
1000
0000
0000
0010
0000
,  // measure 104
0100
0001
0100
0001
1000
0100
1000
0100
0010
0001
0100
0010
,  // measure 105
1000
0000
0100
0000
0110
0000
0001
0000
0100
0000
0110
0000
,  // measure 106
1002
0000
2003
3200
,  // measure 107
0320
0000
0031
0000
1000
0000
0010
0100
,  // measure 108
0000
0010
1000
0000
0001
0000
1000
0100
,  // measure 109
0010
0001
0100
1000
,  // measure 110
0100
0010
0000
1000
0010
0000
0100
0001
,  // measure 111
2000
0000
3100
0001
,  // measure 112
0100
0000
0010
0001
1000
0000
0010
0000
,  // measure 113
0100
0001
2000
0000
0000
0000
3100
0000
,  // measure 114
0010
0000
0022
0033
0001
0000
1000
0000
,  // measure 115
1001
0002
0000
0013
,  // measure 116
1000
0000
0010
0000
0001
1000
0010
0000
,  // measure 117
0100
0000
0001
0000
1000
0100
0000
0010
,  // measure 118
0100
0000
1000
0000
0001
0100
0020
0000
,  // measure 119
0000
0000
1030
0000
1001
0000
0000
0101
,  // measure 120
0000
0000
1001
0000
0000
1100
0000
0000
,  // measure 121
1001
0000
0001
0100
,  // measure 122
0220
0330
0010
0000
1000
0001
1000
0001
,  // measure 123
0010
0000
0001
0000
0100
0001
0000
1000
,  // measure 124
0100
0000
0001
0100
0010
0000
0002
0000
,  // measure 125
0000
0013
0001
0100
,  // measure 126
1000
0000
0100
0010
2000
0000
0000
0000
,  // measure 127
3001
0000
0010
0000
1000
0010
0000
0100
,  // measure 128
1000
0000
0001
1000
0010
0000
0200
0000
,  // measure 129
0000
0000
0301
0000
0010
0000
0220
0330
,  // measure 130
1000
0010
0110
0200
,  // measure 131
0000
0301
0010
1000
,  // measure 132
0010
0100
1000
0000
0002
0000
0000
0000
,  // measure 133
1003
0100
0010
0000
0001
0000
0100
0000
,  // measure 134
0010
1000
0001
0010
0100
0000
1100
0000
,  // measure 135
0000
1001
0000
0000
0101
0000
0000
1001
,  // measure 136
0000
0000
1000
0000
2200
3300
0100
0000
,  // measure 137
0010
0000
1001
0000
0000
0101
0000
0000
,  // measure 138
1001
1000
2200
0000
,  // measure 139
0000
0000
3300
0000
,  // measure 140
0000
0000
0000
0000
1000
1000
1000
0000
,  // measure 141
0001
0000
0001
0001
0000
0000
0000
0000
0100
0000
1000
0000
0100
0000
0001
0000
,  // measure 142
2002
0000
0000
0000
,  // measure 143
0000
0000
0000
0000
,  // measure 144
0000
0000
0000
0000
,  // measure 145
0000
0000
0000
0000
,  // measure 146
0000
0000
0000
0000
,  // measure 147
0000
0000
0000
0000
,  // measure 148
0000
0000
0000
0000
,  // measure 149
0000
0000
0000
3003
;

//---------------dance-single - ----------------
#NOTEDATA:;
#CHARTNAME:MERRY FUCKING CHRISTMAS;
#CHARTHASH:3982290107;
#STEPSTYPE:dance-single;
#BANNER:;
#DESCRIPTION:;
#CHARTSTYLE:;
#DIFFICULTY:Challenge;
#METER:19;
#METERF:0.000000;
#LASTSECONDHINT:139.086639;
#RADARVALUES:0.990261,1.681038,0.862970,0.491121,0.417453,988.000000,865.000000,123.000000,70.000000,0.000000,0.000000,0.000000,0.000000,0.000000,0.990261,1.681038,0.862970,0.491121,0.417453,988.000000,865.000000,123.000000,70.000000,0.000000,0.000000,0.000000,0.000000,0.000000;
#CREDIT:Yosefu's Sleigh-jacks Santa;
#DISPLAYBPM:65.000000:444.000000;
#NOTES:
// measure 0
0000
0000
0000
0000
,  // measure 1
0000
0000
0000
0000
,  // measure 2
0000
0000
0000
0000
0001
0001
0001
0000
,  // measure 3
1000
1000
1000
0000
0100
0001
0100
1000
,  // measure 4
0020
0000
0000
0000
0130
0100
0200
0000
,  // measure 5
0301
0000
0001
0002
0000
0000
0000
0000
0013
0000
1000
0000
0010
0100
1000
0000
,  // measure 6
0002
0000
0000
0000
0000
0000
0000
0000
0000
0000
0000
0000
0103
0010
1000
0001
0010
0000
0000
0000
0010
0000
0000
0000
0010
0000
0000
0000
0010
0000
0010
0000
,  // measure 7
0010
0100
1000
0010
0100
0010
1000
0001
,  // measure 8
0020
0000
0230
0000
1300
1000
2000
0000
,  // measure 9
3001
0000
0001
0002
0000
0000
0000
0000
0103
0000
1000
0000
0100
0010
1000
0000
,  // measure 10
0002
0000
0013
0100
2000
0000
0000
3010
,  // measure 11
0200
0000
0000
0000
0301
0000
0010
0000
0020
0000
0000
0000
0000
0000
1030
0010
,  // measure 12
0002
0000
0203
0320
1030
1000
2000
0000
,  // measure 13
3001
0000
0001
0000
0002
0000
0000
0000
0013
0000
1000
0000
0010
0000
0000
0001
,  // measure 14
1000
0010
1000
0100
0010
0001
1000
0010
1010
0000
0000
0000
1000
0000
0000
0000
,  // measure 15
1001
0000
0000
0000
0001
0100
0010
1000
,  // measure 16
0100
0000
0000
0000
1000
0001
0100
0010
,  // measure 17
1000
0100
0010
0001
0100
0001
1000
0100
,  // measure 18
0002
0000
0203
0300
,  // measure 19
0110
0000
0010
0001
1000
0000
0010
0000
,  // measure 20
0110
0000
0100
0001
1000
0000
0100
1000
,  // measure 21
0010
0100
0001
0010
0100
1000
0001
0100
,  // measure 22
2000
0000
3200
0000
,  // measure 23
0302
0000
0000
0000
0013
0100
1000
0010
,  // measure 24
2000
0000
0000
0000
3001
0010
0100
1000
,  // measure 25
0010
0100
0001
1000
0010
0100
0001
0010
,  // measure 26
2000
0000
3010
0100
,  // measure 27
1100
0000
0000
1001
0000
0000
0001
0100
,  // measure 28
0010
0000
0000
1010
0000
0000
1000
0100
,  // measure 29
0020
0000
0000
0030
0000
0000
0001
0010
0100
1100
0000
0000
,  // measure 30
2010
0000
0000
0000
0000
0000
3001
0000
0100
0000
0010
0000
,  // measure 31
1020
0000
0000
0000
0000
0000
0130
0000
0001
0000
0010
0000
,  // measure 32
0100
0000
1000
0000
0010
0000
0100
0000
0001
0000
0010
0000
,  // measure 33
1000
0000
0010
0000
0001
0000
1001
0000
0000
0000
0000
0000
,  // measure 34
1200
0000
0000
0000
0000
0000
0310
0000
0001
0000
1000
0000
,  // measure 35
2010
0000
0000
0000
0000
0000
3100
0000
0010
0000
1000
0000
,  // measure 36
0010
0000
0001
0000
1000
0000
1001
0000
0000
0000
0000
0000
,  // measure 37
0201
0000
0310
0000
,  // measure 38
1020
0000
0000
0000
0000
0000
1030
0000
0100
0000
0010
0000
,  // measure 39
0021
0000
0000
0000
0000
0000
0031
0000
0100
0000
0010
0000
,  // measure 40
1000
0000
0100
0000
0010
0000
0001
0000
1000
0000
0010
0000
,  // measure 41
0002
0000
0023
0030
,  // measure 42
2010
0000
0000
0000
0000
0000
3100
0000
0010
0000
0001
0000
,  // measure 43
1001
0000
0101
0000
,  // measure 44
2010
0000
0000
0000
,  // measure 45
0000
0000
3001
0010
,  // measure 46
0100
0000
0000
0000
1000
0001
0100
0001
,  // measure 47
1000
0100
0010
0001
0100
0001
1000
0100
,  // measure 48
0010
0100
1000
0001
0100
0001
1000
0100
,  // measure 49
0010
0001
1000
0010
0100
0001
1000
0100
,  // measure 50
0010
0001
0010
0100
1000
0001
0100
0010
,  // measure 51
0100
0001
1000
0100
0010
0001
1000
0010
,  // measure 52
0100
0001
1000
0100
0010
0001
0100
0001
,  // measure 53
1000
0100
0010
0001
1000
0010
0100
0001
,  // measure 54
0010
0100
1000
0001
0100
0010
0100
0001
,  // measure 55
1000
0100
0010
0001
1000
0010
0100
0010
,  // measure 56
1000
0001
0010
0001
1000
0010
1000
0001
,  // measure 57
0010
0100
1000
0001
0100
0010
1000
0001
,  // measure 58
0010
0100
1000
0010
0100
0001
1000
0100
,  // measure 59
0010
0001
1000
0010
1000
0100
0010
0001
,  // measure 60
0100
0001
1000
0100
0010
0001
0100
0001
,  // measure 61
1000
0100
0010
0100
1000
0001
0100
0010
,  // measure 62
0100
0001
1000
0100
0010
0001
1000
0010
,  // measure 63
1000
0001
0010
0100
0010
0001
1000
0010
,  // measure 64
0100
0001
0010
0100
1000
0001
0100
0001
,  // measure 65
1000
0100
0010
0001
1000
0010
0100
0001
,  // measure 66
1000
0010
1000
0100
0010
0001
1000
0010
,  // measure 67
0100
0001
0100
0010
1000
0001
0010
0100
,  // measure 68
1000
0010
0100
0001
1000
0100
0010
0001
,  // measure 69
0100
0001
1000
0100
0010
0001
0100
0010
,  // measure 70
1000
0001
0010
0100
1000
0010
0100
0001
,  // measure 71
1000
0100
0010
0001
0100
0001
1000
0001
,  // measure 72
0010
0100
1000
0001
0100
0010
1000
0001
,  // measure 73
0010
0100
1000
0010
0100
0001
1000
0100
,  // measure 74
0010
0001
0100
0001
1000
0010
1000
0100
,  // measure 75
0010
0001
0100
0010
1000
0001
0010
0100
,  // measure 76
1000
0010
0100
0001
1000
0100
0010
0001
,  // measure 77
1000
0010
0100
0001
0010
0100
1000
0010
,  // measure 78
1000
0000
0000
0000
1000
0000
0001
0100
0010
0000
0000
0000
1000
0000
0100
0010
,  // measure 79
0001
0000
0100
0000
0001
0000
1000
0000
1100
0000
0100
1000
0001
0000
0100
0001
,  // measure 80
0020
0000
0000
0000
1030
0000
0010
0100
1000
0000
0001
0000
0100
0000
0001
1000
,  // measure 81
0100
0000
0010
0000
1000
0000
0010
0000
0011
0000
0001
0100
0010
1000
0100
0010
,  // measure 82
2000
0000
0000
0000
3010
0000
0001
1000
0020
0000
0000
0000
0130
0000
0100
0001
,  // measure 83
1000
0000
0010
0000
0100
0000
1000
0000
1100
0000
0100
0010
1000
0000
0001
0010
,  // measure 84
0200
0000
0000
0000
1300
0000
0001
0100
0020
0000
0000
0000
1030
0000
0100
0010
,  // measure 85
0001
0000
1000
0010
0100
0000
0001
0010
0001
0000
0100
0000
0010
0000
1000
0000
,  // measure 86
1010
0000
0000
0000
0010
0000
0000
0000
1001
0000
0000
0000
0000
0000
0000
0000
1000
0000
0000
0000
0100
0000
0100
0000
0110
0000
0000
0000
0010
0000
0001
1000
,  // measure 87
0010
0000
0000
0000
0001
0000
0000
0000
0010
0000
0100
0000
0001
0000
0000
0000
0010
0000
0000
0000
0000
0000
0000
0000
0110
0000
0100
1000
0001
0000
0100
0000
,  // measure 88
0101
0000
0000
0000
0000
0000
0000
0000
1001
0000
0000
0000
1000
0000
0100
0000
0001
0000
0000
0000
0100
0000
0000
0000
1100
0000
0000
0000
1000
0010
0100
0001
,  // measure 89
2000
0000
0000
0000
0000
0000
3100
0010
0001
0000
0000
0000
0100
0010
1000
0001
0010
0000
0000
0000
0100
0000
0000
0000
2002
0000
0000
0000
3003
0000
0000
0000
,  // measure 90
1100
0000
1000
0000
0001
0100
0000
0001
1000
0000
0100
0010
0001
0000
1000
0000
,  // measure 91
0010
0000
0100
0000
0001
1000
0000
0100
1000
0000
0001
0100
0010
1000
0100
0010
,  // measure 92
0001
0000
1000
0000
0100
1000
0000
0001
0100
0000
0001
1000
0100
0000
0020
0000
,  // measure 93
0000
0000
1030
0000
0010
0000
0001
0000
1000
0010
0100
0001
0010
0100
1000
0001
,  // measure 94
0100
0000
0010
0000
1000
0001
0000
0010
0001
0000
1000
0010
0100
0000
0001
0000
,  // measure 95
1001
0000
1000
0000
0100
0010
0000
0001
1000
0000
0001
0010
0100
1000
0010
0100
,  // measure 96
0001
0000
0010
0000
0000
0100
0000
0000
1100
0000
1000
0000
0001
0000
0101
0000
,  // measure 97
1001
1100
0110
0001
,  // measure 98
1001
0000
1000
0000
0000
0010
0000
0000
0001
0000
0000
0000
0010
0000
1000
0000
,  // measure 99
0000
0000
0001
0000
0000
0010
0000
0000
1000
0000
0000
0000
0010
0000
0001
0000
,  // measure 100
0000
0000
1000
0000
0000
0100
0000
0000
0001
0000
0000
0000
0100
0000
1000
0000
,  // measure 101
0000
0000
0001
0000
0000
0100
0000
0000
1000
0000
0000
0000
0100
0000
0001
0000
,  // measure 102
1001
0000
0000
1100
0000
0000
1001
0000
0101
0000
0000
1001
0000
0000
1000
0100
,  // measure 103
0010
0000
0000
0011
0000
0000
1001
0000
1010
0000
0000
0110
0000
0000
0100
0000
,  // measure 104
0001
0010
0100
0002
0000
0000
0103
0010
0001
1000
0010
0100
,  // measure 105
0101
0000
1001
0000
1100
0000
1010
0000
0101
0000
0110
0000
,  // measure 106
1002
0000
0000
0000
0103
1000
0001
0010
,  // measure 107
1000
0100
0110
0000
1001
0000
0001
0100
,  // measure 108
0000
0010
1000
0000
1010
0000
0010
1000
,  // measure 109
0001
1001
0011
0110
,  // measure 110
1100
0000
1000
0001
0100
0000
0010
1000
,  // measure 111
2010
3000
1001
0011
,  // measure 112
1001
0000
1000
0010
0100
0000
0001
0010
,  // measure 113
0100
1000
0020
0000
0030
0000
1010
0000
,  // measure 114
0110
0000
0202
0303
0011
0000
0110
0000
,  // measure 115
1100
2000
3000
1010
,  // measure 116
1001
0000
0011
0000
0001
0100
0010
0000
,  // measure 117
1000
0000
1010
0000
0020
0000
0130
0001
,  // measure 118
0010
0000
0110
0000
0100
1000
2100
0000
,  // measure 119
0000
0000
3001
0000
0101
0000
0000
0110
,  // measure 120
0000
0000
1010
0000
0000
1100
0000
0000
,  // measure 121
2010
3000
1100
1001
,  // measure 122
0022
0033
0110
0000
0100
0001
0100
1000
,  // measure 123
0001
0000
0101
0000
0100
1000
0000
0100
,  // measure 124
0010
0000
1000
0001
0010
0000
0120
0000
,  // measure 125
0030
0000
0011
0000
1010
0000
1000
0010
,  // measure 126
0100
0000
1000
0100
0002
0000
0003
0000
,  // measure 127
0101
0000
1100
0000
1000
0010
0000
0001
,  // measure 128
0010
1000
0001
0000
0011
0000
0102
0000
,  // measure 129
0003
0000
1100
0000
0101
0000
0022
0033
,  // measure 130
0110
1100
1001
0021
,  // measure 131
0030
0110
1100
1001
,  // measure 132
0001
0100
0010
0000
0001
0000
0011
0000
,  // measure 133
0010
1000
0001
0000
0011
0000
0101
0000
,  // measure 134
0001
1000
0200
0000
0300
0000
1010
0000
,  // measure 135
0000
0011
0000
0000
0101
0000
0000
1100
,  // measure 136
0000
0000
1010
0000
0202
0303
0011
0000
,  // measure 137
1010
0000
1100
0000
0000
0101
0000
0000
,  // measure 138
1010
1100
2002
0000
,  // measure 139
0000
0000
3003
0000
,  // measure 140
0000
0000
0000
0000
1000
1000
1000
0000
,  // measure 141
0001
0000
0001
0001
0000
0000
0000
0000
0100
0000
1000
0000
0100
0000
0001
0000
,  // measure 142
2002
0000
0000
0000
,  // measure 143
0000
0000
0000
0000
,  // measure 144
0000
0000
0000
0000
,  // measure 145
0000
0000
0000
0000
,  // measure 146
0000
0000
0000
0000
,  // measure 147
0000
0000
0000
0000
,  // measure 148
0000
0000
0000
0000
,  // measure 149
0000
0000
0000
3003
;
