#TITLE:Ill;
#SUBTITLE:;
#ARTIST:RoughSketch;
#TITLETRANSLIT:;
#SUBTITLETRANSLIT:;
#ARTISTTRANSLIT:;
#GENRE:Uptempo Rawstyle;
#CREDIT:skeleton made by d0omsday;
#BANNER:Ill.png;
#BACKGROUND:Ill-bg.png;
#LYRICSPATH:;
#CDTITLE:../_YSD cdtitles/ysd sale2 cdtitle.png;
#MUSIC:Ill.ogg;
#OFFSET:-1.079000;
#SAMPLESTART:96.214996;
#SAMPLELENGTH:17.297001;
#SELECTABLE:YES;
#BPMS:0.000000=111.000000
,18.000000=222.000000
,207.000000=111.000000
,239.000000=222.000000
;
#STOPS:106.000000=1.892000,
295.000000=1.622000
;
#BGCHANGES:;
#KEYSOUNDS:;
#ATTACKS:;

//---------------dance-single - ----------------
#NOTES:
     dance-single:
     :
     Beginner:
     5:
     0.164063,0.224729,0.118324,0.006960,0.000000,165.000000,148.000000,17.000000,1.000000,0.000000,0.000000,0.164063,0.224729,0.118324,0.006960,0.000000,165.000000,148.000000,17.000000,1.000000,0.000000,0.000000:
// measure 0
0000
0000
0000
0000
,  // measure 1
0000
0000
0000
0000
,  // measure 2
0000
0000
1000
0000
,  // measure 3
0001
0000
0100
0000
,  // measure 4
0010
0000
1000
0000
,  // measure 5
0000
0000
0001
0000
,  // measure 6
0000
0000
1000
0000
,  // measure 7
0000
0000
0100
0000
,  // measure 8
0000
0000
0010
0000
,  // measure 9
0000
0000
0100
0000
,  // measure 10
0000
0000
1000
0000
,  // measure 11
0000
0000
0001
0000
,  // measure 12
0000
0000
0100
0000
,  // measure 13
0000
0000
0001
0000
,  // measure 14
0000
0000
1000
0000
,  // measure 15
0000
0000
0100
0000
,  // measure 16
0000
0000
0010
0000
,  // measure 17
0000
0000
0001
0000
,  // measure 18
0000
0000
1000
0000
,  // measure 19
0000
0000
0010
0000
,  // measure 20
0000
0000
0110
0000
,  // measure 21
0000
0000
1001
0000
,  // measure 22
0000
0000
0110
0000
,  // measure 23
0000
0000
1001
0000
,  // measure 24
0000
0000
0110
0000
,  // measure 25
0000
0000
1001
0000
,  // measure 26
0000
0000
0000
0001
,  // measure 27
0000
0001
0000
0001
,  // measure 28
0000
0000
0000
1000
,  // measure 29
0000
1000
0000
1000
,  // measure 30
0000
0000
0000
0010
,  // measure 31
0000
0010
0000
0100
,  // measure 32
0000
0100
0000
0001
,  // measure 33
0000
0001
0000
1000
,  // measure 34
0000
1000
0000
0001
,  // measure 35
0000
0001
0000
1000
,  // measure 36
0000
1000
0000
0100
,  // measure 37
0000
0100
0000
0110
,  // measure 38
0000
0000
0000
1001
,  // measure 39
0000
0000
0000
0001
,  // measure 40
0000
0001
0000
1000
,  // measure 41
0000
1000
0000
0001
,  // measure 42
0000
0001
0000
0100
,  // measure 43
0000
0100
0000
0001
,  // measure 44
0000
0001
0000
1000
,  // measure 45
0000
1000
0000
0100
,  // measure 46
0000
0100
0000
0110
,  // measure 47
0000
0000
0000
1001
,  // measure 48
0000
0000
0000
0001
,  // measure 49
0000
0000
0000
0100
,  // measure 50
0000
0000
0000
0010
,  // measure 51
0000
0000
0000
1001
,  // measure 52
0000
1000
0000
0001
,  // measure 53
0000
0100
0000
0001
,  // measure 54
0000
1000
0000
0100
,  // measure 55
0000
0010
0000
0110
,  // measure 56
0000
1000
0000
0001
,  // measure 57
0000
0100
0000
0010
,  // measure 58
0000
1000
0000
0100
,  // measure 59
0000
0010
0000
0001
,  // measure 60
0000
0000
0000
0000
,  // measure 61
0000
0000
0000
0000
,  // measure 62
0000
0000
0000
0000
,  // measure 63
0000
0000
0000
0000
,  // measure 64
0000
0000
0000
0000
,  // measure 65
0000
0000
0000
0000
,  // measure 66
0000
0000
0000
0000
,  // measure 67
0000
0000
0000
1000
,  // measure 68
0000
0000
0000
0001
,  // measure 69
0000
0000
0000
1000
,  // measure 70
0000
0000
0000
0010
,  // measure 71
0000
0000
0000
0100
,  // measure 72
0000
0000
0000
0001
,  // measure 73
0000
0000
0000
0000
,  // measure 74
0000
0001
0000
1000
,  // measure 75
0000
0001
0000
1000
,  // measure 76
0000
0010
0000
0100
,  // measure 77
0000
0010
0000
0100
,  // measure 78
0000
0001
0000
1000
,  // measure 79
0000
0001
0000
1000
,  // measure 80
0000
0100
0000
0010
,  // measure 81
0000
0100
0000
0010
,  // measure 82
0000
0001
0000
1000
,  // measure 83
0000
0001
0000
1000
,  // measure 84
0000
0001
0000
0100
,  // measure 85
0000
0001
0000
0100
,  // measure 86
0000
0010
0000
1000
,  // measure 87
0000
0010
0000
1000
,  // measure 88
0000
1001
0000
0000
,  // measure 89
0000
0110
0000
0000
,  // measure 90
0000
1001
0000
0001
,  // measure 91
0000
0100
0000
0010
,  // measure 92
0000
1000
0000
0001
,  // measure 93
0000
0010
0000
0100
,  // measure 94
0000
1000
0000
0001
,  // measure 95
0000
0100
0000
0010
,  // measure 96
0000
1000
0000
0100
,  // measure 97
0000
0110
0000
0000
,  // measure 98
0000
1001
0000
1000
,  // measure 99
0000
0100
0000
0010
,  // measure 100
0000
0001
0000
1000
,  // measure 101
0000
0010
0000
0100
,  // measure 102
0000
0001
0000
0000
,  // measure 103
0000
1000
0000
0000
,  // measure 104
0000
0001
0000
0000
,  // measure 105
0000
0010
0000
0000
,  // measure 106
0000
0200
0000
0000
,  // measure 107
0000
0000
0000
0000
0000
0300
0000
0000
;

//---------------dance-single - ----------------
#NOTES:
     dance-single:
     :
     Easy:
     12:
     0.473297,0.636732,0.313211,0.041761,0.104404,476.000000,431.000000,45.000000,6.000000,0.000000,0.000000,0.473297,0.636732,0.313211,0.041761,0.104404,476.000000,431.000000,45.000000,6.000000,0.000000,0.000000:
0000
0000
0000
0000
,
0000
0000
0000
0000
,
0000
0000
0000
0000
1000
0010
0100
0000
,
0001
0010
0100
0000
1000
0001
0100
0000
,
0010
1000
0100
0000
0010
0000
0001
0000
,
0100
0000
0010
1000
,
0001
0000
0010
0100
,
1000
0000
0001
0100
,
0010
0000
1000
0001
,
1000
0001
0100
0010
,
0100
0010
1000
0100
,
0010
0001
0100
0010
,
1000
0000
0001
1000
,
0100
0000
0000
0010
0000
0010
0000
0000
,
0001
1000
0010
0100
,
0001
0000
0000
1000
0000
1000
0000
0000
,
0100
0010
0001
0100
,
0010
0000
0000
1000
0000
1000
0000
0000
,
0100
0010
0001
0100
,
0010
0000
0000
1000
0000
1000
0000
0000
,
0100
0010
0001
0100
,
0010
1000
0100
0010
,
0001
1000
0010
0100
,
0001
0010
0100
1000
,
0001
0100
0010
1000
,
0100
0000
0010
0000
0001
1000
0001
1000
,
0001
1000
0001
1000
0010
0000
0100
0001
,
0100
0000
0010
1000
0010
0000
1001
0000
,
1000
0100
1000
0000
1001
0000
0001
0000
,
0100
0001
0100
0000
1010
0000
1010
0000
,
1010
1010
1001
0001
,
0100
0000
0010
0000
1000
0010
1000
0000
,
0001
0000
0010
0000
0100
0010
0100
0000
,
0010
0000
0001
1000
0001
1000
0001
0000
,
0100
0000
0010
1000
0010
0000
0100
0001
,
0100
0000
0001
0000
1000
0100
1000
0000
,
0001
0000
0100
0001
0100
0001
0100
0000
,
0010
0000
1000
0001
1000
0001
1000
0000
,
0100
0010
0011
0202
,
0303
0000
1010
0000
1100
0000
1000
0001
,
0100
0110
0010
1000
,
0001
0000
0011
0000
0010
0100
1000
0000
,
1001
0001
0100
0110
,
0010
1000
0001
1000
0100
0000
0110
0000
,
0010
0000
0001
0000
1000
0010
0100
0000
,
0101
0000
0001
1000
0100
1000
0010
0000
,
0110
0000
0000
0000
0100
0000
0001
0000
1000
0000
0001
0000
0010
0000
0000
0010
,
0000
0010
0000
0000
1001
0000
1000
0000
,
1000
1000
0000
0010
,
0010
0200
0000
0001
,
0001
0001
0001
0001
,
0001
0000
0301
0000
1001
0000
1000
0010
,
0000
0100
0000
0100
0000
0000
0001
0000
0000
0000
1000
0000
0100
0000
0010
0000
,
0000
0001
0000
0001
0000
0100
0000
1000
0000
0100
0010
0000
0000
0000
0100
0000
,
0000
0001
0000
0001
0000
0000
1000
0000
0000
0000
0100
0000
0010
0000
0001
0000
,
0000
0100
0000
0100
0000
1000
0000
0100
0000
0001
0000
1000
0001
0000
1000
0100
,
0000
1000
0010
1000
0000
0000
0001
0000
0000
0010
0000
0100
0000
0000
1000
0000
,
0000
0100
0000
0100
0000
0001
0000
0100
0000
1000
0001
0000
0000
0000
1000
0000
,
0000
0100
0000
0100
0000
0000
0010
0000
0000
0000
0001
0000
0000
0000
0100
0000
,
0000
0010
0000
0010
2000
0000
0000
0000
0000
0000
0000
0000
3002
0000
0000
0000
,
0000
0000
0000
0000
,
0000
0000
0000
0000
,
0000
0000
0000
0000
,
0000
0000
0000
0000
,
0000
0000
0000
0000
,
0000
0000
0000
0000
,
0000
0000
0000
0000
,
0000
0000
0000
1003
,
0010
1000
0000
0001
,
0010
0001
0000
1000
,
0100
1000
0000
0001
,
0100
0001
0000
1000
,
0100
0010
0100
1000
,
0001
0100
0010
1000
,
0000
1001
0001
0010
,
0100
1100
1000
0001
,
0100
1010
0001
0010
,
0100
0110
0010
0001
,
1000
0010
0100
0000
0010
0000
0100
0000
,
0001
1001
1000
0100
,
0010
0001
1000
0000
0010
0000
0100
0000
,
0001
1001
1000
0100
,
0010
0011
0001
1000
,
0010
0110
0100
0001
,
1000
0001
0100
0000
0001
0000
1000
0000
,
0100
0011
1100
1000
,
0001
0100
0010
0000
1000
0000
0100
0000
,
0010
0001
1000
0000
0010
0000
0100
0000
,
0001
0010
0010
0010
,
0010
0100
0100
0100
,
1000
0101
0100
0010
,
1000
0011
0010
0100
,
1000
0101
0100
0010
,
1000
0011
0001
1000
,
0010
0100
0001
0000
1000
0000
0100
0000
,
0010
0011
0001
1000
,
0010
0110
1000
0001
,
0010
0100
0000
1000
,
0000
0000
0010
0100
0001
0000
1000
0000
,
0100
0000
0011
0000
1000
0000
0010
0100
,
0001
1000
0100
0010
,
0001
0100
0010
0000
1001
0000
1000
0100
,
0010
0011
0001
0011
,
0001
1010
1000
1010
,
1000
0101
0001
0101
,
0001
1000
1000
1000
,
0110
0001
0001
0001
,
0000
0000
0200
0000
0000
0300
0000
0000
;

//---------------dance-single - ----------------
#NOTES:
     dance-single:
     :
     Medium:
     14:
     0.643326,0.898916,0.125284,0.055682,0.174006,647.000000,629.000000,18.000000,8.000000,0.000000,0.000000,0.643326,0.898916,0.125284,0.055682,0.174006,647.000000,629.000000,18.000000,8.000000,0.000000,0.000000:
0000
0000
0000
0000
,
0000
0000
0000
0000
,
0000
0000
0000
0000
0000
0000
0000
0000
1000
0000
1000
0001
0000
0000
0001
0010
,
0100
0000
0010
2000
0000
0000
0000
0000
3010
0000
0100
1000
0000
0000
0001
0100
,
0010
0000
0010
2000
0000
0000
0000
0000
3100
0000
0000
0000
0010
0000
0000
0000
,
0100
0000
0010
0001
1000
0000
1000
0010
,
0100
0000
0010
0000
0100
0000
0001
0100
,
0010
0000
0010
1000
0100
0000
0100
0010
,
0001
0000
0100
0000
0010
0000
1000
0001
,
0010
0000
0100
1000
0001
0000
0001
0100
,
0010
0000
0010
1000
0001
0010
0001
0010
,
0100
1000
0100
1000
0010
0000
0010
0100
,
0000
0000
0000
0000
0001
1000
0001
0000
,
0100
0010
0100
0010
0000
1000
0000
0100
,
0010
0001
0010
0000
0100
1000
0001
0000
,
0100
0010
1000
0010
0000
0100
0000
0001
,
1000
0100
0010
0100
1000
0001
0100
0000
,
0010
1000
0001
1000
0000
0001
0000
0010
,
0100
1000
0010
0000
0100
0001
0010
0000
,
0100
1000
0100
0010
0000
0001
1000
0010
,
0100
0010
1000
0000
1001
0000
0001
0000
,
1000
0100
0010
0000
1001
0000
0001
0000
,
1000
0010
0100
0000
1001
0000
0001
0000
,
0010
0100
1000
0000
1001
0000
0001
0000
,
0100
0010
1000
0000
0001
0010
0001
0010
,
0100
1000
0100
1000
0010
0100
0001
1000
,
0100
0010
0001
1000
0010
0000
0100
0100
,
0001
0001
1000
1000
0100
0100
0010
0000
,
0001
0001
0100
0100
0010
0000
1000
1000
,
0100
0100
0010
0010
0001
0000
0101
0000
,
1010
0000
0101
0000
1001
0000
1000
0010
,
0100
0010
1000
0010
0100
0000
0001
0010
,
0100
0010
0001
1000
0010
0000
0100
0001
,
1000
0001
0100
0010
1000
0100
0010
0001
,
0010
0100
1000
0100
0010
0001
1000
0010
,
0100
0010
1000
0001
0010
0000
0100
1000
,
0100
0010
0001
0100
0010
1000
0001
0010
,
0100
0000
1000
0000
0010
0000
0100
0000
0001
0000
1000
0000
0100
0000
0000
0100
,
0000
0100
0010
0010
0001
1000
0020
0000
,
0030
0000
1010
0000
0101
0000
0001
0001
,
1000
0000
0100
0010
0100
1000
0001
0000
,
0100
0010
1000
0100
0010
0001
1000
0000
,
0010
0100
0001
0100
0010
1000
0100
0000
,
0010
0100
1000
0010
0100
0001
1000
0000
,
0100
0010
0001
1000
0010
0100
0001
0000
,
0010
0100
1000
0010
0100
0001
1000
0000
,
0100
0000
0010
0000
0001
0000
1000
0000
0010
0000
0100
0000
0001
0000
0000
0001
,
0000
0001
1000
1000
0100
0000
0010
0000
,
0010
0000
0010
0000
0001
1000
0010
0000
,
0010
0100
0002
0000
0000
0000
0100
0000
,
0100
0000
0100
0000
0103
0010
1000
0000
,
1000
0000
1000
0000
1001
0000
0001
0001
,
1000
0010
0000
0010
0100
0001
1000
0000
0100
0010
0000
0010
0100
0000
0100
0000
,
1000
0001
0000
0100
0000
1000
0000
0100
0000
0001
1000
0100
0010
0000
0010
0000
,
0001
0100
0000
0100
0010
1000
0001
0000
1000
0001
0000
0001
1000
0000
1000
0000
,
0100
0010
0000
0001
0000
0100
0000
1000
0000
0100
0010
0100
0001
0000
1000
0100
,
0001
0100
1000
0001
0000
0100
0010
0000
1000
0001
0000
0001
0010
0000
0010
0000
,
0100
1000
0000
0010
0000
0001
0000
0010
0000
1000
0001
1000
0100
0000
0100
0000
,
0010
0001
0000
0001
1000
0010
0100
0000
0010
0100
0000
0100
0001
0000
0001
0000
,
0010
0100
0000
0100
2000
0000
0001
0000
0000
0000
0000
0000
3002
0000
0000
0000
,
0000
0000
0000
0000
,
0000
0000
0000
0000
,
0000
0000
0000
0000
,
0000
0000
0000
0000
,
0000
0000
0000
0000
,
0000
0000
0000
0000
,
0000
0000
0000
0000
,
0000
0000
0000
0103
,
0010
0100
0010
1000
,
0010
1000
0010
1000
,
0100
1000
0100
0010
,
0001
0000
0010
0000
0001
0000
1000
0010
,
1000
0010
1000
0010
1000
0010
0100
0001
,
0100
0001
0100
0001
0100
0001
1000
0000
,
0100
0010
0001
1000
0010
0000
0100
0001
,
1000
0001
0100
0000
0010
0000
1000
0100
,
0010
0000
0100
1000
0001
0000
0100
0010
,
1000
0010
0100
0000
0001
0000
1000
0100
,
0010
0100
1000
0001
0100
0000
0001
0010
,
0100
0010
0001
0000
1000
0010
0100
0001
,
0010
0000
1000
0010
0001
0000
1000
0010
,
0100
0001
1000
1000
0100
0000
0001
0100
,
1000
0100
0010
0001
1000
0000
0010
0100
,
0001
0100
0010
0000
1000
0000
0001
0010
,
0100
0000
1000
0001
0100
0000
0010
1000
,
0001
1000
0020
0000
0130
0000
0001
1000
,
0100
0010
0100
1000
0001
0000
0100
0010
,
1000
0100
0010
0000
0100
0000
1000
0001
,
0100
0001
0010
0000
0110
0000
0110
0000
,
0100
1000
0010
0000
0110
0000
0110
0000
,
0100
0001
1000
0100
0010
0000
0001
0010
,
1000
0010
0001
0000
1000
0000
0010
0100
,
0001
0000
1000
0100
0010
0000
0001
0100
,
1000
0100
0001
0000
1000
0000
0100
0010
,
0001
1000
0010
0100
0001
0000
1000
0100
,
0001
0100
1000
0000
0001
0000
0100
0010
,
1000
0000
0001
0100
1000
0000
0001
0010
,
1000
0000
0100
0000
0010
0000
0000
0010
0000
0000
0010
0000
0001
0000
1000
0000
,
0010
0000
0100
0001
1000
0000
0001
0010
,
1000
0010
0001
0000
1000
0000
0010
0100
,
0001
0000
0010
0100
1000
0000
0001
0100
,
1000
0100
0001
0000
1000
0000
0100
0010
,
0001
1000
0001
0000
0001
0000
0001
0100
,
1000
0001
0010
0000
0100
0010
1000
0000
,
0001
0000
1000
0100
0001
0000
1000
0010
,
0001
1000
0010
0000
1010
0000
1001
0000
,
0011
0010
0010
0010
,
0001
1000
0020
0000
0000
0030
0000
0000
;

//---------------dance-single - ----------------
#NOTES:
     dance-single:
     :
     Hard:
     17:
     0.815343,1.178631,0.765628,0.250569,0.379334,820.000000,710.000000,110.000000,36.000000,1.000000,0.000000,0.815343,1.178631,0.765628,0.250569,0.379334,820.000000,710.000000,110.000000,36.000000,1.000000,0.000000:
0000
0000
0000
0000
,
0000
0000
0000
0000
,
0000
0000
0000
0000
0000
0000
0000
0000
1000
0000
1000
0020
0000
0000
0130
0001
,
0010
0000
0010
2000
0000
0000
0000
0000
3010
0000
0010
0001
0000
0000
0100
0010
,
1000
0000
1000
0200
0000
0000
0000
0000
0310
0000
0000
0000
0010
0000
0000
0000
,
0010
0000
0001
0100
0010
0000
0010
1000
,
0001
0000
0001
0000
0010
0000
0010
0100
,
1000
0000
0001
0100
0010
0000
0010
0001
,
0010
0000
0100
0000
0001
1000
0010
1000
,
0001
0010
0100
0010
0001
1000
0010
0100
,
0001
0000
1000
0000
0100
0000
0010
0000
0001
1000
0001
0000
0100
0010
0100
0000
,
0001
1000
0001
0000
1000
0100
1000
0100
0010
0000
0000
0000
0010
0000
0001
0000
,
0000
0000
0000
0000
0010
0001
0100
0000
,
0010
1000
0010
2000
0000
3010
0000
1000
,
0100
0100
2000
0000
3010
1000
0100
0000
,
0010
0001
0100
0002
0000
0103
0000
0001
,
0010
0010
0100
1000
0001
0100
0010
0000
,
0100
0001
0100
0002
0000
0103
0000
0001
,
0010
0001
0200
0000
1300
0100
0001
0000
,
0010
0100
1000
0020
0000
0130
0001
0001
,
0010
0100
1000
0000
1001
0000
0201
0000
,
0310
1000
0001
0000
1001
0000
1200
0000
,
1300
0001
0100
0000
0110
0000
1020
0000
,
1030
0001
0010
0000
0110
0000
1200
0000
,
0310
0001
1000
0000
0010
0010
0100
0100
,
0001
0000
0001
0000
1000
0000
1000
0000
0100
1000
0100
0000
1000
0001
1000
0000
,
0001
0000
0100
0000
0001
0000
0000
0000
1000
0000
0010
0000
1000
0000
0010
0000
0200
0300
0000
0000
0000
0000
0000
0000
0101
0000
0000
0000
0001
0000
0000
0000
,
1000
1000
0100
0100
0010
0010
0011
0000
,
0101
0000
0001
0000
0100
0000
0100
0000
0010
0000
0000
0000
1001
0000
1000
0001
,
0010
0010
0100
0100
1100
0000
0110
0000
,
1001
0000
0110
0000
0001
1000
0100
0001
,
0100
1000
0001
1000
1100
0100
0010
1000
,
0010
0000
0001
0000
1000
0000
0001
1000
0001
0000
0100
0000
0100
0000
1000
0000
,
0100
0000
0001
0000
1001
0000
1000
0000
0100
0000
0010
0100
1000
0000
0001
0100
,
0001
0000
0100
0000
1000
0000
0001
0000
0010
0000
1000
0000
0001
0000
0010
0100
,
1000
0100
0001
0100
1100
1000
0001
0100
,
1000
0000
0100
0000
0001
0000
1000
0100
1000
0000
0001
0000
0001
0000
0100
0000
,
1000
0000
0100
0000
0001
0000
0001
0000
0010
0000
0100
1000
0001
0000
0000
0101
,
0000
0101
0100
0010
1000
0001
0202
0000
,
0000
0303
0022
0033
2200
3300
1001
0001
,
0100
0001
0000
0000
1000
0001
0000
0000
1000
0100
1000
0000
0001
0100
0000
0000
,
0001
1000
0000
0000
0100
1000
0000
0000
0001
0100
0001
0000
1000
0010
0000
0000
,
1000
0001
0000
0000
0010
0001
0000
0000
1000
0010
1000
0000
0001
0010
0000
0000
,
0001
0000
0001
0100
0001
0000
0010
0000
1000
0000
0010
0000
0001
0010
0000
0000
,
0001
0100
0000
0000
0010
1000
0000
0000
0001
1000
0001
0000
1000
0100
0000
0000
,
1000
0001
0000
0000
1000
0010
0000
1000
0010
0000
0001
0000
0010
0100
0000
0000
,
0001
0100
0000
0000
0010
0000
0010
1000
0010
0000
0001
0000
0010
0000
0000
0110
,
0000
1010
1010
1001
1000
0100
0010
0000
,
0010
0000
0010
0000
0001
0100
0010
0000
,
0010
0000
0000
0000
0000
0000
0000
0000
0000
0000
0000
0000
1000
0000
0000
0000
0000
0000
0000
0000
0000
0000
0000
0000
0001
0000
0000
0000
0000
0000
0000
0000
0000
0000
0000
0000
0020
0000
0000
0000
0000
0000
0000
0000
0000
0000
0000
0000
0000
0000
0000
0000
0000
0000
0000
0000
0000
0000
0000
0000
0000
0000
0000
0000
0000
0000
0000
0000
0000
0000
0000
0000
0130
0000
0000
0000
0000
1000
0000
0000
0000
0000
0000
0000
0000
0000
0000
0000
0000
0000
0000
0000
0000
0000
0000
0000
,
0001
0000
0000
0000
0000
0010
0000
0000
0000
0000
0000
0000
0000
0000
0000
0000
0000
0000
0000
0000
0000
0000
0000
0000
0001
0000
0000
0000
0000
1000
0000
0000
0000
0000
0000
0000
0000
0000
0000
0000
0000
0000
0000
0000
0000
0000
0000
0000
0001
0000
0000
0000
0000
0100
0000
0000
0000
0000
0000
0000
0001
0000
0000
0000
0000
0000
0000
0000
0000
0000
0000
0000
0001
0000
0000
0000
0000
0100
0000
0000
0000
0000
0000
0000
0000
0000
0000
0000
0000
0000
0000
0000
0000
0000
0000
0000
,
0010
0000
0000
0000
0000
1000
0000
0000
0000
0000
0000
0000
0000
0000
0000
0000
0000
0000
0000
0000
0000
0000
0000
0000
0002
0000
0000
0000
0000
0010
0000
0000
0000
0000
0000
0000
0000
0000
0000
0000
0000
0000
0000
0000
0000
0000
0000
0000
1003
0000
0000
0000
0000
0000
0000
0000
0000
0000
0000
0000
0000
0000
0000
0000
0000
0000
0000
0000
0000
0000
0000
0000
0001
0000
0000
0000
0000
0000
0100
0000
0000
0000
0000
0000
0001
0000
0000
0000
0000
0000
0000
0000
0000
0000
0000
0000
,
0010
1000
0010
0001
0010
0100
2000
0000
3001
0100
0010
0100
0001
0010
0100
0000
,
1000
0010
0001
0010
1000
0100
0001
0100
1000
0001
0200
0000
0310
1000
0100
0000
,
0010
0001
0100
1000
0100
0001
2000
0000
3100
1000
0100
0010
0100
1000
0001
0000
,
0100
0010
1000
0100
0010
1000
0010
0001
0100
0010
1000
0001
0100
1000
0001
0010
,
1000
0001
1000
0100
0000
1000
0002
0000
0103
0010
0100
0001
0100
0010
1000
0000
,
0001
0010
0100
1000
0010
0001
0010
1000
0100
0010
0002
0000
0103
0010
1000
0000
,
0100
0010
0100
1000
0010
0001
0020
0000
0130
0001
1000
0001
0100
0010
1000
0000
,
0001
0010
0100
1000
0020
0000
0000
0000
0100
0000
0000
0000
2030
0000
0000
0000
,
0000
0000
0000
0000
,
0000
0000
0000
0000
,
0000
0000
0000
0000
,
0000
0000
0000
3200
,
0000
0000
0000
0000
,
0000
0000
0000
0320
,
0000
0000
0000
0000
,
0000
0000
0000
0031
,
1000
0001
1000
0010
,
0100
0010
0100
0001
,
1000
0100
0010
0100
,
1000
0000
0001
0000
0100
0000
0010
1000
,
0010
1000
0001
0010
0001
0010
0100
1000
,
0010
0000
0000
0000
0100
0000
0000
0000
0001
0000
0000
0000
0010
0000
0000
0000
0100
0000
0000
0000
1000
0000
0000
0000
0020
0030
0000
0000
0000
0000
0000
0000
,
1000
0001
0011
0010
0100
0000
1100
1000
,
0001
1000
1001
0000
0101
0000
0101
0001
,
1000
0000
1100
0100
0010
0000
0011
0001
,
1000
0010
1010
0000
1001
0000
0011
0001
,
0100
0100
0110
0010
1000
0000
1100
0100
,
0010
0100
1100
0000
1001
0000
0101
0100
,
0010
0010
0001
0010
1000
0000
1100
0100
,
0010
0000
0001
0000
0100
0000
0010
1000
0001
0000
0001
0000
0010
0000
1000
0000
,
0010
0001
1001
1000
0001
0000
0101
0100
,
0010
0100
0101
0000
1001
0000
1100
0100
,
0010
0010
0011
0001
1000
0000
1010
0010
,
0100
0001
0202
0303
1100
0000
1010
1000
,
0001
0000
0001
1000
0010
0000
0100
0000
0001
0000
0000
0000
0011
0000
0010
0000
,
0100
0010
0011
0000
0101
0000
0100
1000
,
0100
0001
1001
0000
1001
0000
1001
0000
,
1000
0100
0110
0000
0110
0000
0110
0000
,
1001
0001
0101
0000
1010
0000
1100
0100
,
0010
0001
0101
0000
1001
0000
1100
1000
,
0001
0100
0110
0010
1000
0000
0101
0100
,
1000
0100
0001
0000
1001
0000
1100
0100
,
0010
0010
0011
0001
0100
0000
1000
0100
,
0001
1000
0100
0000
0110
0000
0011
0001
,
0100
0000
0100
0000
1000
0000
0100
0010
1000
0000
0000
0000
0100
0000
0001
0000
,
0100
0000
1000
0000
1001
0000
0000
1001
0000
0000
1001
0000
0001
0000
0100
0000
,
0110
0010
1010
1010
1001
0000
0011
0010
,
0001
1000
1010
0000
0101
0000
1001
1000
,
0010
0000
0101
0001
1000
0000
1100
0100
,
0001
0100
1000
0000
1001
0000
0101
0101
,
1001
1001
1100
0000
0011
0000
1100
1000
,
0001
0100
0101
0000
1001
0000
1100
0000
,
0101
0000
0011
0000
1100
0000
1010
1000
,
0100
0010
0011
0000
1100
0000
1010
0000
,
0101
0100
0100
0100
,
0001
1000
0200
0000
0000
0300
0000
0000
,
0000
0000
0000
0000
,
0000
00M0
0000
0000
;

//---------------dance-single - ----------------
#NOTES:
     dance-single:
     jumps much...:
     Edit:
     18:
     0.885940,1.178631,1.238925,0.278410,0.323652,891.000000,713.000000,178.000000,40.000000,1.000000,0.000000,0.885940,1.178631,1.238925,0.278410,0.323652,891.000000,713.000000,178.000000,40.000000,1.000000,0.000000:
0000
0000
0000
0000
,
0000
0000
0000
0000
,
0000
0000
0000
0000
0000
0000
0000
0000
1000
0000
1000
0020
0000
0000
0130
0001
,
0010
0000
0010
2000
0000
0000
0000
0000
3010
0000
0010
0001
0000
0000
0100
0010
,
1000
0000
1000
0200
0000
0000
0000
0000
0310
0000
0000
0000
0010
0000
0000
0000
,
0010
0000
0001
0100
0010
0000
0010
1000
,
0001
0000
0001
0000
0010
0000
0010
0100
,
1000
0000
0001
0100
0010
0000
0010
0001
,
0010
0000
0100
0000
0001
1000
0010
1000
,
0001
0010
0100
0010
0001
1000
0010
0100
,
0001
0000
1000
0000
0100
0000
0010
0000
0001
1000
0001
0000
0100
0010
0100
0000
,
0001
1000
0001
0000
1000
0100
1000
0100
0010
0000
0000
0000
0010
0000
0001
0000
,
0000
0000
0000
0000
0010
0001
0100
0000
,
0010
1000
0010
2000
0000
3010
0000
1000
,
0100
0100
2000
0000
3010
1000
0100
0000
,
0010
0001
0100
0002
0000
0103
0000
0001
,
0010
0010
0100
1000
0001
0100
0010
0000
,
0100
0001
0100
0002
0000
0103
0000
0001
,
0010
0001
0200
0000
1300
0100
0001
0000
,
0010
0100
1000
0020
0000
0130
0001
0001
,
0010
0100
1000
0000
1001
0000
0201
0000
,
0310
1000
0001
0000
1001
0000
1200
0000
,
1300
0001
0100
0000
0110
0000
1020
0000
,
1030
0001
0010
0000
0110
0000
1200
0000
,
0310
0001
1000
0000
0010
0010
0100
0100
,
0001
0000
0001
0000
1000
0000
1000
0000
0100
1000
0100
0000
1000
0001
1000
0000
,
0001
0000
0100
0000
0001
0000
0000
0000
1000
0000
0010
0000
1000
0000
0010
0000
0200
0300
0000
0000
0000
0000
0000
0000
0101
0000
0000
0000
0001
0000
0000
0000
,
1001
1000
1100
0100
0110
0010
0011
0000
,
0101
0000
0100
0000
0110
0000
0010
0000
1010
0000
0000
0000
1001
0000
1000
0001
,
0010
0010
0110
0100
1001
0000
0110
0000
,
1001
0000
0110
0000
1001
0001
0011
0010
,
1000
0010
0001
1000
0010
0010
0110
0100
,
1000
0000
0100
0000
0001
0000
1000
0100
1000
0000
1000
0000
1001
0000
0001
0000
,
0100
0000
1000
0000
0100
0000
0100
0000
0001
0000
0010
0100
1000
0000
0001
0100
,
0001
0000
0100
0000
0010
0000
0001
0000
0010
0000
0110
0000
1001
0000
1000
0100
,
0010
1000
0010
0001
1000
1000
1010
0010
,
0001
0000
0010
0000
0100
0000
0001
1000
0100
0000
0100
0000
0110
0000
0010
0000
,
1000
0000
0010
0000
0001
0000
1000
0000
1000
0000
0010
0100
0001
0000
0000
0101
,
0000
1001
1000
0100
0110
0001
2002
0000
,
0000
3003
2020
3030
0202
0303
1001
1000
,
1100
0000
0100
0000
0010
0000
0001
0000
0100
0010
1000
0000
1010
0000
0000
0000
,
1001
0000
0001
0000
0010
0000
0100
0000
1000
0010
0100
0000
0101
0000
0000
0000
,
1001
0000
0001
0000
0010
0000
0100
0000
0010
0001
1000
0000
1010
0000
0000
0000
,
0110
0000
0010
0100
0001
0000
0101
0000
1001
0000
1000
0000
1100
0000
0000
0000
,
0110
0000
0010
0000
0001
0000
1000
0000
0010
0100
0001
0000
1001
0000
0000
0000
,
1100
0000
1000
0000
0001
0100
0000
0010
1000
0000
1010
0000
1001
0000
0000
0000
,
0011
0000
0010
0000
0100
0000
1000
0001
0100
0000
0110
0000
1001
0000
0000
1001
,
0000
1001
0101
1001
1000
0100
0010
0000
,
0010
0000
0010
0000
0001
0100
0010
0000
,
0010
0000
0000
0000
0000
0000
0000
0000
0000
0000
0000
0000
1000
0000
0000
0000
0000
0000
0000
0000
0000
0000
0000
0000
0001
0000
0000
0000
0000
0000
0000
0000
0000
0000
0000
0000
0020
0000
0000
0000
0000
0000
0000
0000
0000
0000
0000
0000
0000
0000
0000
0000
0000
0000
0000
0000
0000
0000
0000
0000
0000
0000
0000
0000
0000
0000
0000
0000
0000
0000
0000
0000
0130
0000
0000
0000
0000
1000
0000
0000
0000
0000
0000
0000
0000
0000
0000
0000
0000
0000
0000
0000
0000
0000
0000
0000
,
0001
0000
0000
0000
0000
0010
0000
0000
0000
0000
0000
0000
0000
0000
0000
0000
0000
0000
0000
0000
0000
0000
0000
0000
0001
0000
0000
0000
0000
1000
0000
0000
0000
0000
0000
0000
0000
0000
0000
0000
0000
0000
0000
0000
0000
0000
0000
0000
0001
0000
0000
0000
0000
0100
0000
0000
0000
0000
0000
0000
0001
0000
0000
0000
0000
0000
0000
0000
0000
0000
0000
0000
0001
0000
0000
0000
0000
0100
0000
0000
0000
0000
0000
0000
0000
0000
0000
0000
0000
0000
0000
0000
0000
0000
0000
0000
,
0010
0000
0000
0000
0000
1000
0000
0000
0000
0000
0000
0000
0000
0000
0000
0000
0000
0000
0000
0000
0000
0000
0000
0000
0002
0000
0000
0000
0000
0010
0000
0000
0000
0000
0000
0000
0000
0000
0000
0000
0000
0000
0000
0000
0000
0000
0000
0000
1003
0000
0000
0000
0000
0000
0000
0000
0000
0000
0000
0000
0000
0000
0000
0000
0000
0000
0000
0000
0000
0000
0000
0000
0001
0000
0000
0000
0000
0000
0100
0000
0000
0000
0000
0000
0001
0000
0000
0000
0000
0000
0000
0000
0000
0000
0000
0000
,
0010
1000
0010
0001
0010
0100
2000
0000
3001
0100
0010
0100
0001
0010
0100
0000
,
1000
0010
0001
0010
1000
0100
0001
0100
1000
0001
0200
0000
0310
1000
0100
0000
,
0010
0001
0100
1000
0100
0001
2000
0000
3100
1000
0100
0010
0100
1000
0001
0000
,
0100
0010
1000
0100
0010
1000
0010
0001
0100
0010
1000
0001
0100
1000
0001
0010
,
1000
0001
1000
0100
0000
1000
0002
0000
0103
0010
0100
0001
0100
0010
1000
0000
,
0001
0010
0100
1000
0010
0001
0010
1000
0100
0010
0002
0000
0103
0010
1000
0000
,
0100
0010
0100
1000
0010
0001
0020
0000
0130
0001
1000
0001
0100
0010
1000
0000
,
0001
0010
0100
1000
0020
0000
0000
0000
0100
0000
0000
0000
2030
0000
0000
0000
,
0000
0000
0000
0000
,
0000
0000
0000
0000
,
0000
0000
0000
0000
,
0000
0000
0000
3200
,
0000
0000
0000
0000
,
0000
0000
0000
0320
,
0000
0000
0000
0000
,
0000
0000
0000
0031
,
1000
0001
1000
0010
,
0100
0010
0100
0001
,
1000
0100
0010
0100
,
1000
0000
0001
0000
0100
0000
0010
1000
,
0010
1000
0001
0010
0001
0010
0100
1000
,
0010
0000
0000
0000
0100
0000
0000
0000
0001
0000
0000
0000
0010
0000
0000
0000
0100
0000
0000
0000
1000
0000
0000
0000
0020
0030
0000
0000
0000
0000
0000
0000
,
1000
0001
0011
0010
0110
0000
1100
1000
,
0001
1000
1001
0000
0101
0100
0101
0001
,
1001
0000
1100
0100
0110
0000
0011
0001
,
1000
0010
1010
0000
1001
0001
0011
0001
,
0101
0101
0110
0010
1010
0000
1100
0100
,
0010
0100
1100
0000
1001
0001
0101
0100
,
0110
0110
1010
1000
1001
0000
1100
0100
,
0110
0000
0010
0000
1001
0000
0001
1000
0010
0000
0010
0000
0110
0000
1000
0000
,
0110
1000
1001
1000
1010
0000
0101
0100
,
0010
0100
0101
0000
1001
1000
1100
0100
,
0110
0110
0011
0001
1000
0000
1010
0010
,
0100
0001
0202
0303
1100
0000
1010
1010
,
1001
0000
0001
1000
0010
0000
0100
0000
0101
0000
0000
0000
0011
0000
0001
0000
,
1001
1001
0011
0000
0011
0000
0110
0001
,
0110
0001
1001
0000
1001
0000
1001
0000
,
1000
0100
0110
0000
0110
0000
0110
0000
,
1001
0001
0101
0100
1010
0000
1100
0100
,
0010
0001
0101
0000
1001
0001
1100
1000
,
1001
0001
0101
0100
0010
0000
0101
0100
,
1000
0100
0101
0000
1001
1000
0011
0010
,
0110
0110
1100
1000
1001
0000
0101
0100
,
1000
0100
0101
0000
1010
1000
0011
0001
,
0101
0000
0101
0000
0100
0000
0010
0100
1000
0000
0000
0000
0110
0000
0001
0000
,
0110
0000
1000
0000
1001
0000
0000
1001
0000
0000
1001
0000
0001
0000
0100
0000
,
0110
0010
1010
1010
1001
0000
0011
0010
,
0100
1000
1010
0000
0101
0000
1001
1000
,
0220
0330
0101
0001
1001
0000
1100
0100
,
0001
0100
2200
3300
1001
0001
0101
0101
,
1001
1001
1100
0000
0011
0000
1100
1000
,
0001
0100
0101
0000
1001
0000
1100
0000
,
0101
0000
0011
0000
1100
0000
1010
1000
,
0100
0010
0011
0000
1100
0000
1010
0000
,
0101
0100
0100
0100
,
0001
1000
0200
0000
0000
0300
0000
0000
,
0000
0000
0000
0000
,
0000
00M0
0000
0000
;
