#VERSION:0.83;
#TITLE:Ignite;
#SUBTITLE:;
#ARTIST:K-391 feat. Alan Walker, Julie Bergan & Seungri;
#TITLETRANSLIT:;
#SUBTITLETRANSLIT:;
#ARTISTTRANSLIT:;
#GENRE:;
#ORIGIN:Single Release (2018);
#TAGS:;
#CREDIT:skeleton made by Braeden;
#BANNER:Ignite.png;
#BACKGROUND:Ignite-bg.png;
#PREVIEWVID:;
#JACKET:Ignite-jacket.png;
#CDIMAGE:;
#DISCIMAGE:;
#LYRICSPATH:;
#CDTITLE:../_YSD cdtitles/ysd sale4 cdtitle.png;
#MUSIC:Ignite.ogg;
#OFFSET:0.000000;
#SAMPLESTART:53.154999;
#SAMPLELENGTH:21.333000;
#SELECTABLE:YES;
#DISPLAYBPM:90.000000;
#BPMS:0.000000=90.000000
,95.500000=88.000000
,96.000000=90.000000
;
#STOPS:;
#DELAYS:;
#WARPS:;
#TIMESIGNATURES:0.000000=4=4
;
#TICKCOUNTS:0.000000=4
;
#COMBOS:0.000000=1
;
#SPEEDS:0.000000=1.000000=0.000000=0
;
#SCROLLS:0.000000=1.000000
;
#FAKES:;
#LABELS:0.000000=Song Start
;
#BGCHANGES:;
#KEYSOUNDS:;
#ATTACKS:
;

//---------------dance-single - ----------------
#NOTEDATA:;
#CHARTNAME:;
#CHARTHASH:302353268;
#STEPSTYPE:dance-single;
#BANNER:;
#DESCRIPTION:;
#CHARTSTYLE:;
#DIFFICULTY:Beginner;
#METER:1;
#METERF:0.000000;
#LASTSECONDHINT:128.007568;
#RADARVALUES:0.054184,0.072823,0.022757,0.000000,0.000000,50.000000,47.000000,3.000000,0.000000,0.000000,0.000000,0.000000,0.000000,0.000000,0.054184,0.072823,0.022757,0.000000,0.000000,50.000000,47.000000,3.000000,0.000000,0.000000,0.000000,0.000000,0.000000,0.000000;
#CREDIT:YOSEFU;
#DISPLAYBPM:90.000000;
#NOTES:
// measure 0
0000
0000
0000
0000
,  // measure 1
0000
0000
0000
0000
,  // measure 2
1000
0000
0000
0000
,  // measure 3
0001
0000
0000
0000
,  // measure 4
0100
0000
0000
0000
,  // measure 5
0010
0000
0000
0000
,  // measure 6
1000
0000
0000
0000
,  // measure 7
0001
0000
0000
0000
,  // measure 8
0001
0000
0000
0000
,  // measure 9
0010
0000
0000
0000
,  // measure 10
0100
0000
0000
0000
,  // measure 11
0100
0000
0000
0000
,  // measure 12
1000
0000
0000
0000
,  // measure 13
0001
0000
0000
0000
,  // measure 14
0100
0000
0000
0000
,  // measure 15
0010
0000
0000
0000
,  // measure 16
1000
0000
0000
0000
,  // measure 17
0001
0000
0000
0000
,  // measure 18
0010
0000
0000
0000
,  // measure 19
0100
0000
0000
0000
,  // measure 20
1001
0000
0000
0000
,  // measure 21
1000
0000
0000
0000
,  // measure 22
0010
0000
0000
0000
,  // measure 23
0100
0000
0000
0000
,  // measure 24
0001
0000
0000
0000
,  // measure 25
1000
0000
0000
0000
,  // measure 26
0100
0000
0000
0000
,  // measure 27
0010
0000
0000
0000
,  // measure 28
1001
0000
0000
0000
,  // measure 29
0001
0000
0000
0000
,  // measure 30
0100
0000
0000
0000
,  // measure 31
0010
0000
0000
0000
,  // measure 32
1000
0000
0000
0000
,  // measure 33
0100
0000
0000
0000
,  // measure 34
0010
0000
0000
0000
,  // measure 35
0100
0000
0000
0000
,  // measure 36
1001
0000
0000
0000
,  // measure 37
0001
0000
0000
0000
,  // measure 38
0100
0000
0000
0000
,  // measure 39
0010
0000
0000
0000
,  // measure 40
1000
0000
0000
0000
,  // measure 41
0100
0000
0000
0000
,  // measure 42
0010
0000
0000
0000
,  // measure 43
0001
0000
0000
0000
,  // measure 44
1000
0000
0000
0000
,  // measure 45
0001
0000
0000
0000
,  // measure 46
0100
0000
0000
0000
,  // measure 47
0010
0000
0000
0000
,  // measure 48
1000
0000
0000
0000
;

//---------------dance-single - ----------------
#NOTEDATA:;
#CHARTNAME:;
#CHARTHASH:2027433704;
#STEPSTYPE:dance-single;
#BANNER:;
#DESCRIPTION:;
#CHARTSTYLE:;
#DIFFICULTY:Easy;
#METER:2;
#METERF:0.000000;
#LASTSECONDHINT:128.674240;
#RADARVALUES:0.085610,0.109803,0.015171,0.007586,0.000000,79.000000,77.000000,2.000000,1.000000,0.000000,0.000000,0.000000,0.000000,0.000000,0.085610,0.109803,0.015171,0.007586,0.000000,79.000000,77.000000,2.000000,1.000000,0.000000,0.000000,0.000000,0.000000,0.000000;
#CREDIT:YOSEFU;
#DISPLAYBPM:90.000000;
#NOTES:
// measure 0
0000
0000
0000
0000
,  // measure 1
0000
0000
0000
0000
,  // measure 2
1000
0000
0001
0000
,  // measure 3
1000
0000
0001
0000
,  // measure 4
0100
0000
0010
0000
,  // measure 5
0100
0000
0001
0000
,  // measure 6
0100
0000
0010
0000
,  // measure 7
1000
0000
0001
0000
,  // measure 8
0010
0000
0100
0000
,  // measure 9
1000
0000
0001
0000
,  // measure 10
0100
0000
0010
0000
,  // measure 11
1000
0000
0100
0000
,  // measure 12
0010
0000
0000
0000
,  // measure 13
0001
0000
0000
0000
,  // measure 14
1000
0000
0000
0000
,  // measure 15
0010
0000
0000
0000
,  // measure 16
0100
0000
0000
0000
,  // measure 17
0001
0000
0000
0000
,  // measure 18
1000
0000
0000
0000
,  // measure 19
0100
0000
0000
0000
,  // measure 20
0110
0000
0001
0000
,  // measure 21
1000
0000
0001
0000
,  // measure 22
0100
0000
0010
0000
,  // measure 23
1000
0000
0001
0000
,  // measure 24
0010
0000
0100
0000
,  // measure 25
1000
0000
0010
0000
,  // measure 26
0100
0000
0001
0000
,  // measure 27
1000
0000
0100
0000
,  // measure 28
0010
0000
0001
0000
,  // measure 29
1000
0000
0001
0000
,  // measure 30
0100
0000
0010
0000
,  // measure 31
1000
0000
0100
0000
,  // measure 32
0010
0000
0001
0000
,  // measure 33
1000
0000
0010
0000
,  // measure 34
0100
0000
0001
0000
,  // measure 35
0010
0000
0100
0000
,  // measure 36
1000
0000
0000
0000
,  // measure 37
0100
0000
0000
0000
,  // measure 38
0010
0000
0000
0000
,  // measure 39
0001
0000
0000
0000
,  // measure 40
0100
0000
0000
0000
,  // measure 41
0010
0000
0000
0000
,  // measure 42
1000
0000
0000
0000
,  // measure 43
0100
0000
0010
0000
,  // measure 44
0000
0000
0110
0000
,  // measure 45
0001
0000
1000
0000
,  // measure 46
0010
0000
0100
0000
,  // measure 47
0001
0000
0010
0000
,  // measure 48
0200
0300
0000
0000
;

//---------------dance-single - ----------------
#NOTEDATA:;
#CHARTNAME:;
#CHARTHASH:970072958;
#STEPSTYPE:dance-single;
#BANNER:;
#DESCRIPTION:;
#CHARTSTYLE:;
#DIFFICULTY:Medium;
#METER:5;
#METERF:0.000000;
#LASTSECONDHINT:128.674240;
#RADARVALUES:0.205898,0.219606,0.015171,0.121371,0.000000,190.000000,188.000000,2.000000,16.000000,0.000000,0.000000,0.000000,0.000000,0.000000,0.205898,0.219606,0.015171,0.121371,0.000000,190.000000,188.000000,2.000000,16.000000,0.000000,0.000000,0.000000,0.000000,0.000000;
#CREDIT:YOSEFU;
#DISPLAYBPM:90.000000;
#NOTES:
// measure 0
0000
0000
0000
0000
,  // measure 1
0000
0000
0000
0000
,  // measure 2
0000
1000
0000
1000
0000
0001
0000
0001
,  // measure 3
0000
1000
0000
1000
0000
0100
0000
0100
,  // measure 4
0010
0000
0001
0000
0010
0000
0001
1000
,  // measure 5
0001
0000
0100
0000
0010
0000
1000
0001
,  // measure 6
1000
0000
0100
0000
0010
0000
0001
1000
,  // measure 7
0001
0000
0100
0000
0010
0000
1000
0001
,  // measure 8
0010
0000
0100
0000
1000
0000
0001
0100
,  // measure 9
0010
0000
0100
0000
0001
0000
1000
0100
,  // measure 10
0010
0000
0001
0000
1000
0000
0010
0100
,  // measure 11
0001
0000
1000
0000
0100
0000
0010
0001
,  // measure 12
1000
0010
0200
0300
,  // measure 13
0001
0010
0200
0300
,  // measure 14
1000
0001
0200
0300
,  // measure 15
0010
1000
0200
0300
,  // measure 16
0010
0001
2000
3000
,  // measure 17
0010
0100
0002
0003
,  // measure 18
0010
0100
2000
3000
,  // measure 19
0010
0100
0001
1001
,  // measure 20
1000
0100
0010
0100
,  // measure 21
1000
0001
0100
0010
,  // measure 22
1000
0010
0100
0001
,  // measure 23
1000
0100
0010
0001
,  // measure 24
1001
1000
0001
0100
,  // measure 25
0010
1000
0001
0010
,  // measure 26
0100
0010
0001
1000
,  // measure 27
0010
0100
0002
0003
,  // measure 28
1000
0000
0010
1000
0000
1000
0001
0000
,  // measure 29
1000
0000
0100
0010
0000
0010
0001
0000
,  // measure 30
1000
0000
0001
0100
0000
0100
0010
0000
,  // measure 31
1000
0000
0100
0010
0000
0010
0001
0000
,  // measure 32
1000
0000
0001
0100
0000
0100
0010
0000
,  // measure 33
1000
0000
0001
0010
0000
0010
0100
0000
,  // measure 34
1000
0000
0010
0100
0000
0100
0001
0000
,  // measure 35
0010
0100
0000
0100
1000
0000
0001
0100
,  // measure 36
0010
1000
0200
0300
,  // measure 37
0010
0001
2000
3000
,  // measure 38
0010
0100
0002
0003
,  // measure 39
1000
0100
0020
0030
,  // measure 40
0001
0100
0020
0030
,  // measure 41
1000
0001
0020
0030
,  // measure 42
0100
1000
0020
0030
,  // measure 43
0100
0001
1000
0100
,  // measure 44
0100
0100
0010
0001
,  // measure 45
0100
0010
1000
0100
,  // measure 46
0010
0001
1000
0100
,  // measure 47
1000
0000
0010
0000
0100
0000
0001
1000
,  // measure 48
0020
0030
0000
0000
;

//---------------dance-single - ----------------
#NOTEDATA:;
#CHARTNAME:Musical Escapism;
#CHARTHASH:1120597452;
#STEPSTYPE:dance-single;
#BANNER:;
#DESCRIPTION:;
#CHARTSTYLE:;
#DIFFICULTY:Hard;
#METER:12;
#METERF:0.000000;
#LASTSECONDHINT:128.674240;
#RADARVALUES:0.444305,0.494114,0.000000,0.068271,0.451349,410.000000,410.000000,0.000000,9.000000,0.000000,0.000000,0.000000,0.000000,0.000000,0.444305,0.494114,0.000000,0.068271,0.451349,410.000000,410.000000,0.000000,9.000000,0.000000,0.000000,0.000000,0.000000,0.000000;
#CREDIT:Yosefu Ignites;
#DISPLAYBPM:90.000000;
#NOTES:
// measure 0
0000
0000
0000
0000
,  // measure 1
0000
0000
0000
0000
,  // measure 2
0000
1000
0000
1000
0000
1000
0000
1000
,  // measure 3
0000
0010
0000
0010
0000
0010
0000
0010
,  // measure 4
0200
0000
0001
0000
0000
0000
0010
0000
0000
0000
0001
0000
0301
1000
0010
1000
,  // measure 5
0002
0000
1000
0000
0000
0000
0100
0000
0000
0000
1000
0000
0013
0000
0100
0001
,  // measure 6
0000
0100
2000
0000
0000
0000
0001
0000
0000
0000
0100
0000
3010
0000
0100
1000
,  // measure 7
0000
0100
0002
0000
0000
0000
0100
0000
0000
0000
0013
0100
1000
0000
0001
0000
,  // measure 8
0100
0000
0010
0000
1000
0000
0001
0000
0100
0000
0010
0000
1000
0001
0100
0001
,  // measure 9
1000
0000
0100
0000
0010
0000
0001
0000
1000
0000
0010
0000
0100
0000
0001
0100
,  // measure 10
0000
1000
0100
0000
0010
0000
0100
0000
0001
0000
0100
0000
0010
0000
0001
0010
,  // measure 11
0000
1000
0001
0000
1000
0000
0100
0000
0010
0000
0100
0000
1000
0000
0001
0000
,  // measure 12
0100
0000
0100
0000
0010
0000
0010
0000
1000
0000
0001
1000
0000
0000
0100
0000
,  // measure 13
0010
0000
0010
0000
0001
0000
0001
0000
0100
0000
0010
0100
0000
0000
0010
0000
,  // measure 14
1000
0000
1000
0000
0001
0000
0001
0000
0010
0000
0100
0010
0000
0000
0100
0000
,  // measure 15
0001
0100
1000
0001
0200
0000
0300
0010
,  // measure 16
1000
0000
1000
0000
0001
0000
0001
0000
0010
0000
0100
0010
0000
0000
0100
0000
,  // measure 17
1000
0000
1000
0000
0001
0000
0001
0000
0100
0000
0010
0100
0000
0000
0010
0000
,  // measure 18
1000
1000
0100
0100
0010
0010
0001
0001
,  // measure 19
0100
0000
0000
0000
0000
0000
0000
0000
0000
0000
0000
0000
0000
0000
0000
0000
0000
0000
0000
0000
0000
0000
0000
0000
1000
0000
0000
0000
0000
0000
0000
0000
0000
0000
0000
0000
0000
0000
0000
0000
0000
0000
0000
0000
0000
0000
0000
0000
0100
0000
0000
0000
0000
0000
0000
0000
0000
0000
0000
0000
0000
0000
0000
0000
0000
0000
0000
0000
0000
0000
0000
0000
0001
0000
0000
0000
0000
0000
0000
0000
0000
0000
0000
0000
0000
0000
0000
0000
0000
0000
0000
0000
0000
0000
0000
0000
0100
0000
0000
0000
0000
0000
0000
0000
0000
0000
0000
0000
0000
0000
0100
0000
0000
0000
0000
0000
0000
0000
0000
0000
0010
0000
0000
0000
0000
0000
0000
0000
0000
0000
0000
0000
0000
0000
0000
0000
0000
0000
0000
0000
0000
0000
0000
0000
1000
0000
0000
0000
0000
0000
0000
0000
0000
0000
0000
0000
0000
0000
0000
1000
0000
0000
0000
0000
0000
0000
0000
0000
0100
0000
0000
0000
0000
0000
0000
0000
0000
0000
0000
0000
0000
0000
0010
0000
0000
0000
0000
0000
0000
0000
0000
0000
,  // measure 20
0001
0000
0000
0000
0000
0001
0000
0000
1000
0000
0000
0000
0000
1000
0000
0000
0010
0000
0000
0000
0000
0000
0000
0000
0100
0000
0000
0000
0000
0100
0000
0000
0001
0000
0000
0000
0000
0001
0000
0000
0000
0000
0000
0000
0001
0000
0000
0000
0000
0000
0000
0000
0000
0001
0000
0000
1000
0000
0000
0000
0000
0000
0000
0000
,  // measure 21
1000
0000
0000
0000
0000
1000
0000
0000
0100
0000
0000
0000
0000
0100
0000
0000
0010
0000
0000
0000
0000
0000
0000
0000
0010
0000
0000
0000
0000
0010
0000
0000
0001
0000
0000
0000
0000
0001
0000
0000
0000
0000
0000
0000
0001
0000
0000
0000
0000
0000
0000
0000
0000
0001
0000
0000
0100
0000
0000
0000
0000
0000
0000
0000
,  // measure 22
0100
0000
0000
0000
0000
0100
0000
0000
0010
0000
0000
0000
0000
0010
0000
0000
1000
0000
0000
0000
0000
0000
0000
0000
1000
0000
0000
0000
0000
1000
0000
0000
0001
0000
0000
0000
0000
0001
0000
0000
0000
0000
0000
0000
0001
0000
0000
0000
0000
0000
0000
0000
0000
0010
0000
0000
0100
0000
0000
0000
0000
0000
0000
0000
,  // measure 23
0001
0000
0000
0000
0000
0000
0000
0000
0100
0000
0000
0000
0000
0000
0000
0000
1000
0000
0000
0000
0000
0000
0000
0000
0001
0000
0000
0000
0000
0100
0000
0000
0001
0000
0000
0000
0000
0001
0000
0000
0000
0000
0000
0000
0001
0000
0000
0000
0000
0000
0000
0000
0000
0001
0000
0000
1000
0000
0000
0000
0000
0000
0000
0000
,  // measure 24
1000
0000
0000
0000
0000
0001
0000
0000
1000
0000
0000
0000
0000
0010
0000
0000
1000
0000
0000
0000
0000
0000
0000
0000
0100
0000
0000
0000
0000
0010
0000
0000
0001
0000
0000
0000
0000
0001
0000
0000
0000
0000
0000
0000
0001
0000
0000
0000
0000
0000
0000
0000
0000
1000
0000
0000
0010
0000
0000
0000
0000
0000
0000
0000
,  // measure 25
0100
0000
0000
0000
0000
0001
0000
0000
0010
0000
0000
0000
0000
1000
0000
0000
0010
0000
0000
0000
0000
0000
0000
0000
0001
0000
0000
0000
0000
0100
0000
0000
0010
0000
0000
0000
0000
0010
0000
0000
0000
0000
0000
0000
0010
0000
0000
0000
0000
0000
0000
0000
0000
1000
0000
0000
0001
0000
0000
0000
0000
0000
0000
0000
,  // measure 26
0001
0000
0000
0000
0000
0100
0000
0000
0001
0000
0000
0000
0000
0100
0000
0000
0010
0000
0000
0000
0000
0000
0000
0000
1000
0000
0000
0000
0000
0100
0000
0000
0010
0000
0000
0000
0000
0010
0000
0000
0000
0000
0000
0000
0010
0000
0000
0000
0001
0000
0000
0000
0000
1000
0000
0000
0010
0000
0000
0000
0000
0000
0000
0000
,  // measure 27
0001
0000
0000
0000
0000
0010
0000
0000
0100
0000
0000
0000
0000
0001
0000
0000
1000
0000
0000
0000
0000
0000
0000
0000
0100
0000
0000
0000
0000
0000
0000
0000
0020
0000
0000
0000
0000
0000
0000
0000
0000
0000
0000
0000
0000
0000
0000
0000
0030
0000
0000
0000
0000
0000
0000
0000
0000
0000
0000
0000
0000
0000
0000
0000
,  // measure 28
0001
0000
1000
0010
0000
0100
0000
0010
0000
1000
0000
0001
0010
0000
0100
0000
,  // measure 29
1000
0000
0001
0100
0000
0001
0100
0000
0000
0010
1000
0000
0001
0000
0000
0010
,  // measure 30
0100
0000
1000
0001
0000
0100
0000
0001
0000
1000
0001
0000
0010
0000
0100
0000
,  // measure 31
1000
0000
0001
0100
0000
0001
0100
0000
0000
0010
1000
0000
0001
0000
0010
0000
,  // measure 32
0100
0000
1000
0001
0100
0000
0010
0000
0000
1000
0001
0000
0010
0100
0001
0000
,  // measure 33
0100
0000
1000
0001
0000
0100
0001
0000
1000
0100
0010
0000
0001
0000
0100
0000
,  // measure 34
0010
0000
1000
0001
0010
0000
0100
0000
0000
1000
0001
0000
0100
0000
0001
0000
,  // measure 35
1000
0000
0100
0010
0001
0000
1000
0000
0010
0100
0001
0000
1000
0000
0000
0000
,  // measure 36
0100
0000
0100
0000
0010
0000
0010
0000
0001
0000
0000
0001
0000
0000
0000
0000
,  // measure 37
1000
0000
1000
0000
0010
0000
0010
0000
0100
0000
0000
0100
0000
0000
0000
0000
,  // measure 38
0001
0000
0001
0000
0100
0000
0100
0000
0010
0000
0000
0010
0000
0000
1000
0000
,  // measure 39
0100
0010
0001
0100
0010
0000
0000
0000
,  // measure 40
1000
0000
1000
0000
0100
0000
0100
0010
0000
0000
0001
0000
0001
0000
0100
0010
,  // measure 41
1000
0000
1000
0001
0100
0000
0100
0001
0000
0000
0010
0000
0010
0100
1000
0100
,  // measure 42
1000
0000
1000
0000
0001
0000
0001
0000
0100
0000
0100
0010
1000
0000
0010
0000
,  // measure 43
0001
0010
1000
0100
0020
0000
0031
1000
,  // measure 44
0001
0000
0000
0000
0000
0000
0000
0000
2000
0000
0000
0000
0000
0000
0000
0000
3001
0000
0000
0000
0000
0000
0000
0000
1000
0000
0000
0000
0000
0000
0000
0000
0001
0000
0000
0000
0000
1000
0000
0000
0001
0000
0000
0000
0000
0100
0000
0000
0001
0000
0000
0000
0000
0000
0000
0000
0010
0000
0000
0000
0000
0100
0000
0000
,  // measure 45
1000
0000
0000
0000
0000
1000
0000
0000
0000
0000
0000
0000
1000
0000
0000
0000
0000
0000
0000
0000
0000
0001
0000
0000
0100
0000
0000
0000
0000
0000
0000
0000
0010
0000
0000
0000
0000
1000
0000
0000
0100
0000
0000
0000
0000
0001
0000
0000
0100
0000
0000
0000
0000
0000
0000
0000
1000
0000
0000
0000
0000
0010
0000
0000
,  // measure 46
0100
0000
0000
0000
0000
0100
0000
0000
0000
0000
0000
0000
0100
0000
0000
0000
0000
0000
0000
0000
0000
0001
0000
0000
1000
0000
0000
0000
0000
0000
0000
0000
1000
0000
0000
0000
0000
0010
0000
0000
1000
0000
0000
0000
0000
0010
0000
0000
0100
0000
0000
0000
0000
0000
0000
0000
0001
0000
0000
0000
0000
0010
0000
0000
,  // measure 47
0100
0000
0000
0000
0000
0100
0000
0000
0000
0000
0000
0000
0100
0000
0000
0000
1000
0000
0000
0000
0000
0001
0000
0000
0100
0000
0000
0000
0000
0000
0000
0000
1000
0000
0000
0000
0000
0100
0000
0000
0010
0000
0000
0000
0000
1000
0000
0000
0001
0000
0000
0000
0000
0000
0000
0000
0010
0000
0000
0000
0000
0000
0000
0000
,  // measure 48
0200
0300
0000
0000
;
