#VERSION:0.83;
#TITLE:Idea;
#SUBTITLE:;
#ARTIST:Mordela Morana;
#TITLETRANSLIT:;
#SUBTITLETRANSLIT:;
#ARTISTTRANSLIT:;
#GENRE:;
#ORIGIN:Entropy (2022 Album);
#TAGS:;
#CREDIT:skeleton made by DJEmbrace;
#BANNER:Idea.png;
#BACKGROUND:Idea-bg.png;
#PREVIEWVID:;
#JACKET:Idea-jacket.png;
#CDIMAGE:;
#DISCIMAGE:;
#LYRICSPATH:;
#CDTITLE:../_YSD cdtitles/ysd sale3 cdtitle.png;
#MUSIC:Idea.ogg;
#OFFSET:0.000000;
#SAMPLESTART:13.476000;
#SAMPLELENGTH:21.573000;
#SELECTABLE:YES;
#BPMS:0.000000=178.000000
;
#STOPS:;
#DELAYS:;
#WARPS:;
#TIMESIGNATURES:0.000000=4=4
;
#TICKCOUNTS:0.000000=4
;
#COMBOS:0.000000=1
;
#SPEEDS:0.000000=1.000000=0.000000=0
;
#SCROLLS:0.000000=1.000000
;
#FAKES:;
#LABELS:0.000000=Song Start
;
#BGCHANGES:;
#KEYSOUNDS:;
#ATTACKS:
;
#LASTSECONDHINT:136.179779;

//---------------dance-single - ----------------
#NOTEDATA:;
#CHARTNAME:;
#CHARTHASH:444930792;
#STEPSTYPE:dance-single;
#BANNER:;
#DESCRIPTION:;
#CHARTSTYLE:;
#DIFFICULTY:Hard;
#METER:15;
#METERF:0.000000;
#RADARVALUES:0.686723,0.880085,0.145229,0.297718,0.526453,662.000000,642.000000,20.000000,41.000000,1.000000,0.000000,0.000000,0.000000,0.000000,0.686723,0.880085,0.145229,0.297718,0.526453,662.000000,642.000000,20.000000,41.000000,1.000000,0.000000,0.000000,0.000000,0.000000;
#CREDIT:Yosefu's Eureka Moment;
#NOTES:
// measure 0
0000
0000
0000
0000
,  // measure 1
0000
0000
0000
0000
,  // measure 2
0000
0000
0000
0000
,  // measure 3
0000
0000
0000
0000
,  // measure 4
0000
0000
0000
0000
,  // measure 5
0000
0000
0000
0000
,  // measure 6
2000
0000
0000
0000
,  // measure 7
3020
0000
0000
0000
,  // measure 8
0230
0000
0302
0000
,  // measure 9
0023
0000
0230
0000
,  // measure 10
1300
0000
0001
0200
0000
0310
2000
0000
,  // measure 11
3001
0020
0000
0130
1000
0100
0010
0000
,  // measure 12
0001
0000
0100
0000
0010
0000
1000
0000
0100
0000
0010
0000
0001
0000
1000
0010
,  // measure 13
0100
0000
0001
1000
0200
0000
0320
0000
,  // measure 14
0031
0000
0100
0020
0000
1030
0200
0000
,  // measure 15
0310
0002
0000
0100
0103
0000
0001
0000
,  // measure 16
1000
0000
0010
0000
0100
0000
0001
0000
0010
0000
0100
0000
1000
0000
0001
0100
,  // measure 17
0010
0000
0000
1000
0010
0000
0000
0010
0100
0000
0001
0000
1000
0100
0000
0000
,  // measure 18
0010
0000
0100
2000
0000
3001
0200
0000
,  // measure 19
0310
2000
0000
3001
0010
0100
0010
0000
,  // measure 20
0001
0100
0010
0100
0001
1000
0100
1000
,  // measure 21
0001
0010
0100
0010
0001
1000
0010
0100
,  // measure 22
0001
0000
0100
0020
0000
1030
0200
0000
,  // measure 23
0310
0002
0000
0103
0010
1000
0001
0000
,  // measure 24
1000
0010
0100
0000
0001
0000
1000
0000
0001
0010
0100
0000
1000
0000
0001
0000
,  // measure 25
1000
0010
0100
0000
0001
0000
0010
0000
0100
1000
0001
0000
0100
0000
0010
0000
,  // measure 26
1000
0000
0000
0000
0001
0000
0000
0010
0000
0010
0001
0000
1000
0000
0000
0000
,  // measure 27
0010
0000
0000
0000
0100
0000
0000
0010
0000
0010
1000
0000
0001
0000
1000
0010
,  // measure 28
1000
0000
0000
0000
0001
0000
0000
0010
0000
0010
0100
0000
1000
0000
0000
0000
,  // measure 29
0001
0000
0000
0100
0010
0000
0100
0000
0000
0001
1000
0000
0100
0000
0100
0000
,  // measure 30
0010
0000
0000
0000
0001
0000
0000
1000
0000
1000
0010
0000
0100
0000
0001
0000
,  // measure 31
0010
0000
0100
0000
1000
0000
0000
0010
0000
0010
0100
0000
0001
0000
1000
0100
,  // measure 32
1000
0000
0000
0000
0100
0000
0000
0010
0000
0010
0001
0000
0100
0000
0010
0000
,  // measure 33
1000
0000
0000
0001
0010
0000
0001
0000
0000
1000
0010
0000
1000
0000
1000
0001
,  // measure 34
1000
0000
0010
0100
0001
0100
0000
0010
0000
0010
1000
0000
0001
0000
0010
0000
,  // measure 35
0100
0000
0000
0000
1000
0000
0000
0001
0000
0001
0100
0000
0010
0000
1000
0001
,  // measure 36
1000
0000
0000
0000
0100
0000
0000
0010
0000
0010
0001
0000
1000
0000
0010
0000
,  // measure 37
0100
0010
1000
0001
0010
0100
1000
0010
,  // measure 38
0200
0300
0202
0303
,  // measure 39
2002
3003
2200
3300
,  // measure 40
0110
0010
0001
0100
,  // measure 41
0010
0000
1000
0000
0001
0000
0010
0000
0100
0000
1000
0000
0010
0100
0010
0100
,  // measure 42
0001
0000
1000
0100
0010
0100
0100
0000
,  // measure 43
1000
0001
0100
0001
1000
0000
0001
0000
1000
0000
0100
0000
0020
0000
0000
0000
,  // measure 44
0031
0000
0100
0010
1000
0001
0001
0010
,  // measure 45
0100
1000
0010
1000
0001
0000
0100
0000
0001
0000
0010
0000
0100
0000
1000
0000
,  // measure 46
0001
0000
0100
0010
1000
0001
0001
0000
,  // measure 47
0010
0100
1000
0100
0010
0000
0001
0000
1000
0000
0010
0000
0100
0001
0000
0000
,  // measure 48
1000
0000
0010
0100
0001
0010
0010
0100
,  // measure 49
1000
0010
0100
0001
0010
0000
0100
0000
1000
0000
0001
0000
0100
0000
0010
0000
,  // measure 50
1000
0001
0100
0001
1000
0100
0010
0001
,  // measure 51
1000
0010
0100
0010
1000
0000
0001
0000
0010
0000
0100
0000
1000
0000
0001
0000
,  // measure 52
0100
0010
0100
0001
0010
0100
1000
0001
,  // measure 53
0010
0001
0100
0010
1000
0000
0001
0000
0010
0000
0100
0000
1000
0000
0001
0000
,  // measure 54
0100
0010
0100
0001
1000
0100
0010
0001
,  // measure 55
1000
0010
0100
0010
1000
0000
0001
0000
0010
0000
0100
0000
1000
0000
0001
0000
,  // measure 56
0100
0010
1000
0100
0010
0001
1000
0010
,  // measure 57
0100
0001
0010
0001
1000
0000
0100
0000
0010
0000
0001
0000
1000
0000
0010
0000
,  // measure 58
1000
0000
0001
1000
0000
0000
1000
0010
0000
0000
0010
0100
0000
0000
0100
0001
,  // measure 59
0000
0000
0001
1000
0000
0000
1000
0100
0000
0000
0100
0010
0000
0000
0010
0001
,  // measure 60
1000
0000
0010
0100
0000
0000
0100
0001
0000
0000
0001
1000
0000
0000
1000
0100
,  // measure 61
0000
0000
0100
0010
0000
0000
0010
0001
0000
0000
0001
1000
0000
0000
1000
0010
,  // measure 62
0100
0000
0001
1000
0000
0000
1000
0100
0000
0000
0100
0010
0000
0000
0010
0001
,  // measure 63
0000
0000
0001
0100
0000
0000
0100
0010
0000
0000
0010
1000
0000
0000
1000
0001
,  // measure 64
0010
0000
0100
1000
0001
0000
0100
0000
0010
0000
1000
0001
0010
0000
0100
0000
,  // measure 65
1000
0000
1000
0000
0100
0000
0100
0000
0010
0000
0001
1000
0010
0000
0100
0000
,  // measure 66
0002
0000
1000
0000
,  // measure 67
0023
0000
0230
0000
,  // measure 68
2300
0000
0001
0000
,  // measure 69
3020
0000
0230
0000
,  // measure 70
0302
0000
0100
0000
,  // measure 71
0023
0000
0230
0000
,  // measure 72
2300
0000
0010
0000
,  // measure 73
3002
0000
0023
0000
,  // measure 74
0130
0000
1000
0000
0001
0000
0100
0010
1000
0000
0001
0000
0010
0000
0100
0000
,  // measure 75
1000
0000
0001
0000
0100
0000
0000
0010
1000
0000
0100
0000
0010
0000
0000
0000
,  // measure 76
0001
0000
0100
0000
0010
0000
0100
0001
1000
0000
0100
0000
0010
0000
0001
0000
,  // measure 77
1000
0000
0010
0100
0001
0000
0100
0000
0010
1000
0001
0000
0010
0000
0100
0000
,  // measure 78
1000
0000
0001
0000
0100
0000
0010
1000
0001
0000
0010
0000
0100
0000
1000
0000
,  // measure 79
0001
0000
0100
0000
0010
0000
0000
1000
0100
0000
0010
0000
0001
0000
0000
0000
,  // measure 80
0100
0000
1000
0000
0100
0000
0001
1000
0100
0000
0010
0000
0001
0000
1000
0000
,  // measure 81
0010
0000
0100
0001
1000
0000
0001
0000
0010
0100
1000
0000
0001
0000
0001
0000
,  // measure 82
1000
0000
0000
1000
0000
0000
1010
0000
0000
0010
0000
0000
0100
0000
0000
0000
,  // measure 83
0001
0000
0000
0001
0000
0000
1001
0000
0000
1000
0000
0000
0100
0000
0100
0000
,  // measure 84
0010
0000
0000
0010
0000
0000
0011
0000
0000
0001
0000
0000
1000
0000
0000
0000
,  // measure 85
0010
0000
0000
0010
0000
0000
0110
0000
0000
0100
0000
0000
0001
0000
1000
0000
,  // measure 86
0100
0000
0000
0100
0000
0000
0110
0000
0000
0010
0000
0000
0001
0000
0000
0000
,  // measure 87
0100
0000
0000
0100
0000
0000
0110
0000
0000
0010
0000
0000
1000
0000
0100
0000
,  // measure 88
0010
0000
0000
0010
0000
0000
0011
0000
0000
0001
0000
0000
1000
0000
1000
0000
,  // measure 89
0010
0000
0000
0010
0000
0000
0110
0000
0000
0100
0000
0000
0001
0000
0010
0000
,  // measure 90
0100
0000
1000
0001
0000
0000
0101
0000
0100
0001
0000
0000
1000
0100
0000
0010
,  // measure 91
0001
0000
1000
0010
0000
0000
0110
0000
0100
0001
0000
0000
1000
0100
0000
0010
,  // measure 92
0100
0000
1000
0001
0000
0000
0101
0000
0100
0010
0000
0000
1000
0001
0000
0010
,  // measure 93
0100
0000
0000
0000
1000
0000
0001
0000
0000
0000
0000
0000
0101
0000
0000
0000
0100
0000
0001
0000
0000
0000
1000
0000
0100
0000
0000
0010
0000
0000
0001
0000
,  // measure 94
1000
0000
0010
0100
0000
0000
0101
0000
0001
0010
0000
0100
1000
0001
0000
0100
,  // measure 95
0001
0000
1000
0100
0000
0000
0110
0000
0010
0001
0000
1000
0010
0100
0000
0001
,  // measure 96
1000
0000
0001
0010
0000
0000
0110
0000
0100
1000
0000
0010
0100
0001
0000
1000
,  // measure 97
0010
0000
0100
0001
0000
0000
0011
0000
0000
0010
0001
0000
1000
0001
0010
0200
,  // measure 98
0000
0000
0000
0000
,  // measure 99
0300
0000
0000
0000
;

//---------------dance-single - ----------------
#NOTEDATA:;
#CHARTNAME:;
#CHARTHASH:1038687799;
#STEPSTYPE:dance-single;
#BANNER:;
#DESCRIPTION:;
#CHARTSTYLE:;
#DIFFICULTY:Beginner;
#METER:3;
#METERF:0.000000;
#RADARVALUES:0.143154,0.355810,0.094399,0.000000,0.000000,138.000000,125.000000,13.000000,0.000000,0.000000,0.000000,0.000000,0.000000,0.000000,0.143154,0.355810,0.094399,0.000000,0.000000,138.000000,125.000000,13.000000,0.000000,0.000000,0.000000,0.000000,0.000000,0.000000;
#CREDIT:YOSEFU;
#NOTES:
// measure 0
0000
0000
0000
0000
,  // measure 1
0000
0000
0000
0000
,  // measure 2
0000
0000
0000
0000
,  // measure 3
0000
0000
0000
0000
,  // measure 4
0000
0000
0000
0000
,  // measure 5
0000
0000
0000
0000
,  // measure 6
1000
0000
0000
0000
,  // measure 7
0010
0000
0000
0000
,  // measure 8
0100
0000
0000
0000
,  // measure 9
0001
0000
0000
0000
,  // measure 10
1000
0000
0000
0000
,  // measure 11
0100
0000
0000
0000
,  // measure 12
0010
0000
0000
0000
,  // measure 13
0001
0000
0000
0000
,  // measure 14
1000
0000
0000
0000
,  // measure 15
0010
0000
0000
0000
,  // measure 16
0100
0000
0000
0000
,  // measure 17
0001
0000
0000
0000
,  // measure 18
1000
0000
0000
0000
,  // measure 19
0100
0000
0000
0000
,  // measure 20
0010
0000
0000
0000
,  // measure 21
0100
0000
0000
0000
,  // measure 22
1000
0000
0000
0000
,  // measure 23
0001
0000
0000
0000
,  // measure 24
0100
0000
0000
0000
,  // measure 25
0010
0000
0000
0000
,  // measure 26
1000
0000
0000
0000
,  // measure 27
1000
0000
0000
0000
,  // measure 28
0001
0000
0001
0000
,  // measure 29
0001
0000
0000
0000
,  // measure 30
0010
0000
0000
0000
,  // measure 31
0100
0000
0100
0000
,  // measure 32
0100
0000
0000
0000
,  // measure 33
1000
0000
1000
0000
,  // measure 34
1000
0000
0000
0000
,  // measure 35
0001
0000
0001
0000
,  // measure 36
0001
0000
0000
0000
,  // measure 37
0100
0000
0000
0000
,  // measure 38
0110
0000
0110
0000
,  // measure 39
1001
0000
1001
0000
,  // measure 40
0110
0000
0110
0000
,  // measure 41
1001
0000
1001
0000
,  // measure 42
1000
0000
1000
0000
,  // measure 43
0001
0000
0001
0000
,  // measure 44
0100
0000
0100
0000
,  // measure 45
0010
0000
0010
0000
,  // measure 46
1000
0000
1000
0000
,  // measure 47
0100
0000
0100
0000
,  // measure 48
0010
0000
0010
0000
,  // measure 49
0001
0000
0001
0000
,  // measure 50
1000
0000
0010
0000
,  // measure 51
0100
0000
0001
0000
,  // measure 52
1000
0000
0100
0000
,  // measure 53
0010
0000
0001
0000
,  // measure 54
1000
0000
0010
0000
,  // measure 55
0100
0000
0001
0000
,  // measure 56
1000
0000
0100
0000
,  // measure 57
0010
0000
0001
0000
,  // measure 58
1000
0000
0010
0000
,  // measure 59
1000
0000
0010
0000
,  // measure 60
0100
0000
0001
0000
,  // measure 61
0100
0000
0001
0000
,  // measure 62
1000
0000
0100
0000
,  // measure 63
1000
0000
0100
0000
,  // measure 64
0010
0000
0001
0000
,  // measure 65
0010
0000
0001
0000
,  // measure 66
1000
0000
0000
0000
,  // measure 67
0010
0000
0000
0000
,  // measure 68
0100
0000
0000
0000
,  // measure 69
0001
0000
0000
0000
,  // measure 70
1000
0000
0000
0000
,  // measure 71
0100
0000
0000
0000
,  // measure 72
0010
0000
0000
0000
,  // measure 73
0001
0000
0000
0000
,  // measure 74
1000
0000
0000
0000
,  // measure 75
0010
0000
0000
0000
,  // measure 76
0100
0000
0000
0000
,  // measure 77
0001
0000
0000
0000
,  // measure 78
1000
0000
0000
0000
,  // measure 79
0100
0000
0000
0000
,  // measure 80
0010
0000
0000
0000
,  // measure 81
0001
0000
0000
0000
,  // measure 82
1001
0000
0000
0000
,  // measure 83
1000
0000
0000
0000
,  // measure 84
0010
0000
0000
0000
,  // measure 85
0100
0000
0000
0000
,  // measure 86
0110
0000
0000
0000
,  // measure 87
0001
0000
0000
0000
,  // measure 88
1000
0000
0000
0000
,  // measure 89
0100
0000
0000
0000
,  // measure 90
1001
0000
0000
0000
,  // measure 91
0001
0000
0000
0000
,  // measure 92
0100
0000
0000
0000
,  // measure 93
0010
0000
0000
0000
,  // measure 94
1000
0000
0000
0000
,  // measure 95
0001
0000
0000
0000
,  // measure 96
1000
0000
0000
0000
,  // measure 97
0110
0000
0000
0000
,  // measure 98
1001
0000
0000
0000
;

//---------------dance-single - ----------------
#NOTEDATA:;
#CHARTNAME:;
#CHARTHASH:3976226360;
#STEPSTYPE:dance-single;
#BANNER:;
#DESCRIPTION:;
#CHARTSTYLE:;
#DIFFICULTY:Easy;
#METER:8;
#METERF:0.000000;
#RADARVALUES:0.311204,0.359441,0.145229,0.573653,0.000000,300.000000,280.000000,20.000000,79.000000,0.000000,0.000000,0.000000,0.000000,0.000000,0.311204,0.359441,0.145229,0.573653,0.000000,300.000000,280.000000,20.000000,79.000000,0.000000,0.000000,0.000000,0.000000,0.000000;
#CREDIT:YOSEFU;
#NOTES:
// measure 0
0000
0000
0000
0000
,  // measure 1
0000
0000
0000
0000
,  // measure 2
0000
0000
0000
0000
,  // measure 3
0000
0000
0000
0000
,  // measure 4
0000
0000
0000
0000
,  // measure 5
0000
0000
0000
0000
,  // measure 6
2000
0000
0000
0000
,  // measure 7
3002
0000
0000
0000
,  // measure 8
0203
0000
0000
0000
,  // measure 9
0320
0000
0000
0000
,  // measure 10
2030
3000
0000
0200
0000
0000
0320
0000
,  // measure 11
0000
0032
0000
0000
0003
0000
0000
0000
,  // measure 12
1000
0000
0010
0000
0100
0000
0001
1000
,  // measure 13
0001
2000
3200
0320
,  // measure 14
0032
0003
0000
0200
0000
0000
0320
0000
,  // measure 15
0000
2030
0000
0000
3001
0000
0000
0000
,  // measure 16
0010
0000
0100
0000
1000
0000
0001
0100
,  // measure 17
0001
1000
0100
0010
,  // measure 18
0002
0003
0000
0200
0000
0000
0320
0000
,  // measure 19
0000
2030
0000
0000
3001
0000
0000
0000
,  // measure 20
2000
3200
0320
0032
,  // measure 21
2003
3020
0230
0302
,  // measure 22
2003
3000
0000
0200
0000
0000
0320
0000
,  // measure 23
0000
0032
0000
0000
0003
0000
0000
0000
,  // measure 24
1000
0000
0010
0000
0100
0000
0001
1000
,  // measure 25
0001
1000
0100
0010
,  // measure 26
0001
1000
0010
0000
,  // measure 27
0100
0001
1000
0000
,  // measure 28
0100
0010
0001
0000
,  // measure 29
1000
0010
0100
0001
,  // measure 30
1000
0100
0010
0001
,  // measure 31
0010
0100
0001
0100
,  // measure 32
1000
0000
0001
0100
,  // measure 33
0010
0100
0001
1000
,  // measure 34
0100
0010
0000
0001
,  // measure 35
0100
0010
0100
0001
,  // measure 36
1000
0100
0010
0000
,  // measure 37
0001
0100
0010
1000
,  // measure 38
2002
3003
0220
0330
,  // measure 39
2002
3003
2200
3300
,  // measure 40
1001
0001
0100
0001
,  // measure 41
1000
0100
0010
0001
,  // measure 42
1000
0010
0100
0001
,  // measure 43
0100
0010
2000
0000
,  // measure 44
3001
0010
0100
1000
,  // measure 45
0100
0010
0002
0000
,  // measure 46
1003
0010
0100
0001
,  // measure 47
0010
0100
2000
0000
,  // measure 48
3001
0100
0010
1000
,  // measure 49
0100
0010
0002
0000
,  // measure 50
1003
0100
0010
0100
,  // measure 51
1000
0001
0200
0320
,  // measure 52
0130
0001
1000
0100
,  // measure 53
0002
0103
2000
3001
,  // measure 54
0100
0010
0100
0002
,  // measure 55
0023
0230
0302
0203
,  // measure 56
1300
0001
0200
0320
,  // measure 57
0032
0023
2030
3200
,  // measure 58
0310
0001
1000
0010
,  // measure 59
0100
0001
1000
0100
,  // measure 60
0001
0100
1000
0001
,  // measure 61
0100
1000
0100
0001
,  // measure 62
0010
0100
1000
0010
,  // measure 63
0100
0001
1000
0100
,  // measure 64
0001
0100
1000
0001
,  // measure 65
0100
1000
0100
0001
,  // measure 66
2000
0000
0000
0000
,  // measure 67
3200
0000
0000
0000
,  // measure 68
0320
0000
0000
0000
,  // measure 69
0032
0000
0000
0000
,  // measure 70
0203
0000
0000
0000
,  // measure 71
0320
0000
0000
0000
,  // measure 72
2030
0000
0000
0000
,  // measure 73
3002
0000
0000
0000
,  // measure 74
0023
0000
0230
0000
,  // measure 75
1300
0001
0200
0000
,  // measure 76
0320
0000
2030
0000
,  // measure 77
3100
0010
0002
0000
,  // measure 78
2003
0000
3020
0000
,  // measure 79
0031
0010
2000
0000
,  // measure 80
3200
0000
0320
0000
,  // measure 81
0031
1000
0020
0000
,  // measure 82
0130
0000
0000
0100
0000
0000
0101
0000
,  // measure 83
0001
0000
0000
0001
0000
0000
1001
0000
,  // measure 84
1000
0000
0000
1000
0000
0000
1100
0000
,  // measure 85
0100
0000
0000
0100
0000
0000
0110
0000
,  // measure 86
0001
0000
0000
0001
0000
0000
0101
0000
,  // measure 87
1000
0000
0000
1000
0000
0000
1100
0000
,  // measure 88
0001
0000
0000
0001
0000
0000
0011
0000
,  // measure 89
1000
0000
0000
1000
0000
0000
1010
0000
,  // measure 90
0001
0000
0000
0100
0000
0000
1010
0000
,  // measure 91
0001
0000
0000
1000
0000
0000
0110
0000
,  // measure 92
0001
0000
0000
1000
0000
0000
0101
0000
,  // measure 93
1000
0000
0000
0100
0000
0000
0011
0000
,  // measure 94
1000
0000
0000
0010
0000
0000
0101
0000
,  // measure 95
0010
0000
0000
0100
0000
0000
1001
0000
,  // measure 96
0100
0000
0000
0010
0000
0000
1001
0000
,  // measure 97
1000
0000
0000
0100
0000
0000
0010
0002
,  // measure 98
0000
0000
0000
0000
,  // measure 99
0003
0000
0000
0000
;

//---------------dance-single - ----------------
#NOTEDATA:;
#CHARTNAME:;
#CHARTHASH:330635392;
#STEPSTYPE:dance-single;
#BANNER:;
#DESCRIPTION:;
#CHARTSTYLE:;
#DIFFICULTY:Medium;
#METER:12;
#METERF:0.000000;
#RADARVALUES:0.485478,0.611049,0.254150,0.428424,0.087137,468.000000,433.000000,35.000000,59.000000,0.000000,0.000000,0.000000,0.000000,0.000000,0.485478,0.611049,0.254150,0.428424,0.087137,468.000000,433.000000,35.000000,59.000000,0.000000,0.000000,0.000000,0.000000,0.000000;
#CREDIT:YOSEFU;
#NOTES:
// measure 0
0000
0000
0000
0000
,  // measure 1
0000
0000
0000
0000
,  // measure 2
0000
0000
0000
0000
,  // measure 3
0000
0000
0000
0000
,  // measure 4
0000
0000
0000
0000
,  // measure 5
0000
0000
0000
0000
,  // measure 6
0002
0000
0000
0000
,  // measure 7
0023
0000
0000
0000
,  // measure 8
0230
0000
2300
0000
,  // measure 9
3020
0000
0230
0000
,  // measure 10
0302
0003
0000
2000
0000
0000
3200
0000
,  // measure 11
0000
0320
0000
0000
0031
0000
1000
0000
,  // measure 12
0010
0100
0001
1000
0010
0100
0001
1000
,  // measure 13
0200
0320
0032
2003
,  // measure 14
3020
0030
0000
0200
0000
0000
0302
0000
,  // measure 15
0000
2003
0000
0100
3100
0000
0010
0000
,  // measure 16
0001
1000
0010
0100
0001
1000
0100
0010
,  // measure 17
0001
0000
0100
0000
0010
1000
0001
0000
,  // measure 18
0020
0030
0000
0200
0000
0000
2300
0000
,  // measure 19
0000
3002
0000
0000
0103
0000
0010
0000
,  // measure 20
1000
0001
0010
0100
1000
0001
0100
0000
,  // measure 21
0001
1000
0100
0010
0001
1000
0010
0000
,  // measure 22
0200
0300
0000
0002
0000
0000
0023
0000
,  // measure 23
0000
0230
0000
0000
1300
0000
0001
0000
,  // measure 24
0100
0010
1000
0100
0010
0001
1000
0000
,  // measure 25
0001
0100
0010
1000
0100
0010
0001
0000
,  // measure 26
1000
0010
0100
0000
0001
1000
0100
0000
,  // measure 27
0010
0001
1000
0000
0010
0100
0001
0000
,  // measure 28
1000
0100
0010
0000
0001
0100
0010
0000
,  // measure 29
1000
0001
0010
0000
0100
1000
0001
0000
,  // measure 30
0100
0010
1000
0000
0001
0010
0100
0000
,  // measure 31
0010
0001
1000
0000
0001
0010
1000
0000
,  // measure 32
0010
0001
1000
0000
0010
0100
0001
0000
,  // measure 33
1000
0100
0010
0000
0100
1000
0001
0000
,  // measure 34
0100
0010
0100
0001
0000
1000
0100
0000
,  // measure 35
0010
0001
1000
0000
0010
0100
0001
0000
,  // measure 36
1000
0100
0010
0000
0001
0100
0010
0000
,  // measure 37
1000
0001
0010
0000
0100
1000
0001
0100
,  // measure 38
0020
0030
2020
3030
,  // measure 39
2002
3003
0022
0033
,  // measure 40
0010
0100
1000
0001
,  // measure 41
0100
0010
1000
0000
0001
0010
0100
0010
,  // measure 42
0001
0000
1000
0010
0000
0100
0100
0000
,  // measure 43
0001
0010
1000
0010
0002
0000
1000
0000
,  // measure 44
0103
0000
0010
1000
0000
0001
0001
0000
,  // measure 45
0010
1000
0010
0001
2000
0000
0010
0000
,  // measure 46
3001
0000
0100
0010
0000
1000
1000
0000
,  // measure 47
0001
0010
1000
0010
0002
0000
0100
0000
,  // measure 48
1003
0000
0100
0010
0000
0001
0001
0000
,  // measure 49
0100
1000
0100
0001
0020
0000
0100
0000
,  // measure 50
0031
1000
0010
0000
0100
0001
1000
0000
,  // measure 51
0010
1000
0100
0010
0002
0000
0203
0000
,  // measure 52
0310
1000
0001
0000
0010
0100
1000
0000
,  // measure 53
0010
0100
1000
0100
0001
0000
1000
0000
,  // measure 54
0100
0010
0001
0000
1000
0010
0100
0000
,  // measure 55
0001
0010
0100
1000
0002
0000
0203
0000
,  // measure 56
1300
0000
0100
0001
1000
0000
0100
0010
,  // measure 57
0001
0100
1000
0100
0001
1000
0200
0000
,  // measure 58
0310
0001
0000
1000
0000
0010
0000
0100
,  // measure 59
0000
0001
0000
1000
0000
0100
0000
0010
,  // measure 60
0001
1000
0000
0010
0000
0100
0000
0010
,  // measure 61
0000
1000
0000
0001
0000
0010
0000
0100
,  // measure 62
1000
0001
0000
0100
0000
0010
0000
1000
,  // measure 63
0000
0010
0000
0100
0000
0001
0000
1000
,  // measure 64
0100
0010
0000
0001
1000
0010
0000
0100
,  // measure 65
0001
0001
0000
0001
0000
1000
0000
0100
,  // measure 66
0020
0000
0000
0030
0020
0000
0000
0000
,  // measure 67
0032
0000
0203
0000
,  // measure 68
0320
0000
0000
0030
0020
0000
0000
0000
,  // measure 69
2030
0000
3200
0000
,  // measure 70
0320
0000
0000
0030
0020
0000
0000
0000
,  // measure 71
0230
0000
0302
0000
,  // measure 72
0203
0000
0000
0300
0200
0000
0000
0000
,  // measure 73
2300
0000
3002
0000
,  // measure 74
0103
0000
0010
0000
1000
0001
0010
0000
,  // measure 75
0100
0000
0010
0000
0001
1000
0010
0000
,  // measure 76
0100
0000
0001
0000
1000
0100
0010
0000
,  // measure 77
0001
0000
0100
0000
0010
1000
0100
0000
,  // measure 78
0010
0000
0100
0000
1000
0001
0100
0000
,  // measure 79
0010
0000
0001
0000
0010
1000
0001
0000
,  // measure 80
0010
0000
0100
0000
1000
0001
0100
0000
,  // measure 81
0010
0000
1000
0000
0001
0010
0100
0000
,  // measure 82
1000
0000
0000
1000
0000
0000
1001
0000
0000
0000
0000
0000
1001
0000
0000
0000
,  // measure 83
0001
0000
0000
0001
0000
0000
0101
0000
0000
0000
0000
0000
0101
0000
0000
0000
,  // measure 84
0100
0000
0000
0100
0000
0000
0110
0000
0000
0000
0000
0000
0110
0000
0000
0000
,  // measure 85
0010
0000
0000
0010
0000
0000
1010
0000
0000
0000
0000
0000
1010
0000
0000
0000
,  // measure 86
1000
0000
0000
1000
0000
0000
1001
0000
0000
0000
0000
0000
1001
0000
0000
0000
,  // measure 87
0001
0000
0000
0001
0000
0000
0011
0000
0000
0000
0000
0000
0011
0000
0000
0000
,  // measure 88
0010
0000
0000
0010
0000
0000
0110
0000
0000
0000
0000
0000
0110
0000
0000
0000
,  // measure 89
0100
0000
0000
0100
0000
0000
1100
0000
0000
0000
0000
0000
1100
0000
0000
0000
,  // measure 90
1000
0000
0000
1000
0000
0000
1001
0000
0000
0001
0000
0000
0101
0000
0000
0000
,  // measure 91
0100
0000
0000
0100
0000
0000
0110
0000
0000
0010
0000
0000
1010
0000
0000
0000
,  // measure 92
1000
0000
0000
1000
0000
0000
1100
0000
0000
0100
0000
0000
0110
0000
0000
0000
,  // measure 93
0010
0000
0000
0010
0000
0000
0011
0000
0000
0001
0000
0000
1001
0000
1000
0000
,  // measure 94
0010
0000
0000
0010
0000
0000
0110
0000
0000
0100
0000
0000
1001
0000
0000
0000
,  // measure 95
0001
0000
0000
0001
0000
0000
0011
0000
0000
0010
0000
0000
1100
0000
0000
0000
,  // measure 96
1000
0000
0000
1000
0000
0000
1010
0000
0000
0001
0000
0000
0101
0000
0000
0000
,  // measure 97
0010
0000
0000
0010
0000
0000
0110
0000
0000
1000
0000
0000
1001
0000
0002
0000
,  // measure 98
0000
0000
0000
0000
,  // measure 99
0003
0000
0000
0000
;
