#VERSION:0.83;
#TITLE:Icicles;
#SUBTITLE:;
#ARTIST:Jimmy Weckl;
#TITLETRANSLIT:;
#SUBTITLETRANSLIT:;
#ARTISTTRANSLIT:;
#GENRE:;
#CREDIT:;
#MUSIC:Icicles.ogg;
#BANNER:Icicles.png;
#BACKGROUND:Icicles-bg.png;
#JACKET:Icicles-jacket.png;
#DISCIMAGE:;
#CDIMAGE:;
#SELECTABLE:YES;
#LYRICSPATH:;
#CDTITLE:../_YSD cdtitles/ysd xmas2023 cdtitle.png;
#SAMPLESTART:12.518735;
#SAMPLELENGTH:12.151900;
#OFFSET:1.161;
#BPMS:0.000=158.000;
#STOPS:;
#WARPS:;
#DELAYS:;
#SPEEDS:0.000=1.000=0.000=0;
#SCROLLS:0.000=1.000;
#TICKCOUNTS:0.000=4;
#TIMESIGNATURES:0.000=4=4;
#LABELS:0.000=Song Start;
#COMBOS:0.000=1;
#FAKES:;
#BGCHANGES:0=Icicles.mp4=1.000=0=0=0=StretchNoLoop====,
99999=-nosongbg-=1.000=0=0=0=====
;
#FGCHANGES:;
#ATTACKS:;
#TAGS:;
#PREVIEWVID:;
#KEYSOUNDS:;

//---------------dance-single - ---------------
#NOTEDATA:;
#CHARTNAME:;
#CHARTSTYLE:;
#CREDIT:YOSEFU;
#STEPSTYPE:dance-single;
#DESCRIPTION:;
#DIFFICULTY:Beginner;
#METER:3;
#METERF:0;
#RADARVALUES:0.144979,0.255959,0.242487,0.026943,0.000000,113.000000,86.000000,27.000000,3.000000,0.000000,0.000000,0.000000,0.000000,0.000000,0.144979,0.255959,0.242487,0.026943,0.000000,113.000000,86.000000,27.000000,3.000000,0.000000,0.000000,0.000000,0.000000,0.000000;
#CHARTHASH:3493138123;
#BANNER:;
#LASTSECONDHINT:107.059845;
#NOTES:
// measure 0
0000
0000
0000
0000
,  // measure 1
0000
0000
0000
0000
,  // measure 2
0000
0000
0000
0000
,  // measure 3
0000
0000
0000
0000
,  // measure 4
0000
0000
0000
0000
,  // measure 5
1000
0000
0001
0000
,  // measure 6
0000
0010
0000
0000
,  // measure 7
0100
0000
0000
1001
,  // measure 8
0000
0000
0000
0000
,  // measure 9
1001
0000
0000
0000
,  // measure 10
0001
0000
0000
0000
,  // measure 11
0110
0000
0000
0000
,  // measure 12
0001
0000
0000
0000
,  // measure 13
1001
0000
0000
0000
,  // measure 14
1000
0000
0000
0000
,  // measure 15
1001
0000
0000
0000
,  // measure 16
0001
0000
0000
0000
,  // measure 17
1001
0000
0000
0000
,  // measure 18
1000
0000
0000
0000
,  // measure 19
0010
0000
0000
0000
,  // measure 20
0100
0000
0000
0000
,  // measure 21
1001
0000
0000
0000
,  // measure 22
0001
0000
0000
0000
,  // measure 23
0110
0000
0000
0000
,  // measure 24
1000
0000
0000
0000
,  // measure 25
1001
0000
0000
0000
,  // measure 26
0010
0000
0000
0000
,  // measure 27
0110
0000
0000
0000
,  // measure 28
0001
0000
1000
0000
,  // measure 29
1001
0000
0000
0000
,  // measure 30
0010
0000
0000
0000
,  // measure 31
0100
0000
0000
0000
,  // measure 32
0010
0000
0000
0000
,  // measure 33
1001
0000
0000
0000
,  // measure 34
1000
0000
0000
0000
,  // measure 35
1001
0000
0000
0110
,  // measure 36
0000
0000
1001
0000
,  // measure 37
0000
0110
0000
0000
,  // measure 38
1000
0000
0000
2000
0000
0000
0000
0000
,  // measure 39
0000
0000
3000
0000
,  // measure 40
0001
0000
0000
0001
0000
0000
0000
0000
,  // measure 41
1000
0000
0000
1000
0000
0000
0000
0000
,  // measure 42
0010
0000
0000
0010
0000
0000
0000
0000
,  // measure 43
0100
0100
0100
0000
,  // measure 44
1001
0000
0000
0000
,  // measure 45
0001
0000
0000
0000
,  // measure 46
0010
0000
0000
0000
,  // measure 47
0100
0000
0000
0000
,  // measure 48
1001
0000
0000
0000
,  // measure 49
1000
0000
0000
0000
,  // measure 50
0010
0000
0010
0000
,  // measure 51
0100
0000
0100
0000
,  // measure 52
0000
0000
0000
0000
,  // measure 53
1001
0000
0000
0000
,  // measure 54
0010
0000
0000
0000
,  // measure 55
0110
0000
0000
0000
,  // measure 56
1000
0000
0000
0000
,  // measure 57
1001
0000
0000
0000
,  // measure 58
0001
0000
0000
0000
,  // measure 59
1001
0000
0000
0000
,  // measure 60
0010
0000
0000
0000
,  // measure 61
0110
0000
0100
0000
,  // measure 62
1001
0000
0001
0000
,  // measure 63
1001
0000
1000
0000
,  // measure 64
0110
0000
0001
0000
,  // measure 65
1000
0000
0000
1000
0000
0000
0000
0000
,  // measure 66
0001
0000
0000
0001
0000
0000
0000
0000
,  // measure 67
0100
0000
0000
0100
0000
0000
0010
0000
,  // measure 68
0000
0010
0000
0000
1000
0000
0000
1000
,  // measure 69
0000
0000
0001
0000
0000
0001
0000
0000
,  // measure 70
0000
2002
0000
0000
,  // measure 71
0000
3003
0000
0000
;

//---------------dance-single - ---------------
#NOTEDATA:;
#CHARTNAME:;
#CHARTSTYLE:;
#CREDIT:YOSEFU;
#STEPSTYPE:dance-single;
#DESCRIPTION:;
#DIFFICULTY:Easy;
#METER:8;
#METERF:0;
#RADARVALUES:0.388750,0.415933,0.143696,0.152677,0.278411,303.000000,287.000000,16.000000,17.000000,0.000000,0.000000,0.000000,0.000000,0.000000,0.388750,0.415933,0.143696,0.152677,0.278411,303.000000,287.000000,16.000000,17.000000,0.000000,0.000000,0.000000,0.000000,0.000000;
#CHARTHASH:3420317639;
#BANNER:;
#LASTSECONDHINT:107.059845;
#NOTES:
// measure 0
0000
0000
0000
0000
,  // measure 1
0000
0000
0000
0000
,  // measure 2
0000
0000
0000
0000
,  // measure 3
0000
0000
0000
0000
,  // measure 4
0000
0000
0000
0000
,  // measure 5
1000
0000
0010
0000
0100
0000
0001
0000
1000
0000
0100
0000
,  // measure 6
0000
0000
0110
0000
0000
0011
0000
0000
,  // measure 7
1001
0000
0000
1010
0000
0000
0202
0000
,  // measure 8
0000
0000
0000
0000
,  // measure 9
0303
0000
0000
0000
0001
0000
0000
1000
0000
0000
0000
0000
0000
0000
0100
0000
,  // measure 10
0010
0000
0000
0100
0000
0000
1000
0000
0000
0000
0001
0000
0100
0000
0000
0000
,  // measure 11
0001
0000
0000
0000
1000
0000
0000
0100
0000
0000
0000
0000
0000
0000
0010
0000
,  // measure 12
0001
0000
0000
1000
0000
0000
0010
0000
0000
0000
0100
0000
0001
0000
0000
0000
,  // measure 13
1000
0000
0000
0000
0100
0000
0000
1000
0000
0000
0000
0000
0000
0000
0001
0000
,  // measure 14
0100
0000
0000
0001
0000
0000
0010
0000
0000
0000
0100
0000
1000
0000
0000
0000
,  // measure 15
0001
0000
0000
0000
0100
0000
0000
0001
0000
0000
0000
0000
0000
0000
1000
0000
,  // measure 16
0100
0000
0000
0010
0000
0000
0001
0000
0000
0000
0100
0000
0010
0000
1000
0000
,  // measure 17
0001
0000
0000
0100
0000
0000
0101
0000
,  // measure 18
0001
0000
0000
1000
0000
0000
1100
0000
,  // measure 19
0100
0000
0000
0010
0000
0000
0011
0000
,  // measure 20
0001
0000
0000
1000
0000
0000
0010
1000
,  // measure 21
0100
0000
0000
0000
0010
0000
0000
0001
0000
0000
0000
0000
0000
0000
1000
0000
,  // measure 22
0010
0000
0000
0100
0000
0000
0001
0000
0000
0000
0010
0000
0100
0000
0000
0000
,  // measure 23
1000
0000
0000
0000
0001
0000
0000
0100
0000
0000
0000
0000
0000
0000
0001
0000
,  // measure 24
0010
0000
0000
0100
0000
0000
1000
0000
0000
0000
0001
0000
0100
0000
0000
0000
,  // measure 25
0001
0000
0000
0000
1000
0000
0000
0100
0000
0000
0000
0000
0000
0000
0010
0000
,  // measure 26
0100
0000
0000
1000
0000
0000
0010
0000
0000
0000
0100
0000
0001
0000
0000
0000
,  // measure 27
1000
0000
0000
0000
0100
0000
0000
0010
0000
0000
0000
0000
0001
0000
0100
0000
,  // measure 28
0010
0000
0000
1000
0000
0000
0001
0000
0000
0000
0010
0000
0100
0000
0000
0000
,  // measure 29
1100
0000
0000
1000
0002
0000
0000
0103
,  // measure 30
0002
0000
0000
0000
0000
0000
2003
0000
0000
0000
3100
0000
0000
0010
0000
0000
,  // measure 31
0002
0000
0000
0203
0000
0320
0000
0000
,  // measure 32
2030
0000
0000
3002
0000
0023
0000
0000
,  // measure 33
0130
0000
0000
1000
0001
0000
0000
0100
,  // measure 34
0002
0000
0000
2003
0000
3200
0000
0000
,  // measure 35
0310
0000
0001
1000
0000
0000
0101
0000
,  // measure 36
0001
1000
0000
0000
1100
0000
0100
1000
,  // measure 37
0000
0000
1001
0000
0001
0100
0000
0000
,  // measure 38
1010
0000
0010
2000
0000
0001
0000
0001
,  // measure 39
0000
0001
0000
0000
0001
0000
0001
0000
,  // measure 40
3001
0000
0000
0100
0000
0000
0001
0000
0010
0000
0000
0100
0000
1000
0000
0000
,  // measure 41
0001
0000
0000
0100
0000
0000
0010
0000
0000
1000
0000
0000
0100
0000
0010
0000
,  // measure 42
0001
0000
0000
1000
0000
0000
0001
0000
0000
1000
0000
0000
0100
0000
0010
0000
,  // measure 43
0001
0000
1000
0000
0010
0000
0100
0001
,  // measure 44
1000
0000
0000
0100
0000
0010
0000
0001
,  // measure 45
0000
1000
0000
0010
0000
0100
0000
0000
,  // measure 46
0001
0000
0000
0010
0000
0100
0000
1000
,  // measure 47
0000
0000
0001
0000
0100
0000
0001
0000
0000
1000
0000
0000
,  // measure 48
0100
0000
0000
0010
0000
0001
0000
0100
,  // measure 49
0000
1000
0000
0100
0000
0001
0000
0000
,  // measure 50
0100
0000
0001
0000
0100
0000
0001
0000
1000
0000
0001
0000
,  // measure 51
1000
0000
0100
0000
1000
0000
0100
0000
0010
0000
0001
0000
,  // measure 52
0000
0000
0000
0000
,  // measure 53
1000
0000
0000
0000
0010
0000
0000
0100
0000
0000
0000
0000
0001
0000
1000
0000
,  // measure 54
0100
0000
0000
0010
0000
0000
0001
0000
0000
0000
0100
0000
0001
0000
0000
0000
,  // measure 55
1000
0000
0000
0000
0100
0000
0000
1000
0000
0000
0000
0000
0001
0000
0100
0000
,  // measure 56
0010
0000
0000
1000
0000
0000
0001
0000
0000
0000
0010
0000
0100
0000
0000
0000
,  // measure 57
0010
0000
0000
0000
0001
0000
0000
1000
0000
0000
0000
0000
0010
0000
0100
0000
,  // measure 58
0001
0000
0000
1000
0000
0000
0100
0000
0000
0000
0010
0000
0100
0000
0000
0000
,  // measure 59
1000
0000
0000
0000
0001
0000
0000
0100
0000
0000
0000
0000
0010
0000
1000
0000
,  // measure 60
0100
0000
0000
0010
0000
0000
0001
0000
0000
0000
1000
0000
0010
0000
0100
0000
,  // measure 61
0001
0000
1000
0000
0001
0000
1000
0000
0100
0000
1000
0000
,  // measure 62
0010
0000
1000
0000
0010
0000
1000
0000
0001
0000
1000
0000
,  // measure 63
0001
0000
0010
0000
0001
0000
0100
0000
0001
0000
0100
0000
,  // measure 64
0010
0000
1000
0000
0010
0000
1000
0000
0001
0000
0010
0000
,  // measure 65
0001
0000
1000
0010
0000
1000
0000
0000
,  // measure 66
1001
0000
1000
0010
0000
0100
0001
0000
,  // measure 67
0011
0000
0010
0001
0000
1000
0001
0000
,  // measure 68
0100
0010
0000
1000
0100
0000
0010
0001
,  // measure 69
0000
1000
0001
0000
0100
0001
0000
0010
,  // measure 70
0001
2002
0000
0000
,  // measure 71
0003
3000
0000
0000
;

//---------------dance-single - ---------------
#NOTEDATA:;
#CHARTNAME:;
#CHARTSTYLE:;
#CREDIT:YOSEFU;
#STEPSTYPE:dance-single;
#DESCRIPTION:;
#DIFFICULTY:Medium;
#METER:13;
#METERF:0;
#RADARVALUES:0.523465,0.703887,0.386184,0.287392,0.377203,408.000000,365.000000,43.000000,32.000000,0.000000,0.000000,0.000000,0.000000,0.000000,0.523465,0.703887,0.386184,0.287392,0.377203,408.000000,365.000000,43.000000,32.000000,0.000000,0.000000,0.000000,0.000000,0.000000;
#CHARTHASH:3324433490;
#BANNER:;
#LASTSECONDHINT:107.059845;
#NOTES:
// measure 0
0000
0000
0000
0000
,  // measure 1
0000
0000
0000
0000
,  // measure 2
0000
0000
0000
0000
,  // measure 3
0000
0000
0000
0000
,  // measure 4
0000
0000
0000
0000
,  // measure 5
1000
0000
0010
0000
0100
0000
0001
0000
0010
0000
0100
0000
,  // measure 6
1000
0001
0100
0000
0001
0010
0000
1000
,  // measure 7
0010
0000
0001
0100
0000
0000
2020
0000
,  // measure 8
0000
0000
0000
3030
,  // measure 9
1000
0000
0000
0000
0001
0000
0100
0001
0000
0000
0000
0000
1000
0000
0100
0000
,  // measure 10
0100
0000
0000
0010
0000
0000
0002
0000
0000
0000
0103
0000
0020
0000
0000
0000
,  // measure 11
1030
0000
0000
0000
0001
0000
0010
0001
0000
0000
0000
0000
1000
0000
0010
0000
,  // measure 12
0010
0000
0000
0100
0000
0000
0002
0000
0000
0000
1003
0000
0200
0000
0000
0000
,  // measure 13
0310
0000
0000
0000
0001
0000
1000
0001
0000
0000
0000
0000
0100
0000
0010
0000
,  // measure 14
0010
0000
0000
1000
0000
0000
0002
0000
0000
0000
0013
0000
0200
0000
0000
0000
,  // measure 15
0310
0000
0000
0000
0001
0000
1000
0001
0000
0000
0000
0000
0100
0000
0001
0000
,  // measure 16
0001
0000
0000
1000
0000
0000
0200
0000
0000
0000
0310
0000
0002
0000
0000
0000
,  // measure 17
1003
0000
0000
0010
0000
0000
0100
0000
0000
0001
0000
0000
1001
0000
0000
0000
,  // measure 18
1000
0000
0000
0100
0000
0000
0010
0000
0000
0001
0000
0000
1001
0000
0000
0000
,  // measure 19
1000
0000
0000
0010
0000
0000
0100
0000
0000
0010
0000
0000
1010
0000
0000
0000
,  // measure 20
1000
0000
0000
0100
0000
0000
0010
0000
0000
0001
0000
0000
1001
0000
0000
0000
,  // measure 21
1000
0000
0000
0000
0001
0000
0100
0001
0000
0000
0000
0000
1000
0000
0100
0000
,  // measure 22
0100
0000
0000
0010
0000
0000
0002
0000
0000
0000
0103
0000
0002
0000
0000
0000
,  // measure 23
1003
0000
0000
0000
0100
0000
0010
0100
0000
0000
0000
0000
1000
0000
0001
0000
,  // measure 24
0001
0000
0000
0100
0000
0000
0020
0000
0000
0000
1030
0000
0200
0000
0000
0000
,  // measure 25
0310
0000
0000
0000
0001
0000
1000
0001
0000
0000
0000
0000
0100
0000
0010
0000
,  // measure 26
0010
0000
0000
1000
0000
0000
0200
0000
0000
0000
0310
0000
0002
0000
0000
0000
,  // measure 27
1003
0000
0000
0000
0010
0000
0100
0010
0000
0000
0000
0000
1000
0000
0001
0000
,  // measure 28
0001
0000
0000
0010
0000
0000
0100
0000
1000
0000
0001
0000
0100
0000
0000
0000
,  // measure 29
0101
0000
0000
0001
0000
0000
1000
0000
0200
0000
0000
0000
0310
0000
0001
1000
,  // measure 30
0002
0000
0000
0000
0000
0000
0203
0000
0000
0000
0310
0000
0000
1000
0000
0000
,  // measure 31
0001
0000
0010
0100
0000
1000
0001
0100
,  // measure 32
0010
0000
0000
0100
0000
0000
0001
0000
0000
0000
1000
0000
1100
0000
0000
0000
,  // measure 33
1001
0000
0000
0000
0000
0000
0001
0100
0002
0000
0000
0000
1003
0000
0100
0000
,  // measure 34
0020
0000
0000
0032
0000
1003
1010
0000
,  // measure 35
1001
0000
0001
0100
0010
0000
1010
0000
,  // measure 36
1000
0100
0010
0000
0011
0000
0001
1000
,  // measure 37
0010
0000
0110
0000
0100
0001
1000
0000
,  // measure 38
1100
0100
0010
0022
0000
0000
0000
0000
,  // measure 39
0000
0000
0000
0033
,  // measure 40
0001
0000
1000
0001
0000
1000
0010
0000
0100
0000
0001
1000
0000
0100
0000
0000
,  // measure 41
0010
0001
0000
1000
0001
0000
1000
0010
0000
0100
0001
0000
0101
0000
0000
0000
,  // measure 42
0100
0001
0000
1000
0000
0000
0001
0100
0000
0010
0000
0000
1000
0001
0000
0000
,  // measure 43
0010
1000
0010
0001
0100
1000
0100
0010
,  // measure 44
1010
0000
1000
0100
0000
0010
0000
0100
,  // measure 45
0000
0001
0000
0100
0000
0010
0011
0000
,  // measure 46
0001
0000
0100
0010
0000
1000
0000
0100
,  // measure 47
0000
0000
0000
0000
0001
0000
0000
0000
0100
0000
0000
0000
1000
0000
0000
0000
0000
0000
0001
0000
0000
0100
0000
0000
,  // measure 48
0101
0000
0001
1000
0000
0100
0000
0010
,  // measure 49
0000
1000
0000
0010
0000
0100
0000
0000
,  // measure 50
1100
0000
1000
0000
0001
0000
0101
0000
0100
0000
0010
0000
,  // measure 51
1010
0000
1000
0000
0001
0000
0011
0000
0010
0000
0100
0000
,  // measure 52
0000
1000
0000
0000
0000
0000
0001
0000
0000
1000
0000
0010
1000
0000
0000
0000
,  // measure 53
0001
0000
0000
0000
1000
0000
0010
1000
0000
0000
0000
0000
0001
0000
0010
0000
,  // measure 54
0010
0000
0000
0001
0000
0000
0200
0000
0000
0000
0310
0000
2000
0000
0000
0000
,  // measure 55
3100
0000
0000
0000
0010
0000
0001
1000
0000
0000
0000
0000
0010
0000
0100
0000
,  // measure 56
0100
0000
0000
0001
0000
0000
0020
0000
0000
0000
1030
0000
0020
0000
0000
0000
,  // measure 57
0130
0000
0000
0000
1000
0000
0001
0100
0000
0000
0000
0000
0010
0000
1000
0000
,  // measure 58
1000
0000
0000
0100
0000
0000
0020
0000
0000
0000
0130
0000
2000
0000
0000
0000
,  // measure 59
3001
0000
0000
0000
0100
0000
0010
1000
0000
0000
0000
0000
0100
0000
0010
0000
,  // measure 60
0010
0000
0000
0100
0000
0000
1000
0000
0001
0100
0001
0000
0010
0000
0100
0000
,  // measure 61
1100
0000
1000
0000
0001
0000
0101
0000
0100
0000
0001
0000
,  // measure 62
1001
0000
1000
0000
0100
0000
0110
0000
0010
0000
0001
0000
,  // measure 63
1001
0000
1000
0000
0010
0000
0110
0000
0100
0000
0001
0000
,  // measure 64
1001
0000
1000
0000
0100
0000
0110
0000
0010
0000
0100
0000
,  // measure 65
1100
1000
0001
0101
0100
0001
0000
0000
,  // measure 66
0011
0010
0001
1001
1000
0010
0000
0000
,  // measure 67
0110
0100
0001
1001
1000
0100
0110
0010
,  // measure 68
0001
1001
1000
0010
0110
0100
0001
1000
,  // measure 69
1000
0100
0110
0010
0100
1100
1000
0010
,  // measure 70
0100
0001
2002
0000
0000
0000
0000
0000
,  // measure 71
0003
3000
0000
0000
;

//---------------dance-single - ---------------
#NOTEDATA:;
#CHARTNAME:;
#CHARTSTYLE:;
#CREDIT:YOSEFU;
#STEPSTYPE:dance-single;
#DESCRIPTION:;
#DIFFICULTY:Hard;
#METER:15;
#METERF:0;
#RADARVALUES:0.660746,0.895856,0.341279,0.179620,0.691538,515.000000,477.000000,38.000000,20.000000,0.000000,0.000000,0.000000,0.000000,0.000000,0.660746,0.895856,0.341279,0.179620,0.691538,515.000000,477.000000,38.000000,20.000000,0.000000,0.000000,0.000000,0.000000,0.000000;
#CHARTHASH:2802083139;
#BANNER:;
#LASTSECONDHINT:107.059845;
#NOTES:
// measure 0
0000
0000
0000
0000
,  // measure 1
0000
0000
0000
0000
,  // measure 2
0000
0000
0000
0000
,  // measure 3
0000
0000
0000
0000
,  // measure 4
0000
0000
0000
0000
,  // measure 5
1010
0000
1000
0000
0001
0000
0011
0000
0010
0000
0100
0000
,  // measure 6
0000
1000
0010
0000
0100
0001
0010
0100
,  // measure 7
1000
0001
1000
0000
0001
0000
0100
0001
0100
0001
1000
0001
0020
0000
0000
0000
,  // measure 8
0000
0000
0000
0000
0000
0000
0000
0000
0001
0000
0000
0100
0000
0000
0031
0000
,  // measure 9
1000
0000
0000
0000
0001
0100
0010
1000
0000
0000
0000
0000
0001
0000
0010
0000
,  // measure 10
0010
0000
0000
0001
0000
0000
0100
0000
0000
0000
0010
0000
2000
0000
0000
0000
,  // measure 11
3100
0000
0000
0000
1000
0100
0010
0001
0000
0000
0000
0000
1000
0000
0010
0000
,  // measure 12
0010
0000
0000
0100
0000
0000
0001
0000
0000
0000
0010
0000
0200
0000
0000
0000
,  // measure 13
0310
0000
0000
0000
0001
0100
0010
1000
0000
0000
0000
0000
0001
0000
0100
0000
,  // measure 14
0100
0000
0000
0010
0000
0000
1000
0000
0000
0000
0100
0000
0020
0000
0000
0000
,  // measure 15
0130
0000
0000
0000
1000
0010
0100
0001
0000
0000
0000
0000
1000
0000
0010
0000
,  // measure 16
0010
0000
0000
0100
0000
0000
0001
0000
1000
0001
0010
0000
0200
0000
0000
0000
,  // measure 17
1300
0000
0000
0001
0000
0000
0100
0000
0000
0010
0000
0000
1010
0000
0000
0000
,  // measure 18
1000
0000
0000
0100
0000
0000
0010
0000
0000
0001
0000
0000
0101
0000
0000
0000
,  // measure 19
0100
0000
0000
0001
0000
0000
0010
0000
0000
0100
0000
0000
1100
0000
0000
0000
,  // measure 20
1000
0000
0000
0010
0000
0000
0100
0000
0001
1000
0001
0000
1000
0000
0200
0000
,  // measure 21
0310
0000
0000
0000
1000
0010
0100
1000
0000
0000
0000
0000
0100
0000
0010
0000
,  // measure 22
0010
0000
0000
0001
0000
0000
1000
0000
0000
0000
0010
0000
0100
0000
0000
0000
,  // measure 23
0010
0000
0000
0000
0001
0010
0100
0001
0000
0000
0000
0000
1000
0000
0001
0000
,  // measure 24
0001
0000
0000
0010
0000
0000
0100
0000
0000
0000
0001
0000
0100
0000
0000
0000
,  // measure 25
0010
0000
0000
0000
1000
0010
0100
1000
0000
0000
0000
0000
0001
0000
1000
0000
,  // measure 26
1000
0000
0000
0010
0000
0000
0100
0000
0000
0000
0001
0000
0100
0000
0000
0000
,  // measure 27
0010
0000
0000
0000
0001
0010
0100
0001
0000
0000
0000
0000
1000
0000
0100
0000
,  // measure 28
0100
0000
0000
1000
0000
0000
0010
0000
0100
0001
0100
0001
1000
0000
0100
0000
,  // measure 29
1100
0000
0000
1000
0000
0000
0001
0000
0200
0000
0000
0000
0310
0000
1000
0001
,  // measure 30
0020
0000
0000
0000
0000
0000
0100
0000
0000
0000
0031
0000
0000
1000
0000
0000
,  // measure 31
0020
0000
0000
0230
0000
0302
1000
0000
,  // measure 32
0023
0000
0000
0100
0000
0000
0032
0000
0000
0000
0203
0000
0001
0000
0000
0000
,  // measure 33
0310
0000
0000
0000
0000
0000
1000
0001
1000
0000
0000
0000
0100
0000
0010
0000
,  // measure 34
0002
0000
0000
0203
0000
0320
1030
0000
,  // measure 35
1010
0000
0000
1000
0001
0000
0011
0000
0000
0001
1000
0000
1010
0000
0000
1000
,  // measure 36
0001
0000
0101
0000
0100
0001
1000
0000
1100
0000
0100
1000
0001
0000
0100
0001
,  // measure 37
0100
0001
1000
0000
1100
0000
0000
0100
1000
0000
0001
0100
0001
0100
0010
1000
,  // measure 38
0001
1000
0001
1000
0100
0010
0002
0000
0000
0000
0100
0000
0000
0000
0103
0000
,  // measure 39
0010
0000
1000
0001
0000
0000
0100
0000
0010
1000
0000
0000
0001
1000
0001
0000
,  // measure 40
1000
0100
0010
0001
1000
0010
0100
0000
0001
0000
1000
0100
0000
1000
0000
0001
,  // measure 41
0100
0010
0000
1000
0001
0000
0010
0100
0000
1000
0010
0000
0100
0001
0010
0100
,  // measure 42
1000
0100
0010
0001
0000
0000
0100
0001
1000
0001
0000
0000
0100
0001
0010
0100
,  // measure 43
1000
0000
0001
0100
0001
0000
1000
0100
1000
0000
0001
0100
0010
1000
0001
0010
,  // measure 44
0100
0000
1000
0001
0000
0100
0001
0010
,  // measure 45
0100
0001
0100
1000
0001
0100
0101
0000
,  // measure 46
0001
0000
0010
0001
0000
1000
0001
0100
,  // measure 47
0010
0000
0000
0000
0000
0000
0000
0000
0001
0000
0000
0000
0000
0000
0000
0000
0010
0000
0000
0000
0000
0000
0000
0000
1000
0000
0000
0010
0000
0000
0000
0000
0000
0000
0000
0000
1010
0000
0000
0000
0000
0000
1000
0000
0000
0000
0000
0000
,  // measure 48
0001
0000
0010
0100
0000
1000
0001
0100
,  // measure 49
0010
0001
0010
1000
0001
1000
1010
0000
,  // measure 50
1100
0000
1000
0000
0001
0000
0101
0000
0100
0000
0010
0000
,  // measure 51
1010
0000
1000
0000
0100
0000
0110
0000
0011
0000
1001
0000
,  // measure 52
0000
1000
0000
0001
0000
1000
0100
0000
0010
0001
0000
1000
0001
0000
0000
0000
,  // measure 53
0010
0000
0000
0000
1000
0010
0100
1000
0000
0000
0000
0000
1100
0000
0100
0000
,  // measure 54
0100
0000
0000
1000
0000
0000
0001
0000
0000
0000
0100
0000
0010
0000
0000
0000
,  // measure 55
0100
0000
0000
0000
1000
0100
0010
1000
0000
0000
0000
0000
1001
0000
0001
0000
,  // measure 56
0001
0000
0000
0010
0000
0000
0100
0000
0000
0000
0001
0000
0100
0000
0000
0000
,  // measure 57
0010
0000
0000
0000
1000
0010
0100
1000
0000
0000
0000
0000
1001
0000
0001
0000
,  // measure 58
0001
0000
0000
0100
0000
0000
0010
0000
0000
0000
1000
0000
0100
0000
0000
0000
,  // measure 59
0010
0000
0000
0000
1000
0010
0100
1000
0000
0000
0000
0000
1100
0000
0100
0000
,  // measure 60
0100
0000
0000
1000
0000
0000
0010
0000
0100
0001
0100
0001
1000
0000
0100
0000
,  // measure 61
0110
0000
0010
0001
1000
0000
1001
0000
0001
1000
0100
0000
,  // measure 62
0110
0000
0010
0000
1000
0010
0001
0000
0100
0000
0010
0000
,  // measure 63
1010
0000
1000
0000
0001
0000
0011
0000
0010
0000
0100
0000
,  // measure 64
1100
0000
1000
0000
0010
0000
0001
0000
0010
0000
1000
0000
,  // measure 65
1010
0000
0010
0000
0100
0000
0101
0000
0001
0000
0010
0001
0010
0001
1000
0000
,  // measure 66
1010
0000
0010
0000
0100
0000
0101
0000
0001
0000
1000
0000
1100
0000
0100
0010
,  // measure 67
0001
0000
1000
0010
1000
0010
0100
0000
0001
1000
0001
1000
0100
0000
0010
0001
,  // measure 68
0010
0001
1000
0000
0010
1000
0000
0000
1001
0000
0001
0010
0001
0010
0100
0000
,  // measure 69
1000
0010
1000
0010
0100
0000
0001
1000
0001
1000
0100
0000
0010
0000
0001
0000
,  // measure 70
1000
0010
0100
0001
0202
0000
0000
0000
0000
0000
0000
0000
0000
0000
0000
0000
,  // measure 71
0003
0300
0000
0000
;
