#TITLE:I GOT THE FEELIN;
#SUBTITLE:;
#ARTIST:Houseplan;
#TITLETRANSLIT:;
#SUBTITLETRANSLIT:;
#ARTISTTRANSLIT:;
#GENRE:House;
#CREDIT:skeleton made by chrononical;
#BANNER:I GOT THE FEELIN.png;
#BACKGROUND:I GOT THE FEELIN-bg.png;
#LYRICSPATH:;
#CDTITLE:../_YSD cdtitles/ysd sale5 cdtitle.png;
#MUSIC:I GOT THE FEELIN.ogg;
#OFFSET:-0.052000;
#SAMPLESTART:97.206001;
#SAMPLELENGTH:29.538000;
#SELECTABLE:YES;
#BPMS:0.000000=130.000000
;
#STOPS:
;
#BGCHANGES:;
#KEYSOUNDS:;
#ATTACKS:;

//---------------dance-single - ----------------
#NOTES:
     dance-single:
     :
     Beginner:
     1:
     0.071900,0.080929,0.000000,0.015252,0.000000,66.000000,66.000000,0.000000,2.000000,0.000000,0.000000,0.071900,0.080929,0.000000,0.015252,0.000000,66.000000,66.000000,0.000000,2.000000,0.000000,0.000000:
0000
0000
0000
0000
,
0000
0000
0000
0000
,
0000
0000
0000
0000
,
0000
0000
0000
0000
,
0000
0000
0000
0000
,
1000
0000
0000
0000
,
0001
0000
0000
0000
,
1000
0000
0000
0000
,
0001
0000
0000
0000
,
0010
0000
0000
0000
,
0100
0000
0000
0000
,
1000
0000
0000
0000
,
0010
0000
0000
0000
,
0100
0000
0000
0000
,
0001
0000
0000
0000
,
1000
0000
0000
0000
,
0100
0000
0000
0000
,
0010
0000
0000
0000
,
0001
0000
0000
0000
,
0100
0000
0000
0000
,
0010
0000
0000
0000
,
1000
0000
0000
0000
,
0001
0000
0000
0000
,
1000
0000
0000
0000
,
0100
0000
0000
0000
,
0010
0000
0000
0000
,
0001
0000
0000
0000
,
0100
0000
0000
0000
,
0010
0000
0000
0000
,
1000
0000
0000
0000
,
0001
0000
0000
0000
,
1000
0000
0000
0000
,
0001
0000
0000
0000
,
0010
0000
0000
0000
,
0100
0000
0000
0000
,
1000
0000
0000
0000
,
0010
0000
0000
0000
,
0100
0000
0000
0000
,
0001
0000
0000
0000
,
1000
0000
0000
0000
,
0100
0000
0000
0000
,
0010
0000
0000
0000
,
0001
0000
0000
0000
,
0100
0000
0000
0000
,
0010
0000
0000
0000
,
1000
0000
0000
0000
,
0001
0000
0000
0000
,
1000
0000
0000
0000
,
0100
0000
0000
0000
,
0010
0000
0000
0000
,
0001
0000
0000
0000
,
0100
0000
0000
0000
,
0010
0000
0000
0000
,
1000
0000
0000
0000
,
0001
0000
0000
0000
,
1000
0000
0000
0000
,
0100
0000
0000
0000
,
0010
0000
0000
0000
,
0001
0000
0000
0000
,
0100
0000
0000
0000
,
0010
0000
0000
0000
,
1000
0000
0000
0000
,
0001
0000
0000
0000
,
1000
0000
0000
0000
,
0100
0000
0000
0000
,
0010
0000
0000
0000
,
0001
0000
0000
0000
,
1000
0000
0000
0000
,
0010
0000
0000
0000
,
0200
0000
0300
0000
,
0002
0000
0000
0003
;

//---------------dance-single - ----------------
#NOTES:
     dance-single:
     :
     Easy:
     3:
     0.167767,0.269762,0.091509,0.190645,0.000000,154.000000,142.000000,12.000000,25.000000,0.000000,0.000000,0.167767,0.269762,0.091509,0.190645,0.000000,154.000000,142.000000,12.000000,25.000000,0.000000,0.000000:
0000
0000
0000
0000
,
0000
0000
0000
0000
,
0000
0000
0000
0000
,
0000
0000
0000
0000
,
0000
0000
0000
0000
,
1000
0000
0001
0000
,
1000
0000
0001
0000
,
0100
0000
0010
0000
,
0100
0000
0010
0000
,
0110
0000
1000
0000
,
0001
0000
0010
0000
,
0001
0000
1000
0000
,
0010
0000
0100
0000
,
0010
0000
1000
0000
,
0001
0000
0010
0000
,
0100
0000
1000
0000
,
0100
0000
0010
0000
,
0011
0000
0001
0000
,
1000
0000
0010
0000
,
0100
0000
0010
0000
,
1000
0000
0100
0000
,
0010
0010
0001
0000
,
1000
0000
0010
0000
,
0100
0000
0001
0000
,
1000
0000
0100
0010
,
0110
0000
1000
0000
,
0001
0000
0100
0000
,
0010
0000
1000
1001
,
0001
0000
0100
0000
,
0010
0000
0100
0000
,
0001
0000
1000
0000
,
0100
0000
0010
0000
,
0001
0000
1000
0000
,
0002
0000
0003
0000
,
2000
0000
3000
0000
,
0020
0000
0030
0000
,
0200
0000
0300
0000
,
0002
0000
0003
0000
,
0020
0000
0030
0000
,
0200
0000
0300
0000
,
2000
0000
3000
0000
,
0002
0003
2000
3000
,
0002
0003
2000
3000
,
0020
0030
0200
0300
,
0020
0030
0200
0300
,
0002
0003
2000
3000
,
0002
0003
2000
3000
,
0200
0300
0020
0030
,
0200
0300
0020
0030
,
0110
0000
1001
0000
,
0110
0000
1001
0000
,
0101
0000
1010
0000
,
1001
0000
0000
0000
,
1000
0000
0100
0000
,
1000
0001
1000
0000
,
0010
0000
0100
0000
,
0001
0100
0010
1000
,
0001
0000
1000
0000
,
0100
0010
0100
0000
,
1000
0000
0001
0000
,
1000
0100
0010
0001
,
0011
1000
0010
0000
,
0100
0001
1000
0000
,
0100
0010
0001
0000
,
1000
0010
0100
0010
,
1000
0001
0010
0000
,
0100
1000
0010
0000
,
0100
0001
1000
0000
,
0100
0010
0100
1000
,
0001
0000
1000
0000
,
0001
0000
0200
0300
;

//---------------dance-single - ----------------
#NOTES:
     dance-single:
     :
     Medium:
     6:
     0.275618,0.377667,0.045755,0.160142,0.000000,253.000000,247.000000,6.000000,21.000000,0.000000,0.000000,0.275618,0.377667,0.045755,0.160142,0.000000,253.000000,247.000000,6.000000,21.000000,0.000000,0.000000:
0000
0000
0000
0000
,
0000
0000
0000
0000
,
0000
0000
0000
0000
,
0000
0000
0000
0000
,
0000
0000
0000
0000
,
1000
0001
1000
0000
,
0010
0100
0001
0000
,
1000
0001
1000
0000
,
0100
0010
0001
0000
,
1000
0010
1000
0010
,
0100
0001
0100
0001
,
1000
0100
1000
0100
,
0010
0001
0010
0001
,
1000
0010
1000
0010
,
0100
0001
0100
0001
,
0010
0100
0010
0100
,
1000
0001
1000
0002
,
0103
0010
1000
0010
,
0100
0000
0001
0000
1000
0000
0100
0010
,
0001
1000
0001
0100
,
0010
0100
0001
1000
,
0100
0100
0100
0000
0010
0000
0100
0000
,
1000
0000
0001
0000
0100
0000
0010
1000
,
0001
1000
0100
0010
,
0100
0000
1000
0000
0001
0000
0100
0100
,
0001
1000
0100
0010
,
0100
0000
1000
0000
0001
0000
0100
0010
,
1000
0001
0010
0011
,
0001
0000
0100
0000
1000
0000
0100
0010
,
1000
0001
1000
0100
,
0010
0000
0100
0000
1000
0000
0010
0100
,
0001
1000
0001
0010
,
0100
0001
0100
1000
,
0002
0000
2003
0000
,
3020
0000
0230
0000
,
0302
0000
2003
0000
,
3200
0000
0320
0000
,
0032
0000
0203
0000
,
0320
0000
2030
0000
,
3002
0000
0023
0000
,
0230
0000
2300
0000
,
3010
0100
0002
0000
,
1003
0100
0010
0000
,
0001
0100
0010
0000
,
1000
0001
0010
0000
,
0100
1000
0010
0000
,
0100
0001
0010
0000
,
0100
1000
0001
0000
,
0100
0010
1000
0000
,
1010
1000
1001
1000
,
1100
1000
1001
1000
,
0001
0100
0001
0000
1000
0100
1000
0000
,
2002
0000
0000
0000
0000
0003
3000
0000
,
0001
0100
0010
0100
,
0001
0000
1000
0000
0100
0000
0010
0001
,
1000
0010
0100
0001
,
1000
0100
1000
0000
0001
0100
0001
0000
,
1000
0010
0100
0001
,
1000
0000
0100
0000
0010
0000
0001
0100
,
0010
1000
0001
0010
,
0100
0000
1000
0000
0001
0000
0100
0100
,
0001
1000
0100
0001
,
0100
0000
0010
0000
0001
0000
1000
0010
,
0100
0010
1000
0001
,
0010
0100
0001
0100
,
1000
0010
0100
1000
,
0100
0000
0001
0000
0010
0000
0100
1000
,
0010
0100
0001
0010
,
1000
0000
0010
0000
0001
0000
0100
0100
,
0001
0000
1000
0100
,
0010
0000
0002
0003
;

//---------------dance-single - ----------------
#NOTES:
     dance-single:
     that moment when you (still) got that feelin:
     Hard:
     12:
     0.503302,0.568502,0.007626,0.190645,0.648192,462.000000,461.000000,1.000000,25.000000,0.000000,0.000000,0.503302,0.568502,0.007626,0.190645,0.648192,462.000000,461.000000,1.000000,25.000000,0.000000,0.000000:
0000
0000
0000
0000
,
0000
0000
0000
0000
,
0000
0000
0000
0000
,
0000
0000
0000
0000
,
0000
0000
0000
0000
,
1000
0010
0100
0010
,
1000
0001
0010
0001
,
1000
0100
0010
0001
,
1000
0000
0010
0000
1000
0000
0010
0000
0100
0000
0001
0000
0100
0000
0010
1000
,
0001
0000
0200
0000
0010
0000
0000
0000
0001
0000
0000
0000
0310
0000
1000
0100
,
0000
0010
0000
0000
0001
0100
0000
0100
0010
0000
0000
1000
0001
0000
1000
0100
,
0010
0000
0002
0000
0100
0000
0000
0000
1000
0000
0000
0000
0103
0000
0010
1000
,
0000
0100
0000
0100
0000
0010
0000
0010
0000
0001
0000
0001
1000
0000
0010
0100
,
0001
0000
2000
0000
0100
0000
0000
0000
0001
0000
0000
0000
3100
0000
0010
0001
,
0000
1000
0000
0000
0010
0100
0000
0100
0001
0000
0000
0010
0100
0000
0010
0001
,
1000
0000
0020
0000
0100
0000
0000
0000
1000
0000
0000
0000
0130
0000
0001
0010
,
0000
0100
0000
0100
0000
1000
0000
1000
0000
0001
0000
0001
0200
0000
0000
0000
,
0320
0000
0000
0000
1030
0000
0001
0000
0100
0000
0000
0000
0010
1000
0001
0000
,
0020
0000
0000
0000
0130
1000
0000
1000
0010
0000
0000
0010
0000
0000
0100
0000
,
0002
0000
0000
0000
0103
0010
0000
0010
2000
0000
0000
0000
3001
0000
0010
0100
,
2000
0000
0000
0000
3001
0100
0000
0100
0010
0000
0000
0010
0000
0000
1000
0000
,
0001
0000
0001
0000
0001
0000
0010
0000
0100
1000
0001
0000
0100
0010
0000
0000
,
2000
0000
0000
0000
3100
0010
0000
0010
0001
0000
0000
0001
0000
0000
0100
0000
,
0020
0000
0000
0000
1030
0001
0000
0001
0020
0000
0000
0000
0130
1000
0001
0000
,
0200
0000
0000
0000
0310
1000
0000
1000
0001
0000
0000
0001
1000
0001
1000
0001
,
1000
0000
0010
0000
0100
0000
0001
0000
1000
0000
0000
0000
0100
0010
0000
0010
,
0100
0000
1000
0000
0010
0100
0000
0100
0001
0000
0000
0001
0010
0000
0100
0000
,
1000
0001
0100
0010
1000
0000
0110
0000
,
0001
0000
0100
0000
0010
0001
0000
0010
0100
0000
0000
0100
0001
0000
1000
0000
,
0100
0000
0010
0000
0001
0000
1000
0000
0010
0000
0000
0000
0100
0001
0000
0001
,
1000
0000
0100
0000
0010
0001
0000
0001
0100
0000
0000
0100
0010
0000
1000
0000
,
0001
0000
0010
0000
0100
0000
1000
0000
0001
0000
0000
0000
0100
0010
0000
0000
,
1000
0100
0010
1000
0010
0001
1000
0000
,
0010
0000
0000
0000
0000
0010
0000
0000
0100
0000
0000
0000
0000
0100
0000
0000
,
0001
0000
0000
0000
0000
0001
0000
0000
0010
0000
0000
0010
0000
0000
0100
0000
,
1000
0000
0000
0000
0000
1000
0000
0000
0001
0000
0000
0000
0000
0001
0000
0000
,
0100
0000
0000
0000
0000
0100
0010
0000
1000
0000
0001
0000
0100
0000
0000
0000
,
0010
0000
0000
0000
0000
0010
0000
0000
1000
0000
0000
0000
0000
1000
0000
0000
,
0100
0000
0000
0000
0000
0100
0000
0000
0010
0000
0000
0010
0000
0000
0001
0000
,
1000
0000
0000
0000
0000
1000
0000
0000
0010
0000
0000
0000
0000
0010
0000
0000
,
0100
0000
0000
0000
0000
0100
0000
0000
0001
0000
1000
0000
0100
0000
0010
0001
,
0000
0000
0020
0000
0000
0000
0000
0000
0000
0000
0000
0000
0031
0000
1000
0010
,
0000
0100
0000
0000
0001
0000
1000
0000
0100
0000
0000
0000
0010
0000
0001
0010
,
0000
0000
0200
0000
0000
0000
0000
0000
0000
0000
0000
0000
1300
0000
0001
0100
,
0000
0010
0000
0010
0000
1000
0000
1000
0000
0100
0000
0100
0010
0000
0001
1000
,
0000
0000
0020
0000
0000
0000
0000
0000
0000
0000
0000
0000
0130
0000
0001
1000
,
0000
0010
0000
0000
0100
0000
0001
0000
1000
0000
0000
0000
0100
0000
0010
0001
,
0000
0000
2000
0000
0000
0000
0000
0000
0000
0000
0000
0000
3010
0000
0100
0001
,
0000
0010
0000
0010
0000
0100
0000
0100
0000
1000
0000
1000
0001
0000
0000
0000
,
1000
0000
0000
0000
0010
0100
0000
0100
0001
0000
0000
0000
1000
0100
0000
0100
,
0010
0000
0000
0000
0001
1000
0000
1000
0010
0000
0000
0000
0100
0001
0000
0001
,
0010
0000
0100
0000
1000
0000
0100
0000
1000
0001
1000
0001
1000
0001
1000
0001
,
1000
0000
0000
0000
0000
0000
0000
0000
0000
0000
0000
0000
0001
0000
0010
0100
,
0000
0000
2000
0000
0100
0000
0000
0000
0001
0000
0000
0000
3100
0000
0010
0001
,
0000
1000
0000
0000
0100
1000
0000
1000
0010
0000
0000
0000
0100
0000
0001
1000
,
0000
0000
0020
0000
0100
0000
0000
0000
1000
0000
0000
0000
0130
0000
0001
0010
,
0000
0100
0000
0100
0000
1000
0000
1000
0000
0010
0000
0010
0100
0000
0001
1000
,
0100
0000
0200
0000
1000
0000
0000
0000
0010
0000
0000
0000
1300
0000
0001
0100
,
0000
0010
0000
0000
1000
0100
0000
0100
0010
0000
0000
0000
0001
0000
0100
0010
,
0000
0000
2000
0000
0010
0000
0000
0000
0001
0000
0000
0000
3010
0000
0100
0001
,
0000
0010
0000
0010
0000
0100
0000
0100
0000
1000
0000
1000
0001
1000
0001
1000
,
0001
0000
0000
0000
0100
0000
0010
0001
0000
0000
0010
0000
0100
0000
0001
1000
,
0000
0100
0000
0000
0010
0001
0000
0001
0100
0000
0000
0000
0010
0000
1000
0001
,
0000
0000
0020
0000
0001
0000
0000
0000
0100
0000
0000
0000
0031
0000
0100
0010
,
0000
1000
0000
1000
0000
0100
0000
0100
0000
0010
0000
0010
0001
0000
0010
0100
,
1000
0000
1000
0000
0100
0000
0010
1000
0000
0000
0010
0000
0100
0000
1000
0001
,
0000
0100
0000
0000
0010
1000
0000
1000
0100
0000
0000
0000
0010
0000
0001
1000
,
0000
0000
0020
0000
0100
0000
0000
0000
1000
0000
0000
0000
0130
0000
0001
0010
,
0000
0100
0000
0100
0000
1000
0000
1000
0000
0010
0000
0010
1000
0001
1000
0001
,
1000
0100
0010
0001
1000
0000
0010
0000
,
0100
0001
1000
0001
0200
0000
0000
0000
,
0300
0000
0000
0000
;

//---------------dance-double - ----------------
#NOTES:
     dance-double:
     :
     Beginner:
     2:
     0.086062,0.161285,0.099135,0.030503,0.000000,79.000000,66.000000,13.000000,4.000000,0.000000,0.000000,0.086062,0.161285,0.099135,0.030503,0.000000,79.000000,66.000000,13.000000,4.000000,0.000000,0.000000:
// measure 0
00000000
00000000
00000000
00000000
,  // measure 1
00000000
00000000
00000000
00000000
,  // measure 2
00000000
00000000
00000000
00000000
,  // measure 3
00000000
00000000
00000000
00000000
,  // measure 4
00000000
00000000
00000000
00000000
,  // measure 5
00010000
00000000
00000000
00000000
,  // measure 6
00000100
00000000
00000000
00000000
,  // measure 7
00001000
00000000
00000000
00000000
,  // measure 8
00000010
00000000
00000000
00000000
,  // measure 9
00000110
00000000
00000000
00000000
,  // measure 10
00001000
00000000
00000000
00000000
,  // measure 11
00000001
00000000
00000000
00000000
,  // measure 12
00000010
00000000
00000000
00000000
,  // measure 13
00000100
00000000
00000000
00000000
,  // measure 14
00010000
00000000
00000000
00000000
,  // measure 15
00001000
00000000
00000000
00000000
,  // measure 16
01000000
00000000
00000000
00000000
,  // measure 17
01100000
00000000
00000000
00000000
,  // measure 18
00100000
00000000
00000000
00000000
,  // measure 19
10000000
00000000
00000000
00000000
,  // measure 20
00010000
00000000
00000000
00000000
,  // measure 21
10000000
00000000
00000000
00000000
,  // measure 22
01000000
00000000
00000000
00000000
,  // measure 23
00100000
00000000
00000000
00000000
,  // measure 24
00001000
00000000
00000000
00000000
,  // measure 25
00011000
00000000
00000000
00000000
,  // measure 26
00010000
00000000
00000000
00000000
,  // measure 27
00000010
00000000
00000000
00000000
,  // measure 28
00000100
00000000
00000000
00000000
,  // measure 29
00000001
00000000
00000000
00000000
,  // measure 30
00001000
00000000
00000000
00000000
,  // measure 31
00000100
00000000
00000000
00000000
,  // measure 32
00000010
00000000
00000000
00000000
,  // measure 33
00001001
00000000
00000000
00000000
,  // measure 34
00000001
00000000
00000000
00000000
,  // measure 35
00000100
00000000
00000000
00000000
,  // measure 36
00000010
00000000
00000000
00000000
,  // measure 37
00010000
00000000
00000000
00000000
,  // measure 38
00001000
00000000
00000000
00000000
,  // measure 39
00100000
00000000
00000000
00000000
,  // measure 40
01000000
00000000
00000000
00000000
,  // measure 41
10010000
00000000
00000000
00000000
,  // measure 42
10000000
00000000
00000000
00000000
,  // measure 43
00100000
00000000
00000000
00000000
,  // measure 44
01000000
00000000
00000000
00000000
,  // measure 45
00001000
00000000
00000000
00000000
,  // measure 46
00010000
00000000
00000000
00000000
,  // measure 47
00000100
00000000
00000000
00000000
,  // measure 48
00000010
00000000
00000000
00000000
,  // measure 49
00000110
00000000
00000000
00000000
,  // measure 50
00001001
00000000
00000000
00000000
,  // measure 51
00000110
00000000
00000000
00000000
,  // measure 52
00001001
00000000
00000000
00000000
,  // measure 53
00000110
00000000
00000000
00000000
,  // measure 54
00000001
00000000
00000000
00000000
,  // measure 55
00000100
00000000
00000000
00000000
,  // measure 56
00000010
00000000
00000000
00000000
,  // measure 57
00010000
00000000
00000000
00000000
,  // measure 58
00001000
00000000
00000000
00000000
,  // measure 59
00100000
00000000
00000000
00000000
,  // measure 60
01000000
00000000
00000000
00000000
,  // measure 61
10010000
00000000
00000000
00000000
,  // measure 62
10000000
00000000
00000000
00000000
,  // measure 63
00100000
00000000
00000000
00000000
,  // measure 64
01000000
00000000
00000000
00000000
,  // measure 65
00001000
00000000
00000000
00000000
,  // measure 66
00010000
00000000
00000000
00000000
,  // measure 67
00000100
00000000
00000000
00000000
,  // measure 68
00000010
00000000
00000000
00000000
,  // measure 69
00002002
00000000
00003003
00000000
,  // measure 70
00000220
00000000
00000330
00000000
;

//---------------dance-double - ----------------
#NOTES:
     dance-double:
     :
     Easy:
     4:
     0.165589,0.269762,0.099135,0.190645,0.000000,152.000000,139.000000,13.000000,25.000000,0.000000,0.000000,0.165589,0.269762,0.099135,0.190645,0.000000,152.000000,139.000000,13.000000,25.000000,0.000000,0.000000:
// measure 0
00000000
00000000
00000000
00000000
,  // measure 1
00000000
00000000
00000000
00000000
,  // measure 2
00000000
00000000
00000000
00000000
,  // measure 3
00000000
00000000
00000000
00000000
,  // measure 4
00000000
00000000
00000000
00000000
,  // measure 5
00010000
00000000
00001000
00000000
,  // measure 6
01000000
00000000
00010000
00000000
,  // measure 7
00100000
00000000
01000000
00000000
,  // measure 8
10000000
00000000
00010000
00000000
,  // measure 9
01010000
00000000
01000000
00000000
,  // measure 10
00100000
00000000
01000000
00000000
,  // measure 11
00001000
00000000
00010000
00000000
,  // measure 12
00000100
00000000
00000010
00000000
,  // measure 13
00000001
00000000
00001000
00000000
,  // measure 14
00000010
00000000
00000100
00000000
,  // measure 15
00000010
00000000
00001000
00000000
,  // measure 16
00000100
00000000
00010000
00000000
,  // measure 17
00011000
00000000
00001000
00000000
,  // measure 18
01000000
00000000
00100000
00000000
,  // measure 19
10000000
00000000
00010000
00000000
,  // measure 20
00100000
00000000
01000000
00000000
,  // measure 21
10000000
10000000
00010000
00000000
,  // measure 22
01000000
00000000
00100000
00000000
,  // measure 23
10000000
00000000
00010000
00000000
,  // measure 24
01000000
00000000
00001000
00010000
,  // measure 25
00011000
00000000
00000100
00000000
,  // measure 26
00010000
00000000
00000100
00000000
,  // measure 27
00001000
00000000
00000001
00000101
,  // measure 28
00000100
00000000
00000010
00000000
,  // measure 29
00001000
00000000
00000100
00000000
,  // measure 30
00010000
00000000
00001000
00000000
,  // measure 31
01000000
00000000
00010000
00000000
,  // measure 32
00100000
00000000
01000000
00000000
,  // measure 33
20000000
00000000
30000000
00000000
,  // measure 34
00200000
00000000
00300000
00000000
,  // measure 35
02000000
00000000
03000000
00000000
,  // measure 36
00002000
00000000
00003000
00000000
,  // measure 37
00020000
00000000
00030000
00000000
,  // measure 38
00000200
00000000
00000300
00000000
,  // measure 39
00002000
00000000
00003000
00000000
,  // measure 40
00000020
00000000
00000030
00000000
,  // measure 41
00000200
00000300
00000002
00000003
,  // measure 42
00000020
00000030
00000200
00000300
,  // measure 43
00020000
00030000
00002000
00003000
,  // measure 44
02000000
03000000
00002000
00003000
,  // measure 45
00020000
00030000
00002000
00003000
,  // measure 46
02000000
03000000
00020000
00030000
,  // measure 47
20000000
30000000
02000000
03000000
,  // measure 48
00200000
00300000
00002000
00003000
,  // measure 49
00011000
00000000
00010010
00000000
,  // measure 50
00011000
00000000
00101000
00000000
,  // measure 51
00011000
00000000
00010100
00000000
,  // measure 52
00011000
00000000
00000000
00000000
,  // measure 53
01001000
00000000
01000000
00000000
,  // measure 54
00010000
10000000
00100000
00000000
,  // measure 55
10000000
00000000
00010000
00000000
,  // measure 56
10000000
01000000
00100000
00010000
,  // measure 57
10000000
00000000
00010000
00000000
,  // measure 58
01000000
00001000
00010000
00000000
,  // measure 59
00000100
00000000
00000010
00000000
,  // measure 60
00000001
00000100
00000010
00001000
,  // measure 61
00001001
00000000
00000001
00000000
,  // measure 62
00000010
00000100
00001000
00000000
,  // measure 63
00000001
00000000
00000100
00000000
,  // measure 64
00000010
00010000
00001000
00000000
,  // measure 65
00100000
00100000
00001000
00000000
,  // measure 66
01000000
00010000
10000000
00000000
,  // measure 67
00100000
10000000
00010000
00000000
,  // measure 68
10000000
01000000
00100000
00010000
,  // measure 69
10000000
00000000
00100000
00000000
,  // measure 70
01000000
00000000
00020000
00030000
;

//---------------dance-double - ----------------
#NOTES:
     dance-double:
     :
     Medium:
     7:
     0.284333,0.377667,0.061006,0.183019,0.000000,261.000000,253.000000,8.000000,24.000000,0.000000,0.000000,0.284333,0.377667,0.061006,0.183019,0.000000,261.000000,253.000000,8.000000,24.000000,0.000000,0.000000:
// measure 0
00000000
00000000
00000000
00000000
,  // measure 1
00000000
00000000
00000000
00000000
,  // measure 2
00000000
00000000
00000000
00000000
,  // measure 3
00000000
00000000
00000000
00000000
,  // measure 4
00000000
00000000
00000000
00000000
,  // measure 5
00010000
00001000
00100000
00001000
,  // measure 6
00010000
00000010
00010000
00001000
,  // measure 7
00100000
00010000
10000000
00100000
,  // measure 8
01000000
00010000
01000000
00001000
,  // measure 9
00011000
00010000
00000100
00000010
,  // measure 10
00000100
00000000
00001000
00000001
00001000
00000000
00000010
00000000
,  // measure 11
00000100
00000001
00001000
00000100
,  // measure 12
00010000
00001000
01000000
00010000
,  // measure 13
10000000
01000000
00100000
00010000
,  // measure 14
01000000
00000000
00001000
00010000
00001000
00000000
00010000
00000000
,  // measure 15
00000100
00000010
00000100
00001000
,  // measure 16
00000010
00000100
00000001
00001000
,  // measure 17
00001001
00000001
00000010
00000100
,  // measure 18
00010000
00000000
00001000
00010000
00001000
00000000
01000000
00000000
,  // measure 19
00100000
01000000
00010000
10000000
,  // measure 20
01000000
00100000
00010000
10000000
,  // measure 21
00100000
00100000
01000000
00000000
00010000
00000000
10000000
00000000
,  // measure 22
01000000
00000000
00100000
00010000
00100000
00000000
00001000
00000000
,  // measure 23
00010000
00000010
00001000
00000010
,  // measure 24
00000100
00000000
00000001
00000000
00001000
00000000
00000100
00000100
,  // measure 25
00000010
00000001
00000100
00000010
,  // measure 26
00000100
00000000
00000001
00001000
00000001
00000000
00000010
00000000
,  // measure 27
00000100
00010000
00001000
00011000
,  // measure 28
00001000
00010000
00100000
01000000
,  // measure 29
00010000
00100000
01000000
10000000
,  // measure 30
00100000
00000000
01000000
00010000
01000000
00000000
00100000
00000000
,  // measure 31
00010000
00001000
00000010
00000100
,  // measure 32
00001000
00000010
00000001
00000010
,  // measure 33
00002000
00000000
00003200
00000000
,  // measure 34
00000320
00000000
00000032
00000000
,  // measure 35
00000203
00000000
00000320
00000000
,  // measure 36
00002030
00000000
00003020
00000000
,  // measure 37
00000230
00000000
00002300
00000000
,  // measure 38
00023000
00000000
00032000
00000000
,  // measure 39
02003000
00000000
03020000
00000000
,  // measure 40
20030000
00000000
32000000
00000000
,  // measure 41
03100000
00010000
20000000
00000000
,  // measure 42
30100000
01000000
00002000
00000000
,  // measure 43
01003000
00100000
00020000
00000000
,  // measure 44
00031000
00000010
00000200
00000000
,  // measure 45
00001300
00000010
00000200
00000000
,  // measure 46
00000301
00000010
00000200
00000000
,  // measure 47
00000301
00000100
00002000
00000000
,  // measure 48
00003010
00000100
00001000
00010000
,  // measure 49
00011000
00001000
00110000
00100000
,  // measure 50
10010000
00010000
11000000
10000000
,  // measure 51
00010000
01000000
00010000
00000000
01000000
00001000
01000000
00000000
,  // measure 52
00011000
00000000
00000000
00000000
,  // measure 53
00010000
00000100
00000010
00000100
,  // measure 54
00010000
00000000
00000010
00001000
00000010
00000000
00000100
00000000
,  // measure 55
00000010
00001000
00000100
00000010
,  // measure 56
00001000
00010000
00100000
01000000
,  // measure 57
00010000
00010000
10000000
00000000
01000000
00000000
00100000
00000000
,  // measure 58
00010000
00000000
10000000
00100000
10000000
00000000
00100000
00000000
,  // measure 59
01000000
10000000
01000000
00100000
,  // measure 60
00010000
00000000
00001000
00000000
00000010
00000000
00000100
00000100
,  // measure 61
00001000
00000001
00000100
00000010
,  // measure 62
00000001
00000000
00000010
00000100
00000010
00000000
00000100
00000000
,  // measure 63
00001000
00010000
01000000
10000000
,  // measure 64
00100000
01000000
00010000
10000000
,  // measure 65
01000000
01000000
00100000
00000000
10000000
00000000
00100000
00000000
,  // measure 66
00010000
00000000
01000000
00001000
01000000
00000000
00100000
00000000
,  // measure 67
00010000
00001000
00000010
00000100
,  // measure 68
00001000
00000000
00000010
00000000
00000001
00000000
00000010
00000010
,  // measure 69
00000100
00000000
00000001
00001000
,  // measure 70
00000100
00000000
00000020
00000030
;

//---------------dance-double - ----------------
#NOTES:
     dance-double:
     :
     Hard:
     12:
     0.482603,0.514359,0.007626,0.152516,0.636753,443.000000,442.000000,1.000000,20.000000,0.000000,0.000000,0.482603,0.514359,0.007626,0.152516,0.636753,443.000000,442.000000,1.000000,20.000000,0.000000,0.000000:
// measure 0
00000000
00000000
00000000
00000000
,  // measure 1
00000000
00000000
00000000
00000000
,  // measure 2
00000000
00000000
00000000
00000000
,  // measure 3
00000000
00000000
00000000
00000000
,  // measure 4
00000000
00000000
00000000
00000000
,  // measure 5
00010000
00001000
01000000
00010000
,  // measure 6
01000000
00001000
00010000
00000100
,  // measure 7
00000010
00000001
00001000
00000010
,  // measure 8
00000100
00000000
00000001
00000000
00000100
00000000
00000001
00000000
00001000
00000000
00000100
00000000
00000010
00000000
00000001
00001000
,  // measure 9
00000010
00000000
00000200
00000000
00000010
00000000
00000000
00000000
00000001
00000000
00000000
00000000
00000310
00000000
00001000
00000001
,  // measure 10
00000000
00000010
00000000
00000000
00000100
00001000
00000000
00001000
00000010
00000000
00000000
00000000
00010000
00001000
00000000
00100000
,  // measure 11
00000000
00000000
00010000
00000000
01000000
00000000
00000000
00000000
10000000
00000000
00000000
00000000
01000000
00000000
00100000
10000000
,  // measure 12
00000000
00010000
00000000
00010000
00000000
00100000
00000000
00100000
00000000
01000000
00000000
01000000
10000000
00000000
00010000
01000000
,  // measure 13
00000000
00000000
00200000
00000000
01000000
00000000
00000000
00000000
10000000
00000000
00000000
00000000
01300000
00000000
00010000
10000000
,  // measure 14
00000000
01000000
00000000
00000000
00100000
00010000
00000000
00010000
01000000
00000000
00000000
00000000
00001000
00000000
00010000
00000100
,  // measure 15
00000000
00000000
00000020
00000000
00000100
00000000
00000000
00000000
00000001
00000000
00000000
00000000
00000130
00000000
00001000
00000010
,  // measure 16
00000000
00000100
00000000
00000100
00000000
00000001
00000000
00000001
00000000
00001000
00000100
00000000
00000020
00000000
00000000
00000000
,  // measure 17
00000032
00000000
00000000
00000000
00000103
00000010
00000000
00000010
00001000
00000000
00000000
00000000
00000100
00010000
00000000
00000000
,  // measure 18
00002000
00000000
00000000
00000000
00103000
00010000
00000000
00010000
01000000
00000000
00000000
01000000
00100000
00000000
10000000
00000000
,  // measure 19
00020000
00000000
00000000
00000000
00130000
01000000
00000000
01000000
10000000
00000000
00000000
00000000
00100000
01000000
00000000
00000000
,  // measure 20
00020000
00000000
00000000
00000000
01030000
00001000
00000000
00001000
00010000
00000000
00000000
00010000
00000100
00000000
00000010
00000000
,  // measure 21
00000001
00000000
00000001
00000000
00000001
00001000
00000000
00001000
00000010
00000000
00000000
00000000
00000100
00000001
00000000
00000000
,  // measure 22
00002000
00000000
00000000
00000000
00003100
00001000
00000000
00001000
00000010
00000000
00000000
00000010
00000100
00000000
00000001
00000000
,  // measure 23
00002000
00000000
00000000
00000000
00003100
00010000
00000000
00010000
00001000
00000000
00000000
00000000
01000000
00010000
00000000
00000000
,  // measure 24
00200000
00000000
00000000
00000000
01300000
10000000
00000000
10000000
00010000
00000000
00000000
00000000
10000000
00100000
10000000
00100000
,  // measure 25
10000000
00000000
00100000
00000000
01000000
00000000
00010000
00000000
10000000
00000000
00000000
00000000
01000000
00100000
00000000
00100000
,  // measure 26
00001000
00000000
00000000
00000000
00010000
00000010
00000000
00000010
00000100
00000000
00000000
00000100
00000001
00000000
00001000
00000000
,  // measure 27
00000100
00000000
00000010
00000000
00000001
00001000
00000000
00001000
00000010
00000000
00000000
00000000
00000101
00000000
00000000
00000000
,  // measure 28
00001000
00000100
00000010
00001000
00010000
00100000
01000000
00010000
,  // measure 29
10000000
00000000
01000000
00000000
00100000
00000000
00010000
00000000
10000000
00000000
00000000
00000000
00100000
01000000
00000000
01000000
,  // measure 30
00001000
00000000
00000000
00000000
00010000
00000100
00000000
00000100
00000010
00000000
00000000
00000010
00000100
00000000
00001000
00000000
,  // measure 31
00000001
00000000
00000100
00000000
00000010
00000000
00001000
00000000
00000001
00000000
00000000
00000000
00000010
00000100
00000000
00000100
,  // measure 32
00001000
00000100
00000010
00001000
00010000
00000000
00001000
00000000
,  // measure 33
01000000
00000000
00000000
00000000
00000000
01000000
00000000
00000000
00010000
00000000
00000000
00000000
00000000
00010000
00000000
00000000
,  // measure 34
00100000
00000000
00000000
00000000
00000000
00100000
00000000
00000000
01000000
00000000
00000000
01000000
00000000
00000000
10000000
00000000
,  // measure 35
00010000
00000000
00000000
00000000
00000000
00010000
00000000
00000000
01000000
00000000
00000000
00000000
00000000
01000000
00000000
00000000
,  // measure 36
00100000
00000000
00000000
00000000
00000000
00100000
00010000
00000000
00001000
00000000
00000010
00000000
00000100
00000000
00000000
00000000
,  // measure 37
00001000
00000000
00000000
00000000
00000000
00001000
00000000
00000000
00000001
00000000
00000000
00000000
00000000
00000001
00000000
00000000
,  // measure 38
00000100
00000000
00000000
00000000
00000000
00000100
00000000
00000000
00000010
00000000
00000000
00000010
00000000
00000000
00001000
00000000
,  // measure 39
00000100
00000000
00000000
00000000
00000000
00000100
00000000
00000000
00000010
00000000
00000000
00000000
00000000
00000010
00000000
00000000
,  // measure 40
00000001
00000000
00000000
00000000
00000000
00000001
00000000
00000000
00000100
00000000
00000000
00000010
00001000
00000000
00000000
00000010
,  // measure 41
00000000
00000000
00020000
00000000
00000000
00000000
00000000
00000000
00000000
00000000
00000000
00000000
00031000
00000000
00100000
00001000
,  // measure 42
00000000
00100000
00000000
00000000
00000000
00000000
00010000
00000000
10000000
00000000
00000000
00000000
00100000
00000000
01000000
00000000
,  // measure 43
00000000
00000000
00020000
00000000
00000000
00000000
00000000
00000000
00000000
00000000
00000000
00000000
10030000
00000000
00000000
01000000
,  // measure 44
00000000
00100000
00000000
00100000
00000000
00010000
00000000
00010000
00000000
01000000
00000000
01000000
00001000
00000000
00000000
00010000
,  // measure 45
00000000
00000000
00000100
00000000
00000000
00000000
00000000
00000000
00000000
00000000
00000000
00000000
00000010
00000000
00000001
00001000
,  // measure 46
00000000
00000010
00000000
00000000
00000000
00000000
00000100
00000000
00000001
00000000
00000000
00000000
00001000
00000000
00000100
00000000
,  // measure 47
00000000
00000000
00000010
00000000
00000000
00000000
00000000
00000000
00000000
00000000
00000000
00000000
00000001
00000000
00000000
00000100
,  // measure 48
00000000
00000010
00000000
00000010
00000000
00010000
00000000
00010000
00000000
00001000
00000000
00001000
00100000
00000000
00000000
00000000
,  // measure 49
01000000
00000000
00000000
00000000
10000000
00100000
00000000
00100000
01000000
00000000
00000000
00000000
00001000
00010000
00000000
00010000
,  // measure 50
00000100
00000000
00000000
00000000
00000010
00000001
00000000
00000001
00000100
00000000
00000000
00000000
00000010
00010000
00000000
00010000
,  // measure 51
00001000
00000000
00100000
00000000
00001000
00000000
00100000
00000000
00010000
00100000
00010000
00000000
10000000
00100000
10000000
00000000
,  // measure 52
00010000
00000000
00000000
00000000
00000000
00000000
00000000
00000000
00000000
00000000
00000000
00000000
01000000
00000000
00100000
10000000
,  // measure 53
00010000
00000000
00200000
00000000
01000000
00000000
00000000
00000000
00010000
00000000
00000000
00000000
00301000
00000000
00010000
00000010
,  // measure 54
00000000
00001000
00000000
00000000
00000100
00000010
00000000
00000010
00000001
00000000
00000000
00000000
00000100
00000000
00000010
00001000
,  // measure 55
00000000
00000000
00000200
00000000
00000010
00000000
00000000
00000000
00001000
00000000
00000000
00000000
00010300
00000000
00001000
00100000
,  // measure 56
00000000
01000000
00000000
01000000
00000000
10000000
00000000
10000000
00000000
00100000
00000000
00100000
01000000
00000000
00010000
10000000
,  // measure 57
01000000
00000000
02000000
00000000
00100000
00000000
00000000
00000000
10000000
00000000
00000000
00000000
03100000
00000000
00001000
00010000
,  // measure 58
00000000
00001000
00000000
00000000
00010000
00000010
00000000
00000010
00000100
00000000
00000000
00000000
00000001
00000000
00001000
00000100
,  // measure 59
00000000
00000000
00000020
00000000
00000100
00000000
00000000
00000000
00000001
00000000
00000000
00000000
00000130
00000000
00001000
00000010
,  // measure 60
00000000
00000100
00000000
00000100
00000000
00000001
00000000
00000001
00000000
00001000
00000000
00001000
00000100
00001000
00000100
00001000
,  // measure 61
00000100
00000000
00000000
00000000
00000010
00000000
00000001
00000100
00000000
00000000
00000010
00000000
00000001
00000000
00000010
00000100
,  // measure 62
00000000
00000001
00000000
00000000
00001000
00000100
00000000
00000100
00010000
00000000
00000000
00000000
00001000
00000000
01000000
00010000
,  // measure 63
00000000
00000000
20000000
00000000
01000000
00000000
00000000
00000000
00010000
00000000
00000000
00000000
31000000
00000000
00100000
00010000
,  // measure 64
00000000
01000000
00000000
01000000
00000000
00100000
00000000
00100000
00000000
10000000
00000000
10000000
00010000
00000000
00100000
01000000
,  // measure 65
10000000
00000000
10000000
00000000
00010000
00000000
01000000
00100000
00000000
00000000
00010000
00000000
00001000
00000000
00000010
00000100
,  // measure 66
00000000
00001000
00000000
00000000
00000010
00000100
00000000
00000100
00000001
00000000
00000000
00000000
00000010
00000000
00000100
00010000
,  // measure 67
00000000
00000000
00002000
00000000
00100000
00000000
00000000
00000000
01000000
00000000
00000000
00000000
10003000
00000000
00010000
01000000
,  // measure 68
00000000
00100000
00000000
00100000
00000000
10000000
00000000
10000000
00000000
01000000
00000000
01000000
00100000
00010000
00100000
00010000
,  // measure 69
00100000
00000000
00010000
01000000
00100000
00000000
10000000
00000000
,  // measure 70
00010000
00000000
10000000
01000000
00200000
00000000
00000000
00000000
,  // measure 71
00300000
00000000
00000000
00000000
;
