#TITLE:Horse;
#SUBTITLE:(Bouncecore Edit);
#ARTIST:Salvatore Ganacci / DJ Noriken;
#TITLETRANSLIT:;
#SUBTITLETRANSLIT:;
#ARTISTTRANSLIT:;
#GENRE:;
#CREDIT:;
#BANNER:Horse (Bouncecore Edit).png;
#BACKGROUND:Horse (Bouncecore Edit)-bg.png;
#LYRICSPATH:;
#CDTITLE:../_YSD cdtitles/ysd cc3 cdtitle.png;
#MUSIC:Horse (Bouncecore Edit).ogg;
#OFFSET:0.000000;
#SAMPLESTART:23.971001;
#SAMPLELENGTH:22.587999;
#SELECTABLE:YES;
#BPMS:0.000000=170.000000
;
#STOPS:
;
#BGCHANGES:;
#KEYSOUNDS:;
#ATTACKS:;

//---------------dance-single - ----------------
#NOTES:
     dance-single:
     man:
     Challenge:
     18:
     0.874037,1.060931,0.372352,0.094913,0.675345,838.000000,787.000000,51.000000,13.000000,0.000000,0.000000,0.874037,1.060931,0.372352,0.094913,0.675345,838.000000,787.000000,51.000000,13.000000,0.000000,0.000000:
// measure 0
0000
0000
0000
0000
,  // measure 1
0000
0000
0000
0000
,  // measure 2
0000
0000
0000
0000
,  // measure 3
0000
0000
0000
0000
,  // measure 4
1000
1010
1000
1010
,  // measure 5
0001
0000
0101
0100
0001
0000
0101
0001
,  // measure 6
1000
1100
1000
1100
,  // measure 7
0001
0000
0011
0010
0001
0000
0011
0001
,  // measure 8
1000
0110
1000
0110
,  // measure 9
0001
0000
0110
1000
0001
0000
0110
0001
,  // measure 10
0010
1001
0010
1001
,  // measure 11
0100
0000
1001
0001
0100
0000
1001
1000
,  // measure 12
0020
0030
0110
0000
1000
0000
0100
0000
,  // measure 13
0020
0030
0110
0000
0001
0000
0100
0000
,  // measure 14
0020
0030
1000
0000
0001
0000
1000
0000
,  // measure 15
0020
0030
0001
0000
1000
0000
0001
0000
,  // measure 16
0010
0100
0010
1001
,  // measure 17
0001
0100
0010
0000
1000
0000
0100
0000
0010
0001
0100
0000
0001
0000
0010
0000
,  // measure 18
0100
1000
0010
0000
0100
0000
0001
0000
0010
0100
1000
0000
0001
0100
0010
0100
,  // measure 19
0001
0010
0100
0000
1000
0000
0001
0000
0100
0001
0010
0000
0100
0000
1000
0000
,  // measure 20
0010
0100
0001
0000
0010
0100
1000
0000
0001
0100
0010
0000
0100
0001
0010
0100
,  // measure 21
1000
0001
0100
0000
0010
0000
0001
0000
0010
0100
0001
0000
1000
0000
0100
0000
,  // measure 22
0010
1000
0010
0000
0100
0000
1000
0000
0001
0100
0010
0000
1000
0100
0010
0100
,  // measure 23
0001
0100
0010
0000
0001
0000
0100
0000
1000
0100
0001
0000
0010
0000
0100
0000
,  // measure 24
1100
0000
1001
0000
1100
0010
1001
0001
,  // measure 25
1000
0010
0100
0000
1000
0000
0100
0000
0010
1000
0100
0000
0010
0000
0100
0000
,  // measure 26
0010
0001
0100
0000
0010
0000
0100
0000
0001
0010
0100
0000
0001
0000
0100
0000
,  // measure 27
1000
0100
0001
0000
1000
0000
0001
0000
0100
1000
0001
0000
0100
0000
0020
0000
,  // measure 28
0000
0001
0000
1000
0000
0031
0010
1000
,  // measure 29
0001
0010
0100
0000
0001
0000
0100
0000
0010
0001
0100
0000
0010
0000
0100
0000
,  // measure 30
0010
1000
0100
0000
0010
0000
0100
0000
1000
0010
0100
0000
1000
0000
0100
0000
,  // measure 31
0001
0100
1000
0000
0001
0000
1000
0000
0100
0001
1000
0000
0100
0000
0010
0000
,  // measure 32
0001
0000
1000
0000
0001
0001
1000
1000
,  // measure 33
0001
0000
0100
0000
0010
0000
0000
0000
1000
0001
1000
0000
0100
0000
0000
0000
,  // measure 34
0010
0000
0001
0000
0100
0000
0000
0000
0010
1000
0010
0000
0100
0000
0000
0001
,  // measure 35
1000
0000
0100
0000
0010
0000
0000
0000
0001
0100
0001
0000
0010
0000
0000
0000
,  // measure 36
0100
0000
1000
0000
0001
0000
0000
0000
0100
0010
0001
0000
0010
0000
1000
0000
,  // measure 37
0100
0000
0010
0000
0001
0000
0000
1000
0010
0100
0010
0000
1000
0000
0000
0000
,  // measure 38
0100
0000
0010
0000
0001
0000
0000
0100
0001
1000
0100
0000
0010
0000
0000
0001
,  // measure 39
0100
0000
1000
0000
0100
0000
0000
0010
0100
0001
1000
0000
0100
0000
0010
0001
,  // measure 40
1000
0000
0110
0000
0001
0001
0001
0001
,  // measure 41
1000
0000
0100
0000
0010
0000
0001
0100
0010
0100
0001
0000
1000
0000
0100
0010
,  // measure 42
0001
0000
0100
0000
0010
0000
1000
0100
0010
0100
1000
0000
0001
0000
0100
0010
,  // measure 43
1000
0000
0001
0000
0010
0000
0100
1000
0010
1000
0100
0000
0010
0000
0001
0100
,  // measure 44
0001
0000
1000
0000
0010
0000
0100
0001
0010
0001
0100
0000
0010
0000
1000
0001
,  // measure 45
1000
0000
0001
0000
0010
0000
0100
0001
0100
1000
0100
0000
0010
0000
0001
0100
,  // measure 46
0001
0000
1000
0000
0010
0000
0100
1000
0100
0001
0100
0000
0010
0000
1000
0100
,  // measure 47
1000
0000
0010
0000
0100
0000
0001
0100
1000
0100
0001
0000
0010
0000
0100
1000
,  // measure 48
0001
0000
0000
0000
0001
0000
0000
0000
1000
0000
1000
0000
0001
1000
0001
1000
,  // measure 49
0001
0000
0100
0010
1000
0000
0100
0000
0010
0100
1000
0001
0100
0000
1000
0000
,  // measure 50
0100
0000
0001
0010
0100
0000
0010
0000
0001
0100
0010
1000
0100
0000
0010
0000
,  // measure 51
0100
0000
1000
0000
0010
0100
1000
0000
0100
0001
0100
0010
1000
0000
0100
0000
,  // measure 52
0010
0000
0001
0100
0010
0000
1000
0000
0020
0000
1000
0001
0000
0000
0001
1000
,  // measure 53
0030
0000
1000
0100
0010
0000
0100
0000
0001
0100
0010
0001
1000
0000
0010
0000
,  // measure 54
0100
0000
0010
0100
0001
0000
0010
0000
1000
0010
0100
1000
0001
0000
0100
0000
,  // measure 55
1000
0000
0100
0010
1000
0000
0001
0000
0010
0100
0001
0100
1000
0000
0010
0000
,  // measure 56
0100
0000
1000
0100
0001
0000
0010
0000
0100
0000
0100
0000
0100
0000
0100
0000
,  // measure 57
2000
0010
0010
0010
,  // measure 58
0001
0001
0100
3100
,  // measure 59
0002
0010
0010
0010
,  // measure 60
1000
1000
0203
0320
,  // measure 61
1030
1100
1000
1010
,  // measure 62
0001
0101
0001
0011
,  // measure 63
1000
0101
0001
1100
,  // measure 64
0010
0000
0000
0000
1001
0000
0000
0000
0002
0000
0000
0000
1003
0000
0010
0100
,  // measure 65
0001
0000
0000
1000
0000
0010
1000
0000
0001
0000
0000
0010
0000
0001
1000
0000
,  // measure 66
0010
0000
0100
0001
0000
0100
0001
0000
0010
0000
0100
1000
0000
0100
1000
0000
,  // measure 67
0001
0000
0000
0100
0000
0001
0010
0000
1000
0000
0000
0010
0000
0100
1000
0000
,  // measure 68
0001
0000
0100
0010
0000
0100
0010
0000
1000
0000
0100
0010
0000
0100
0010
0000
,  // measure 69
0001
0000
0100
0010
0000
0001
0010
0000
1000
0000
0100
0010
0000
1000
0010
0000
,  // measure 70
0001
0000
0100
0010
0000
1000
0100
0000
0010
0000
0001
0100
0000
0010
0001
0000
,  // measure 71
0010
0100
0010
1000
0001
0010
0100
1000
0010
0100
0001
1000
0100
0010
0001
0100
,  // measure 72
0010
1000
0010
1001
,  // measure 73
1000
0010
0100
0000
1000
0000
0100
0010
1000
0010
0100
0000
0001
0000
0010
0100
,  // measure 74
0001
0100
0010
0000
0001
0000
1000
0010
0100
0001
0100
0010
1000
0000
0001
0000
,  // measure 75
1000
0100
0010
0000
0001
0000
1000
0100
0001
0100
1000
0000
0010
0000
1000
0001
,  // measure 76
0200
0000
0001
1000
0000
0000
1000
0001
0000
0000
0310
1000
0100
0000
0010
0000
,  // measure 77
0001
0010
0100
0000
0001
0000
0100
0010
0001
0010
0100
0000
1000
0000
0010
0100
,  // measure 78
1000
0100
0010
0000
1000
0000
0001
0010
0100
1000
0100
0010
0001
0000
1000
0000
,  // measure 79
0001
0100
0010
0000
1000
0000
0001
0100
1000
0100
0001
0000
0010
0000
0001
1000
,  // measure 80
0100
0010
0100
1001
,  // measure 81
0001
0000
0100
0001
0010
0001
0100
0000
0010
0000
1000
0100
0010
0100
1000
0000
,  // measure 82
0001
0000
0100
0010
0001
0010
0100
0000
0010
1000
0100
0010
0001
0100
0010
0000
,  // measure 83
1000
0000
0100
0010
0001
0100
0010
0000
0001
0000
0010
0100
0001
1000
0200
0000
,  // measure 84
0000
0000
0010
0001
0000
0000
0010
1000
0000
0000
0010
0001
0000
0000
0310
1000
,  // measure 85
0100
0000
0001
0100
1000
0001
0100
0000
0010
0000
0001
0010
1000
0100
0010
0000
,  // measure 86
0100
0000
0001
0100
1000
0001
0100
0000
1000
0100
0001
0010
1000
0010
0100
0000
,  // measure 87
1000
0010
0001
0010
0100
0001
0010
0100
0001
0100
1000
0001
0100
1000
0001
0010
,  // measure 88
0100
1001
0010
1001
,  // measure 89
1000
0100
0110
0000
0001
0100
0110
0000
,  // measure 90
1000
0100
0011
0000
0001
0100
1010
0000
,  // measure 91
0010
0100
1001
0000
0100
0010
1001
0000
,  // measure 92
1000
0001
0110
0000
0001
1000
0110
0000
,  // measure 93
0001
1000
1010
0010
0100
0001
1001
1000
,  // measure 94
0100
0010
0011
0001
1000
0010
0110
0100
,  // measure 95
0001
0010
1001
0100
0010
0100
1001
0001
,  // measure 96
1000
0001
0110
1000
0001
0010
1100
0010
;
