#VERSION:0.83;
#TITLE:Halogen;
#SUBTITLE:;
#ARTIST:Zenpaku;
#TITLETRANSLIT:;
#SUBTITLETRANSLIT:;
#ARTISTTRANSLIT:;
#GENRE:;
#ORIGIN:Single Release (2022);
#TAGS:;
#CREDIT:;
#BANNER:Halogen.png;
#BACKGROUND:Halogen-bg.png;
#PREVIEWVID:;
#JACKET:Halogen-jacket.png;
#CDIMAGE:;
#DISCIMAGE:;
#LYRICSPATH:;
#CDTITLE:../_YSD cdtitles/ysd tEYEcoon cdtitle.png;
#MUSIC:Halogen.ogg;
#OFFSET:0.000000;
#SAMPLESTART:114.445000;
#SAMPLELENGTH:14.769000;
#SELECTABLE:YES;
#BPMS:0.000000=130.000000
,242.500000=260.000000
,373.000000=130.000000
,374.000000=260.000000
,375.000000=520.000000
;
#STOPS:73.000000=0.115000
,76.750000=0.115000
,80.500000=0.115000
,84.250000=0.115000
,92.000000=0.115000
,99.750000=0.115000
,132.500000=0.462000
,242.500000=1.038000
,309.000000=0.115000
,310.500000=0.115000
,342.250000=0.115000
,349.750000=0.115000
,366.750000=0.115000
,367.750000=0.115000
;
#DELAYS:;
#WARPS:;
#TIMESIGNATURES:0.000000=4=4
,72.000000=3=5
,87.000000=4=4
,91.000000=3=5
,94.750000=4=4
,98.750000=3=5
,102.500000=4=4
,130.500000=3=4
,133.500000=4=4
,241.500000=2=5
,244.000000=4=4
,308.000000=3=4
,311.000000=4=4
,339.000000=7=8
,342.500000=4=4
,346.500000=7=8
,350.000000=4=4
,366.000000=3=4
,369.000000=4=4
;
#TICKCOUNTS:0.000000=4
;
#COMBOS:0.000000=1
;
#SPEEDS:0.000000=1.000000=0.000000=0
;
#SCROLLS:0.000000=1.000000
;
#FAKES:;
#LABELS:0.000000=Song Start
;
#BGCHANGES:;
#KEYSOUNDS:;
#ATTACKS:
;

//---------------dance-single - ----------------
#NOTEDATA:;
#CHARTNAME:;
#CHARTHASH:1205497116;
#STEPSTYPE:dance-single;
#BANNER:;
#DESCRIPTION:;
#CHARTSTYLE:;
#DIFFICULTY:Beginner;
#METER:10;
#METERF:0.000000;
#LASTSECONDHINT:149.764664;
#RADARVALUES:0.400952,0.548000,0.286667,0.180000,0.143333,421.000000,378.000000,43.000000,27.000000,0.000000,0.000000,0.000000,0.000000,0.000000,0.400952,0.548000,0.286667,0.180000,0.143333,421.000000,378.000000,43.000000,27.000000,0.000000,0.000000,0.000000,0.000000,0.000000;
#CREDIT:YOSEFU;
#NOTES:
// measure 0
0000
0000
0000
0000
,  // measure 1
0000
0000
0000
0000
,  // measure 2
2002
3003
0000
2000
,  // measure 3
3000
0020
0000
0030
,  // measure 4
0200
0000
0300
0002
,  // measure 5
0003
0020
0000
0030
,  // measure 6
0200
0000
0300
0020
,  // measure 7
0030
0002
0000
0003
,  // measure 8
0200
0000
0300
0020
,  // measure 9
0030
2000
0000
3000
,  // measure 10
1001
0000
1000
0000
0000
0001
0000
0000
,  // measure 11
0000
0100
0000
0100
0000
0001
0000
0000
,  // measure 12
0000
1000
0001
0000
0000
0100
0000
0010
,  // measure 13
0000
0010
1000
0000
0000
0001
0000
0000
,  // measure 14
0000
0000
0100
0000
0000
0000
0100
0000
0000
0000
0000
0000
0000
0000
0000
0010
0000
0000
0000
0000
0000
0000
0000
0000
,  // measure 15
1000
0000
0001
0100
0000
0001
0000
0000
,  // measure 16
1000
0000
0000
0000
0000
0000
0000
0100
,  // measure 17
0000
0100
0000
0000
0010
0000
0000
0000
,  // measure 18
1001
0000
0000
0001
0000
0000
0000
1001
0000
0000
0000
0001
0000
0100
0000
0001
,  // measure 19
0000
0001
0000
1001
0000
1000
0100
0010
,  // measure 20
0000
0001
0000
0000
0000
1001
0000
0000
0000
1000
0000
0010
0000
0100
0000
0000
,  // measure 21
0001
0000
0000
0000
1001
0000
0000
0000
1000
0000
0100
0000
0010
0000
0000
0001
,  // measure 22
0000
0000
1000
0000
1001
0000
0000
0000
0001
0000
0100
0000
0010
0000
0000
1000
,  // measure 23
0000
0000
0000
1001
0000
0000
0000
0001
0000
0010
0000
0100
0000
0000
0010
0000
,  // measure 24
0000
0001
0000
1001
0000
0000
0000
1000
0000
0010
0000
0100
0000
0000
0001
0000
,  // measure 25
0000
0000
1001
0000
0000
1000
0000
0000
0100
0000
0110
0000
0000
0001
0000
0000
,  // measure 26
0000
0000
0001
0000
1000
0000
0001
0000
0100
0000
0000
0010
0000
0000
0000
0010
,  // measure 27
0000
0000
1000
0000
0100
0000
0010
0000
0001
0000
0100
0000
0000
0001
0000
0000
,  // measure 28
0000
0000
0001
0000
1000
0000
0100
0000
0010
0000
0000
0001
0000
0000
0000
0001
,  // measure 29
0000
0000
0100
0000
0010
0000
1000
0000
0001
0000
0010
0000
0000
0100
0000
0000
,  // measure 30
0000
0000
0100
0000
1000
0000
0001
0000
0100
0000
0000
0010
0000
0000
0000
1000
,  // measure 31
0000
0000
0100
0000
0010
0000
0100
0000
1000
0000
0001
0000
0000
0100
0000
0000
,  // measure 32
0000
0000
0010
0000
1000
0000
0001
0000
0010
0000
0000
0100
0000
2000
0000
0000
,  // measure 33
0000
3001
0000
0110
0000
1000
0001
1000
,  // measure 34
0000
1001
0000
0001
0000
0010
0100
2000
,  // measure 35
0000
3001
0100
0010
0000
1000
0001
0010
,  // measure 36
0000
0110
0000
0100
0000
1000
0010
0002
,  // measure 37
0000
0013
1000
0001
0000
0010
0100
1001
,  // measure 38
0000
0110
0000
1000
0001
0100
0010
2000
,  // measure 39
0000
3100
0010
0001
0000
0100
0010
1001
,  // measure 40
0000
0110
0000
1000
0100
0010
0100
0002
,  // measure 41
0000
0103
1000
1001
0000
0001
0100
0000
,  // measure 42
0000
0000
0000
0001
1000
0000
0000
0000
,  // measure 43
0000
0100
0010
0000
0000
0001
0100
0000
,  // measure 44
0000
0000
0000
0001
1000
0000
0000
0000
,  // measure 45
0100
0010
0001
0000
0000
0100
0010
0000
,  // measure 46
0000
0000
0000
1000
0001
0000
0000
0000
,  // measure 47
0000
0010
0100
0000
0000
1000
0001
0000
,  // measure 48
0000
0000
0000
0100
0001
0000
0000
0000
,  // measure 49
0010
0100
1000
0000
0000
0001
0100
0010
,  // measure 50
0100
0000
0000
0001
1000
0000
0100
0001
,  // measure 51
0100
1000
0001
0100
0010
1000
0100
0010
,  // measure 52
0001
0000
0100
0001
0010
0100
0001
0100
,  // measure 53
1000
0001
0100
0010
1000
0100
0010
0001
,  // measure 54
1000
0000
0010
0100
0001
0010
0100
1000
,  // measure 55
0001
0100
0010
1000
0001
0010
0100
1000
,  // measure 56
0001
0000
0100
0001
0010
0100
0001
0100
,  // measure 57
1000
0001
0100
0010
0000
0000
0000
0000
,  // measure 58
0000
0000
0000
0000
,  // measure 59
0000
0000
0000
0000
,  // measure 60
0000
0000
0000
0000
,  // measure 61
1001
0000
1000
0000
0000
0010
0000
0000
,  // measure 62
0110
0000
0000
0100
0000
0000
0001
0100
,  // measure 63
0000
0000
0001
0000
0000
0010
0000
0000
,  // measure 64
0110
0000
0000
0100
0000
0000
1000
0001
,  // measure 65
0000
0000
0100
0000
0000
0001
0000
0000
,  // measure 66
1001
0000
0000
1000
0000
0000
0001
0100
,  // measure 67
0000
0000
0010
0000
0000
1000
0000
0000
,  // measure 68
1001
0000
0000
0001
0000
0000
0010
0100
,  // measure 69
0000
0000
1000
0000
0000
0001
0000
0000
,  // measure 70
0110
0000
0000
1000
0000
0001
1000
0000
,  // measure 71
0010
0000
0100
0000
0000
0001
0000
0000
,  // measure 72
0010
0000
0000
0010
0000
0000
0100
1000
,  // measure 73
0100
0000
0010
0000
0000
0001
0000
0000
,  // measure 74
0110
0000
0000
1000
0000
0001
1000
0000
,  // measure 75
0001
1000
0001
0000
1000
0000
0000
0000
,  // measure 76
0010
0100
0000
0010
0100
0000
0001
0000
,  // measure 77
2002
0000
0000
3003
,  // measure 78
1000
0001
0000
0000
0100
0001
0000
0000
,  // measure 79
1000
0100
1000
0000
0000
0000
0001
0100
,  // measure 80
0001
0000
1000
0000
0001
1000
0000
0000
,  // measure 81
0001
0100
0010
1001
,  // measure 82
0000
0110
0000
0000
1001
0000
1000
0000
,  // measure 83
0001
0100
0001
0000
0000
0000
1000
0100
,  // measure 84
1000
0000
0000
0100
0000
0000
0000
0000
0000
0000
0000
0000
1001
0000
0000
0000
0000
0000
1000
0000
0000
0000
0001
0000
,  // measure 85
0000
0000
1000
0000
0000
0000
0001
0000
0000
1000
0000
0000
0002
0000
0000
0003
0000
0000
0000
0000
0000
0000
0000
0000
,  // measure 86
1001
0000
0000
0000
0000
0000
0000
0000
0000
0110
0000
0000
0000
0000
0000
0001
0000
0000
0000
1000
0000
0000
0000
0001
,  // measure 87
0000
1000
0001
2000
3000
0000
0000
0110
,  // measure 88
0000
1001
0000
0110
,  // measure 89
0000
1001
0000
0110
,  // measure 90
0000
1001
0000
0110
,  // measure 91
0100
0010
0000
0200
0020
0000
0000
0000
,  // measure 92
0330
2002
0000
0000
,  // measure 93
3003
1001
0000
0000
,  // measure 94
0000
1000
0000
0001
,  // measure 95
0000
1000
0000
0001
,  // measure 96
0000
0100
0000
0001
,  // measure 97
0000
0100
0000
0001
,  // measure 98
0000
0000
0000
0010
0000
0000
0000
0000
0000
0000
0000
0100
,  // measure 99
0000
0000
0000
0000
0000
0000
0000
1000
0000
0000
0000
0000
,  // measure 100
0000
0000
0000
0001
0000
0000
0000
0000
0000
0000
0000
0100
,  // measure 101
0000
0000
0000
0000
0000
0000
0000
0010
0000
0000
0000
0000
,  // measure 102
0000
2000
0000
3000
;

//---------------dance-single - ----------------
#NOTEDATA:;
#CHARTNAME:;
#CHARTHASH:469173885;
#STEPSTYPE:dance-single;
#BANNER:;
#DESCRIPTION:;
#CHARTSTYLE:;
#DIFFICULTY:Easy;
#METER:13;
#METERF:0.000000;
#LASTSECONDHINT:149.764664;
#RADARVALUES:0.520952,0.787750,0.293333,0.220000,0.423333,547.000000,503.000000,44.000000,33.000000,0.000000,0.000000,0.000000,0.000000,0.000000,0.520952,0.787750,0.293333,0.220000,0.423333,547.000000,503.000000,44.000000,33.000000,0.000000,0.000000,0.000000,0.000000,0.000000;
#CREDIT:Yosefu as ''arylhalide'';
#NOTES:
0000
0000
0000
0000
,
0000
0000
0000
0000
,
0000
0000
1000
0000
0000
0001
0000
0000
0100
0000
0000
0100
0000
0000
0000
0000
,
0000
0000
0010
0000
0000
1000
0000
0000
0001
0000
0000
0001
0000
0000
0000
0000
,
0000
0000
0010
0000
0000
0100
0000
0000
1000
0000
0000
1000
0000
0000
0000
0000
,
0000
0000
0001
0000
0000
0100
0000
0000
0010
0000
0000
0010
0000
0000
0000
0000
,
0000
0000
1000
0000
0000
0100
0000
0000
0010
0000
0000
0010
0000
0000
0000
0000
,
0000
0000
0001
0000
0000
0100
0000
0000
0010
0000
0000
0010
0000
0000
0000
0000
,
0000
0000
1000
0000
0000
0001
0000
0000
0010
0000
0000
0010
0000
0000
0000
0000
,
0000
0000
0100
0000
0000
1000
0000
0000
0001
0000
0000
0100
0000
0000
0010
0000
,
0000
0000
1000
0000
0000
0100
0000
0000
0010
0000
0000
0010
0000
0000
0000
0000
,
0000
0000
0001
0000
0000
0100
0000
0000
0010
0000
0000
0010
0000
0000
0000
0000
,
0000
0000
0100
0000
0000
0001
0000
0000
1000
0000
0000
1000
0000
0000
0000
0000
,
0000
0000
0100
0000
0000
0010
0000
0000
0001
0000
0000
0001
0000
0000
0001
0000
,
1000
0000
0000
0000
0001
0000
0000
0000
1000
0000
0000
0000
0001
0000
0000
0000
0000
0000
0000
0000
0000
0000
0000
0000
0100
0000
0000
0000
0000
0000
0000
0000
0000
0100
0000
0000
0000
0000
0000
0000
0000
0000
0000
0000
0000
0000
0000
0000
,
0000
0010
0000
0000
0000
1000
0000
0000
0001
0000
0000
0001
0000
0000
0000
0000
,
0000
0000
0010
0000
0000
0100
0000
0000
1000
0000
0000
1000
0000
0000
0000
0000
,
0000
0000
0001
0000
0000
0100
0000
0000
0010
0000
1000
0000
0100
0000
0010
0000
,
0001
0000
0000
2000
0000
3001
0000
0100
0000
0001
0000
1000
0000
0100
0000
0010
,
0000
0002
1003
0001
0100
0010
0001
0010
,
0000
0200
0000
0310
0000
1000
0000
0001
0000
0100
0000
0010
0000
1000
0000
0000
,
0200
0000
0310
0000
0001
0000
0100
0000
1000
0000
0100
0000
0001
0000
0000
0010
,
0000
0000
0100
0000
0001
0000
0100
0000
1000
0000
0001
0000
0100
0000
0000
0020
,
0000
0031
0000
0010
0000
1000
0000
0100
0000
0010
0000
0001
0000
0000
1000
0000
,
0000
0010
0000
0100
0000
0001
0000
0010
0000
0001
0000
1000
0000
0000
0020
0000
,
0130
0000
0001
0000
0000
0100
0000
0000
1000
0000
0100
0000
0000
0001
0000
1000
,
0000
0001
0000
0000
1000
0000
0100
0000
0010
0000
0000
0001
0000
0100
0000
0001
,
0000
1000
0000
0000
0100
0000
0001
0000
0100
0000
1000
0000
0000
0001
0000
0100
,
0000
0001
0000
0000
1000
0000
0100
0000
0010
0000
0000
0001
0000
0100
0000
0001
,
0000
0010
0000
0000
1000
0000
0010
0000
0001
0000
1000
0000
0000
0010
0000
0100
,
0000
0001
0000
0000
0010
0000
0100
0000
1000
0000
0000
0001
0000
0100
0000
0010
,
0000
1000
0000
0000
0010
0000
0001
0000
0010
0000
1000
0000
0000
0100
0000
0010
,
0000
0001
0000
0000
0100
0000
0010
0000
1000
0000
0000
0002
0000
0020
0000
0000
,
0000
0033
0000
1001
0000
0001
0100
0110
,
0000
0010
1000
0001
0010
0100
1000
1001
,
0000
0001
0100
0010
0000
1000
0100
0110
,
0000
0010
0001
0010
1000
0010
0100
1100
,
0000
1000
0001
0100
0000
1000
0100
0110
,
0000
0010
1000
0001
0010
0100
0010
0011
,
0000
0001
1000
0010
0000
0001
0010
0110
,
0000
0100
0001
1000
0100
0010
0001
1001
,
0000
0110
0000
0000
1001
0000
1000
0000
0000
0000
0100
0000
0010
0000
0000
0000
,
0000
0001
0000
0100
0010
0000
0000
1000
,
0000
0100
0010
0001
0000
0100
0001
1000
,
0000
0100
0000
0010
0100
1000
0000
0010
,
0001
0010
0100
0001
0000
1000
0100
0010
,
0000
0001
0000
0100
0010
0100
0000
0001
,
0000
1000
0100
0010
0000
0001
0100
0010
,
0000
1000
0000
0100
0001
0100
0000
1000
,
0001
0100
0001
0010
0000
0001
1000
1010
,
0000
0010
0100
0001
1000
0100
0010
0001
,
0010
0100
1000
0001
0100
0010
1000
1010
,
0000
0010
0100
0001
0010
0100
0001
0100
,
1000
0010
0100
0001
0010
0100
1000
1001
,
0000
0001
0100
0010
1000
0100
0010
0100
,
1000
0000
0001
0000
0100
0000
0001
0000
1000
0000
0001
1000
0001
0000
0100
0000
,
0010
0000
0000
0000
0000
0000
0100
0000
0000
0010
0000
0000
0100
0000
0000
0000
0000
0000
0001
0000
0000
0000
1000
0000
0000
0000
0001
0000
0000
0000
0100
0000
0000
0000
0010
0000
0000
0000
0100
0000
0000
0000
0001
0000
0000
0000
0010
0000
,
0000
0100
0000
1000
0000
0001
0000
0100
0000
0020
0000
0000
0000
0000
0000
0000
0000
0000
0000
0000
0000
0000
0000
0000
,
0000
0000
0000
2030
0000
0000
0000
0000
,
0000
0000
0000
3002
0000
0000
0000
0000
,
0000
0000
0000
0203
0000
0000
0000
0000
,
0301
1000
0001
1000
0000
0000
0100
0000
0000
0010
0000
0000
,
0011
0000
0000
1001
0000
0000
0001
1000
,
0000
0000
0200
0000
0300
0020
0000
0030
,
0011
0000
0000
0002
0000
0003
1000
0010
,
1000
0010
1000
0010
0000
0000
0100
0000
0000
0001
0000
0000
,
1001
0000
0000
1010
0000
0000
1000
0001
,
0000
0000
0020
0000
0030
0200
0000
0300
,
1100
0000
0000
2000
0000
3000
0001
0100
,
0001
0100
0001
0100
0000
0000
0010
0000
0000
1000
0000
0000
,
1001
0000
0000
0011
0000
0000
0010
0100
,
0010
0000
0002
0000
0003
2000
0000
3000
,
1010
0000
0000
0020
0000
0130
0001
0000
,
1000
0000
0002
0000
0003
0200
0000
0300
,
0110
0000
0000
0000
0000
0000
0000
0000
0000
1001
0000
0000
0000
0000
0000
1000
0000
0000
0100
0000
0010
0000
0100
0000
,
0010
0000
0001
0000
1000
0010
0000
0000
,
0110
0000
0000
0100
0001
0000
1000
0000
,
1100
0000
0000
0000
0000
0000
0022
0033
0000
0000
0000
0000
1001
0000
0000
0000
,
0000
1010
0000
0000
0010
0100
0000
0000
,
0001
1000
0001
0000
0000
0000
1000
0001
,
1000
0000
0001
0000
0100
0010
0000
0000
,
1000
0001
1000
0001
0000
0000
0100
0010
0100
0010
0000
0000
,
0000
1001
0000
0000
0110
0000
0000
0000
,
1000
0001
1000
0000
0000
0000
0001
0010
,
0001
0000
0000
0000
0000
0000
1000
0000
0000
0000
0000
0000
0010
0000
0000
0100
0000
0000
0010
0000
0000
0000
0100
0000
,
0000
0000
0000
0000
0010
0000
0000
0000
0000
0000
0000
0000
1000
0000
0000
0000
0000
0000
0000
0000
0000
0000
0000
0000
2002
0000
0000
3003
0000
0000
0110
0000
0000
0000
0000
0000
0000
0000
0000
0000
0000
0000
0000
0000
0000
0000
0000
0000
,
1001
0000
0000
0000
0000
0000
0000
0000
0000
0001
0000
0000
0010
0000
0000
0100
0000
0000
0000
1000
0000
0000
0000
0100
,
0000
0000
1000
0000
0000
0000
2020
3030
0101
0000
0000
0000
0000
0000
1001
0000
,
0000
0000
1000
0100
1000
0000
1010
0000
,
0010
0000
0110
0000
0100
0000
0001
0100
,
0001
1001
1000
0110
,
0001
0000
1000
0000
0000
0000
0001
0000
1000
0000
0000
0000
0002
0003
0000
0000
,
0100
0220
0000
0000
,
0330
1001
0000
0000
,
0000
1000
0001
1000
,
0000
0001
0000
0100
,
0000
0001
1000
0001
,
0000
1000
0001
1000
,
0000
0000
0000
0001
0000
0000
0000
1000
0000
0000
0000
0001
,
0000
0000
0000
1000
0000
0000
0000
0010
0000
0000
0000
1000
,
0000
0000
0000
0010
0000
0000
0000
0100
0000
0000
0000
0010
,
0000
0000
0000
0100
0000
0000
0000
0001
0000
0000
0000
0100
,
0000
0002
0000
0003
;

//---------------dance-single - ----------------
#NOTEDATA:;
#CHARTNAME:;
#CHARTHASH:692937688;
#STEPSTYPE:dance-single;
#BANNER:;
#DESCRIPTION:;
#CHARTSTYLE:;
#DIFFICULTY:Medium;
#METER:15;
#METERF:0.000000;
#LASTSECONDHINT:149.764664;
#RADARVALUES:0.647619,0.856250,0.166667,0.340000,0.643333,680.000000,655.000000,25.000000,51.000000,0.000000,0.000000,0.000000,0.000000,0.000000,0.647619,0.856250,0.166667,0.340000,0.643333,680.000000,655.000000,25.000000,51.000000,0.000000,0.000000,0.000000,0.000000,0.000000;
#CREDIT:Yosefu as ''arylhalide'';
#NOTES:
0000
0000
0000
0000
,
0000
0000
0000
0000
,
1000
0000
0001
0000
0000
0100
0000
0000
0010
0000
0000
0010
0000
0000
0000
0000
,
0000
0000
1000
0000
0000
0100
0000
0000
0010
0000
0000
0010
0000
0000
0000
0000
,
0001
0000
1000
0000
0000
0010
0000
0000
0100
0000
0000
0100
0000
0000
0000
0000
,
0000
0000
0001
0000
0000
0010
0000
0000
0100
0000
0000
0100
0000
0000
0000
0000
,
1000
0000
0001
0000
0000
0100
0000
0000
0001
0000
0000
0001
0000
0000
0000
0000
,
0000
0000
0010
0000
0000
0100
0000
0000
1000
0000
0000
1000
0000
0000
0000
0000
,
0010
0000
0100
0000
0000
0001
0000
0000
1000
0000
0000
1000
0000
0000
0000
0000
,
0000
0000
0100
0000
0000
0010
0000
0000
0001
0000
0000
1000
0000
0000
0001
0000
,
0100
0000
0010
0000
0000
1000
0000
0000
0001
0000
0000
0001
0000
0000
0000
0000
,
0000
0000
0010
0000
0000
0100
0000
0000
1000
0000
0000
1000
0000
0000
0000
0000
,
0001
0000
0100
0000
0000
0010
0000
0000
1000
0000
0000
1000
0000
0000
0000
0000
,
0000
0000
0100
0000
0000
0010
0000
0000
0001
0000
0000
0001
0000
0000
1000
0000
,
0010
0000
0000
0000
0100
0000
0000
0000
0001
0000
0000
0000
0100
0000
0000
0000
0000
0000
0000
0000
0000
0000
0000
0000
0001
0000
0000
0000
0000
0000
0000
0000
0000
0001
0000
0000
0000
0000
0000
0000
0000
0000
0000
0000
0000
0000
0000
0000
,
0000
0000
1000
0000
0000
0100
0000
0000
0010
0000
0000
0010
0000
0000
0100
0000
,
1000
0000
0001
0000
0000
0100
0000
0000
0010
0000
0000
0010
0000
0000
0000
0000
,
0000
0000
1000
0000
0000
0001
0000
0000
0010
0001
0010
0000
0001
1000
0001
0000
,
0100
0000
0000
0002
0000
1003
0000
0100
0000
0010
0000
0001
1000
0001
0000
0100
,
0000
0000
0020
0000
1030
0000
0100
0000
0001
0000
0100
0010
0100
0000
1000
0000
,
0000
0002
0000
0103
0000
0010
0000
0100
0000
0001
0100
0001
0000
1000
0000
0000
,
0200
0000
0310
0000
0100
0000
0001
0000
0100
0010
0100
0000
1000
0000
0000
0001
,
0000
0000
0100
0000
0010
0000
1000
0000
0001
1000
0001
0000
0010
0000
0000
0200
,
0000
1300
0000
0010
0000
0001
0000
0010
0100
0010
0000
1000
0000
0000
0001
0000
,
0000
0010
0000
0100
0000
1000
0000
0001
0100
0001
0000
1000
0000
0000
0200
0000
,
0310
0001
0010
0000
0000
0001
0000
1000
0010
0000
0100
0000
0000
0001
0000
1000
,
0000
0001
0100
0000
0001
0000
1000
0100
0000
1000
0000
0001
0000
0100
0000
0001
,
0000
1000
0100
0000
0001
0000
0100
0010
0100
0000
1000
0000
0000
0001
0000
0100
,
0000
0001
1000
0000
0100
0000
0010
0001
0000
0010
0000
0100
0000
1000
0000
0010
,
0000
0100
0001
0000
1000
0000
0100
0010
0000
1000
0010
0000
0000
0001
0000
0100
,
0000
0010
1000
0000
0100
0000
1000
0001
0000
0100
0000
0001
0000
0010
0000
0100
,
0000
1000
0010
0000
0001
0000
0010
0100
0010
0000
1000
0000
0000
0001
0000
0010
,
0000
0100
1000
0000
0001
0000
0100
0001
0000
0010
0000
0100
0000
2000
0000
0000
,
0000
0000
3001
0000
1000
0000
1001
0000
0000
0001
0100
0000
0010
0000
1010
0000
,
0000
0000
1000
0001
0000
1000
0001
0000
0010
0000
0100
0000
1000
0001
1000
0000
,
0001
0000
1000
0100
1000
0000
0001
0000
0000
0100
0001
0000
1000
0000
1100
0000
,
0000
0000
0100
1000
0000
0100
1000
0000
0001
0000
0100
0000
0010
1000
0020
0000
,
0000
0000
0130
0001
0100
0000
0001
1000
0000
0001
0020
0000
0130
0000
1100
0000
,
1000
0000
0001
0100
0000
0001
1000
0000
0100
0000
0010
0000
0001
1000
0001
0000
,
0100
0000
0001
1000
0001
0000
0010
0100
0000
0010
0200
0000
1300
0000
1001
0000
,
0001
0000
0100
0001
0000
1000
0001
0000
0010
0000
0100
0000
1000
0001
1000
0000
,
0001
0100
0000
0001
1000
0000
0200
0000
0000
0000
0310
0000
0001
0000
1000
0000
,
0000
0002
0000
0103
0001
1000
0000
0200
,
0000
0310
0001
0200
0000
0310
1000
0100
,
0000
0020
0000
0031
1000
0010
0000
0002
,
0000
0013
1000
0002
0000
0013
0100
1000
,
0000
0020
0000
0130
0001
1000
0000
0200
,
0000
0310
0001
0200
0000
0301
1000
0100
,
0000
0020
0000
1030
0010
0001
0000
0100
,
1000
0100
0001
1000
0100
0010
0001
1001
,
1000
0010
0100
0001
1000
0010
0001
0010
,
0100
0101
0001
0010
0100
1000
0001
0101
,
0100
0001
0010
0100
1000
0010
0001
0010
,
1000
0100
0010
0011
0001
0100
0010
1010
,
1000
0100
0010
0001
0100
0010
0001
0010
,
0100
0000
0001
0000
1000
0000
0100
1000
0100
1000
0001
0000
0100
0000
0001
1000
,
0001
0000
0000
1000
0000
0000
0100
0000
0000
0000
0000
0000
0010
0000
0000
0000
0000
0000
0001
0000
0000
0000
1000
0000
0000
0000
0001
0000
0000
0000
1000
0000
0000
0000
0010
0000
0000
0000
1000
0000
0000
0000
0010
0000
0000
0000
0100
0000
,
0000
0010
0000
0100
0000
0001
0000
0100
0000
0002
0000
0000
0000
0000
0000
0000
0000
0000
0000
0000
0000
0000
0000
0000
,
0000
0000
0000
0023
0000
0000
0000
0000
,
0000
0000
0000
0230
0000
0000
0000
0000
,
0000
0000
0000
2300
0000
0000
0000
0000
,
3001
0100
0001
0100
0001
0100
0001
0000
0000
1000
0000
0000
,
1100
0000
0100
0020
0000
0130
1000
0001
,
0000
0000
0100
1000
0100
0020
0000
0000
,
1030
0001
0100
0010
0002
0000
0013
0100
,
0010
1000
0010
1000
0010
1000
0010
0000
0000
0100
0000
0000
,
0101
0000
0001
2000
0000
3100
0010
0001
,
0000
0000
0100
1000
0100
0020
0000
0000
,
1030
0001
0010
0100
0002
0000
0103
0010
,
0001
1000
0001
1000
0001
1000
0001
0000
0000
0100
0000
0000
,
1010
0000
1000
0002
0000
0103
0010
1000
,
0100
0001
0100
0010
0001
2000
0000
0000
,
3010
0001
0010
0100
0001
1000
0100
0010
,
0001
1000
0001
1000
0001
1000
0001
0000
0000
0010
0000
0000
,
1100
0000
0000
0000
0000
0000
1000
0000
0000
0002
0000
0000
0000
0000
0000
0103
0000
0000
0010
0000
1000
0000
0001
0000
,
0100
1000
0100
0010
1000
0001
0010
0000
,
0001
1000
0001
0100
1000
0100
0001
0000
,
1010
0000
0000
0000
0000
0000
0202
0303
0000
0000
0000
0000
1001
0000
0000
0000
,
1000
0200
0000
1300
0001
0100
0010
0000
,
0001
0010
1000
0000
0100
0000
0010
0100
,
1000
0000
0000
0001
0000
0000
0000
0000
0000
0100
0000
0000
0001
0000
0000
0010
0000
0000
0100
0000
1000
0000
0100
0000
,
1000
0000
0000
0001
0100
0001
0100
0010
1000
0001
0000
0000
,
0010
0002
0000
1003
0001
0200
0000
0000
,
1300
0100
0002
0000
0000
0000
1003
0100
,
0010
0000
0000
0100
0000
0000
0001
0000
0000
0100
0000
0000
0010
0000
0000
0100
0000
0000
1000
0000
0001
0000
1000
0000
,
0001
0000
0000
0000
0100
0000
0000
0000
0010
0000
0000
0000
1000
0000
0000
0000
0000
0000
0001
0000
0000
0000
0000
0000
0020
0000
0000
0030
0000
0000
2001
0000
0000
0000
0000
0000
0000
0000
0000
0000
0000
0000
3001
0000
0000
0000
0000
0000
,
0020
0000
0000
0000
0000
0000
0031
0000
0000
0100
0000
0000
0010
0000
0000
1000
0000
0001
0000
1000
0000
0001
0000
0010
,
0000
0000
0100
0000
0000
0000
1000
0000
0000
0000
0000
0000
0001
0000
0000
0000
0000
0000
0200
0000
0000
0300
0000
0000
2001
0000
0000
0000
0000
0000
0000
0000
0000
0000
0000
0000
3010
0000
0000
0000
0000
0000
0200
0000
0000
0000
0000
0000
,
0000
0301
1000
0100
0010
0000
0011
0000
,
0001
1000
0010
0000
0001
0000
0010
0100
,
0001
1000
0100
0000
0010
0100
1000
0001
,
0100
0000
0010
0000
1000
0000
0000
0000
1100
0000
0000
0000
0022
0033
0000
0000
,
0101
0220
0000
0000
,
0330
1001
0000
0000
,
0000
1000
0010
1000
,
0010
0100
0001
0100
,
0001
1000
0100
1000
,
0100
0010
0001
0010
,
0001
0000
0000
1000
0000
0001
0000
1000
0000
0001
0000
1000
,
0000
0001
0000
0100
0000
0010
0000
0100
0000
0010
0000
0100
,
0000
0010
0000
1000
0000
0001
0000
1000
0000
0001
0000
1000
,
0000
0001
0000
0010
0000
0100
0000
0010
0000
0100
0000
0010
,
0000
0100
0000
2000
0000
0000
0000
0000
0000
3000
0000
0000
;

//---------------dance-single - ----------------
#NOTEDATA:;
#CHARTNAME:;
#CHARTHASH:2147483647;
#STEPSTYPE:dance-single;
#BANNER:;
#DESCRIPTION:;
#CHARTSTYLE:;
#DIFFICULTY:Hard;
#METER:17;
#METERF:0.000000;
#LASTSECONDHINT:149.764664;
#RADARVALUES:0.762857,0.959000,0.120000,0.313333,0.890000,801.000000,783.000000,18.000000,47.000000,0.000000,0.000000,0.000000,0.000000,0.000000,0.762857,0.959000,0.120000,0.313333,0.890000,801.000000,783.000000,18.000000,47.000000,0.000000,0.000000,0.000000,0.000000,0.000000;
#CREDIT:Yosefu as ''arylhalide'';
#NOTES:
0000
0000
0000
0000
,
0000
0000
0000
0000
,
1001
0000
0001
0000
0000
0100
0000
0000
0010
0000
0000
0010
0000
0000
0000
0000
,
0000
0000
1000
0000
0000
0100
0000
0000
0010
0000
0000
0010
0000
0000
0000
0000
,
0001
0000
0100
0000
0000
0010
0000
0000
1000
0000
0000
1000
0000
0000
0000
0000
,
0000
0000
0100
0000
0000
0010
0000
0000
0001
0000
0000
0001
0000
0000
0000
0000
,
0000
0000
0100
0000
0000
0001
0000
0000
0010
0000
0000
0010
0000
0000
0000
0000
,
0000
0000
0100
0000
0000
1000
0000
0000
0001
0000
0000
0001
0000
0000
0000
0000
,
0100
0000
0010
0000
0000
1000
0000
0000
0001
0000
0000
0001
0000
0000
0000
0000
,
0000
0000
0010
0000
0000
0100
0000
0000
1000
0000
0000
0001
1000
0001
1000
0000
,
0001
0000
0100
0000
0000
0010
0000
0000
1000
0001
0010
0001
0000
0000
1000
0001
,
0100
0000
0010
0000
0000
1000
0001
0000
0100
0010
1000
0001
0000
0000
1000
0100
,
0010
0000
0001
0000
0000
0100
0000
0000
0001
1000
0100
1000
0000
0000
0010
0100
,
0001
0000
1000
0000
0000
0100
0000
0000
1000
0010
0100
0001
0000
0000
1000
0100
,
0010
0000
0000
0000
0001
0000
0000
0000
1000
0000
0000
0000
0001
0000
0000
1000
0000
0000
0000
0000
0000
0000
0000
0000
0100
0000
0000
0010
0000
0000
0001
0000
0000
1000
0000
0000
0000
0000
0000
0000
0000
0000
0010
0000
0000
0100
0000
0000
,
0001
0000
1000
0000
0000
0100
1000
0000
0010
0100
0001
1000
0000
0000
0100
0010
,
0001
0000
0100
0000
0000
0010
0000
0000
1000
0000
0000
1000
0000
0000
0100
0000
,
0010
0000
0001
0000
0000
0010
0000
0000
0001
1000
0001
1000
0010
0100
0010
0100
,
0001
0000
1000
0200
0000
1300
0001
0100
0000
0001
0000
1000
0100
1000
0100
1000
,
0000
0001
0200
0000
0301
1000
0100
0000
0001
0000
0100
0010
0100
0010
0100
0000
,
1000
0002
0000
0103
0010
1000
0000
0001
0000
0010
0100
0010
0100
0010
0000
0001
,
2000
0000
3001
0100
0010
0000
0001
0000
0010
0100
0010
0100
0001
0000
1000
0100
,
0000
0010
0001
1000
0010
0100
0001
0000
0010
0100
0010
0100
1000
0000
0001
0020
,
0000
0130
1000
0010
0000
0001
0000
0010
0100
0010
0100
0001
0000
1000
0100
0000
,
0010
0001
1000
0010
0100
0001
0000
1000
0100
0010
0100
1000
0000
0001
0200
0000
,
1300
0100
0001
0000
0000
0010
0000
0100
1000
0100
0010
0000
0000
0001
0000
1000
,
0000
0001
0100
0000
0010
0000
1000
0001
0100
0001
0000
1000
0000
0100
0000
0010
,
0000
0001
1000
0010
0001
0000
0010
0100
0001
1000
0001
0000
0000
0010
0000
0100
,
0000
0010
0001
0000
1000
0000
0010
0100
0001
1000
0000
0100
0000
0010
0000
0001
,
0000
1000
0010
0000
0001
0000
0010
1000
0100
0001
0100
0000
0000
1000
0000
0001
,
0000
0100
0010
0000
1000
0000
0001
0010
0100
0010
0000
0001
0000
1000
0000
0001
,
0000
0100
0010
0000
0001
0000
0010
0100
0001
1000
0100
0000
0000
0010
0000
0100
,
0000
1000
0001
0000
0100
0000
0001
0100
0010
2000
0000
0100
0000
0002
0000
0000
,
0000
0000
3003
0000
1000
0001
0100
0000
0000
0001
0100
0001
1000
0001
0010
0000
,
0100
0000
1100
0000
1000
0001
0100
0001
1000
0000
0010
0100
0001
1000
0100
0000
,
0010
0000
1000
0010
0100
1000
0001
0000
0000
0100
0001
1000
0001
0100
0010
0000
,
1000
0000
1001
0000
0001
0100
0010
0100
0001
0000
1000
0100
0010
0001
0200
0000
,
0000
0000
1300
0100
0010
1000
0001
0100
0000
0010
0200
0000
0301
1000
0100
0010
,
0001
0000
1001
0000
1000
0010
0100
0010
1000
0000
0100
0010
0001
1000
0010
0000
,
0100
0000
1000
0100
0001
1000
0100
0010
0000
0100
2000
0000
3001
0100
0010
1000
,
0001
0000
0011
0000
0010
0100
0010
0001
1000
0000
0010
0100
0001
0010
1000
0000
,
0010
0001
0000
0100
1000
0100
0001
0000
0000
0000
1000
0000
0100
0000
0110
0000
,
0000
0010
0001
1000
0010
0100
0000
0002
,
0000
1003
0010
0100
0000
0001
0010
0110
,
0000
0100
1000
0001
0100
0010
0000
0001
,
0010
1000
0001
0010
0000
0100
1000
1010
,
0000
0010
0100
0001
1000
0100
0000
0020
,
0000
0130
1000
0010
0000
0100
0001
1001
,
0000
1000
0100
0010
0001
0100
0000
1000
,
0100
0000
0000
0001
0000
0000
1000
0000
0000
0100
0000
0000
0010
0000
0000
0001
0000
0000
1000
0000
0000
0001
0000
1000
,
0001
0100
0010
1000
0001
0010
1000
0010
,
0100
0000
0000
1000
0000
0001
1000
0000
0000
0010
0000
0000
0100
0000
0000
0001
0000
0000
1000
0000
0000
0100
0000
1000
,
0100
0010
0100
1000
0010
0100
1000
0100
,
0001
0000
0000
1000
0000
0000
0100
0000
0000
0010
0000
0000
0001
0000
0000
1000
0000
0000
0010
0000
0000
1000
0010
1000
,
0010
0200
0000
0301
0010
0100
0001
0100
,
1000
0000
0001
0000
0100
0000
0010
1000
0010
1000
0001
0010
0100
0000
1000
0100
,
1000
0000
0000
0100
0000
0000
0010
0000
0000
0001
0000
0000
0100
0000
0000
0000
0000
0000
0010
0000
0000
0000
1000
0000
0000
0000
0001
0000
0000
0000
0010
0000
0000
0000
0100
0000
0000
0000
1000
0000
0000
0000
0010
0000
0000
0000
0100
0000
,
0000
0001
0000
1000
0000
0100
0000
0010
0000
0002
0000
0000
0000
0000
0000
0000
0000
0000
0000
0000
0000
0000
0000
0000
,
0000
0000
0000
0203
0000
0000
0000
0000
,
0000
0000
0000
0320
0000
0000
0000
0000
,
0000
0000
0000
2030
0000
0000
0000
0000
,
3001
0100
0001
0100
0010
1000
0010
1000
0001
1000
0000
0000
,
1001
0000
0001
0200
0000
0301
0010
0100
,
0000
0000
0000
0000
1000
0001
1000
0000
0001
0000
0000
0000
0000
0000
0000
0000
,
1000
0010
1000
0000
0010
0000
2000
0000
0000
0000
3001
0000
1000
0000
0010
0000
,
0100
0001
0100
0001
0100
0010
1000
0010
1000
0001
0000
0000
,
0011
0000
0010
0200
0000
1300
0001
0100
,
0000
0000
0000
0000
0010
1000
0010
0000
1000
0000
0000
0000
0000
0000
0000
0000
,
0001
1000
0001
0000
1000
0000
0002
0000
0000
0000
0013
0000
0100
0000
1000
0000
,
0001
0100
0010
0100
0001
1000
0100
1000
0100
0010
0000
0000
,
1001
0000
0001
0020
0000
0130
1000
0010
,
0100
0000
0001
0000
0100
0001
0100
0000
0001
0000
0000
0000
0000
0000
0000
0000
,
1000
0001
1000
0000
0001
0000
2000
0000
0000
0000
3100
0000
0010
0000
1000
0000
,
0010
0001
2000
0000
3010
0200
0000
0301
,
2000
0000
0000
0000
0000
0000
3000
0000
0000
1100
0000
0000
0000
0000
0000
0100
0000
0000
1000
0000
0001
0000
0010
0000
,
0100
0001
0100
1000
0001
2000
0000
3100
,
1000
0010
1000
0100
0001
0100
1000
0000
,
0001
0000
0010
0000
0000
0000
0200
0300
2000
3000
0000
0000
1001
0000
0000
0000
,
0001
0020
0000
0130
1000
0010
0100
0000
,
0001
1000
0001
0000
1000
0000
0000
0000
0000
0000
0100
0000
1000
0100
1000
0000
,
0001
0000
0000
0200
0000
0000
0000
0000
0000
0310
0000
0000
0100
0000
0000
0001
0000
0000
1000
0000
0100
0000
0010
0000
,
0100
1000
0001
0010
0001
1000
0010
0100
0001
2000
0000
0000
,
3100
0020
0000
0130
1000
0001
0000
0100
,
0010
1000
0010
0000
0200
0000
0000
0000
0000
0000
0000
0000
0301
1000
0001
0000
,
1000
0000
0000
0200
0000
0000
0000
0000
0000
0310
0000
0000
1000
0000
0000
0010
0000
0000
0001
0000
0010
0000
0100
0000
,
1000
0000
0000
0000
0010
0000
0000
0000
0100
0000
0000
0000
0001
0000
0000
1000
0000
0000
0001
0000
0000
0000
0000
0000
2000
0000
0000
3000
0000
0000
1002
0000
0000
0000
0000
0000
0000
0000
0000
0000
0000
0000
1003
0000
0000
0000
0000
0000
,
0020
0000
0000
0000
0000
0000
1030
0000
0000
0100
0000
0000
0010
0000
0000
0001
0000
0100
0000
0010
0000
1000
0000
0100
,
0000
0000
0010
0000
0000
0000
0001
0000
0000
1000
0000
0000
0001
0000
0000
0000
0000
0000
0020
0000
0000
0030
0000
0000
0021
0000
0000
0000
0000
0000
0000
0000
0000
0000
0000
0000
0130
0000
0000
0000
0000
0000
2000
0000
0000
0000
0000
0000
,
0000
3010
1000
0001
0010
1000
0010
0100
,
1000
0010
0001
0010
0100
0001
1000
1000
,
0100
0010
1000
0010
0001
0100
1000
0100
,
0001
0000
0010
0000
0100
0000
1000
0000
0001
0000
0100
0000
2000
3000
0200
0300
,
0001
0100
0220
0000
0000
0000
0000
0000
,
0330
1001
0000
0000
,
0000
0000
0001
1000
0001
0000
1000
0000
,
0100
0010
0001
1000
,
0010
0000
0100
0001
0100
0000
0010
0000
,
1000
0000
0001
1000
0001
0000
1000
0000
,
0100
0000
0000
0010
0000
0001
0000
0010
0000
0001
0000
1000
,
0000
0010
0000
1000
0000
0010
0000
0100
0000
0001
0000
0100
,
0000
0001
0000
1000
0000
0100
0000
0010
0000
0100
0000
1000
,
0000
0001
0000
0100
0000
0010
0000
0100
0000
0001
0000
0010
,
0000
0100
0000
2000
0000
0000
0000
0000
0000
3000
0000
0000
;

//---------------dance-single - ----------------
#NOTEDATA:;
#CHARTNAME:*cries in exactly 2m 30s*;
#CHARTHASH:2147483647;
#STEPSTYPE:dance-single;
#BANNER:;
#DESCRIPTION:;
#CHARTSTYLE:;
#DIFFICULTY:Challenge;
#METER:18;
#METERF:0.000000;
#LASTSECONDHINT:149.764664;
#RADARVALUES:0.935238,1.061750,0.126667,0.220000,1.266667,982.000000,963.000000,19.000000,33.000000,0.000000,0.000000,0.000000,0.000000,0.000000,0.935238,1.061750,0.126667,0.220000,1.266667,982.000000,963.000000,19.000000,33.000000,0.000000,0.000000,0.000000,0.000000,0.000000;
#CREDIT:Yosefu as ''arylhalide'';
#NOTES:
0000
0000
0000
0000
,
0000
0000
0000
0000
,
1001
0000
1000
0000
0000
0010
0000
0000
0100
0000
0000
0100
0001
0000
0000
0000
,
1000
0000
0100
0000
0010
0001
0000
0000
0100
0000
0000
0100
0000
0000
0000
0000
,
0010
0000
1000
0000
0000
0001
0000
0000
0010
0000
0000
0100
0001
0000
0000
0000
,
0100
0000
1000
0000
0001
0100
0000
0000
0010
0000
0000
0010
0000
0000
0000
0000
,
0100
0000
0001
0000
0000
0010
0000
0000
0100
0000
0000
0100
1000
0000
0000
0000
,
0001
0000
0100
0000
0010
1000
0000
0000
0100
0000
0000
0100
0000
0000
0000
0000
,
0010
0000
0001
0000
0000
1000
0000
0000
0010
0000
0000
0010
0100
0000
0000
0000
,
0001
0000
0000
0000
0000
0000
0010
0000
0000
0000
0000
0000
0100
0000
0000
1000
0000
0000
0000
0000
0000
0000
0000
0000
0010
0000
0000
0000
0000
0000
0000
0000
0000
1000
0000
0000
0010
0000
1000
0000
0010
0000
1000
0000
0000
0000
0000
0000
,
0001
0000
0010
0000
0001
0000
1000
0000
0010
1000
0010
0000
0100
0010
1000
0001
,
1000
0100
0010
0000
0001
0000
0100
0010
1000
0001
0010
0001
0000
0100
0001
1000
,
0001
0000
0011
0000
0010
0000
0000
0001
1000
0001
0100
0000
0001
1000
0010
1000
,
0001
0000
0101
0000
0100
0000
0001
0000
1000
0100
0010
0001
0000
0010
0100
1000
,
0001
0000
0000
0000
0100
0000
0000
0000
0001
0000
0000
0000
1000
0000
0000
0000
0000
0000
0000
0000
0000
0000
0000
0000
0100
0000
0000
0010
0000
0000
0001
0000
0000
0000
0000
0000
1000
0000
0000
0001
0000
0000
0100
0000
0000
0001
0000
0000
,
1000
0100
0010
0000
0001
0000
0100
0010
1000
0100
0010
0001
0000
0100
0001
1000
,
0001
0000
0010
0000
0100
1000
0000
0000
0001
0000
0100
0001
0000
0000
1001
0000
,
1000
0000
1010
0000
0010
0100
0000
0000
0010
0001
0010
1000
0001
0010
0100
1000
,
0001
0100
0010
0200
0000
0301
1000
0100
0010
1000
0010
0100
1000
0001
0100
0001
,
0010
0100
2000
0000
3010
0100
0001
0010
1000
0010
0100
1000
0010
0100
0001
1000
,
0010
2000
0000
3100
0010
0001
0100
0010
0001
0010
0100
0001
1000
0100
0010
0001
,
2000
0000
3100
0010
0001
0100
1000
0100
0010
1000
0100
0010
0001
1000
0010
0100
,
0000
0001
0010
0100
1000
0010
0100
1000
0100
0010
1000
0001
0010
0100
1000
0002
,
0000
0013
0001
1000
0010
0001
0010
0100
0001
0010
0100
1000
0001
0100
0010
0000
,
1000
0001
0010
0100
0010
1000
0010
0100
1000
0001
0100
0010
1000
0001
2000
0000
,
3010
0001
0010
0100
0000
0001
0000
0010
1000
0010
0001
0000
0000
0100
0000
0010
,
0000
0100
0001
0010
0100
0001
0100
1000
0001
0100
0000
0010
0000
0100
0000
0010
,
0000
1000
0001
0100
1000
0100
0001
0010
0100
0001
0100
0000
0000
1000
0000
0001
,
0000
1000
0010
0100
1000
0100
0001
0010
0100
1000
0000
0001
0000
0100
0000
0001
,
0000
1000
0100
1000
0010
0100
1000
0001
0010
1000
0001
0000
0000
0100
0000
0010
,
0000
0100
0001
0010
0100
0001
0100
1000
0010
0100
0000
0001
0000
1000
0000
0100
,
0000
0010
0001
0100
1000
0100
0001
0010
0100
0001
0100
0000
0000
1000
0000
0001
,
0000
0100
0010
0100
1000
0100
0001
0010
0100
1000
0000
0010
0000
0200
0000
0000
,
0000
0000
0302
0013
1000
0010
0001
1000
0010
1000
0001
0010
0100
1000
0010
0100
,
0001
0000
1000
0010
0100
1000
0100
0001
0010
0100
1000
0001
0100
0001
0020
0000
,
0100
0000
0031
0010
1000
0010
0001
0100
0001
0010
0100
1000
0010
0100
0001
1000
,
0100
0000
0010
1000
0010
0100
1000
0100
0001
0100
1000
0001
0100
0010
0002
0000
,
0000
0000
0000
0000
0000
0000
0013
0000
0000
1000
0000
0000
0001
0000
0000
0010
0000
0000
0100
0000
0000
1000
0000
0000
0000
0000
0000
0001
0000
0000
0200
0000
0000
0000
0000
0000
0310
0000
1000
0000
0001
0000
0010
0000
0000
0100
0000
0000
,
1000
0000
0100
0010
0001
0100
0010
1000
0001
0010
0100
1000
0010
0100
0001
1000
,
0100
0000
0000
0000
0000
0000
1000
0000
0000
0010
0000
0000
0001
0000
0000
0010
0000
0000
1000
0000
0000
0001
0000
0000
0000
0000
0000
0010
0000
0000
0200
0000
0000
0000
0000
0000
1300
0000
0001
0000
0100
0000
0010
0000
0000
1000
0000
0000
,
0001
0000
0010
0100
0010
1000
0010
0100
1000
0010
0100
0001
0010
1000
0002
0000
,
0103
1000
0001
0100
1000
0100
0001
0000
1000
0000
0100
0000
0010
0001
1000
0000
,
0010
0000
0100
0000
0010
0000
1000
0000
0001
0000
0010
0000
0100
1000
0001
0000
,
0100
0000
0001
0010
0100
0010
0001
0000
1000
0000
0010
0000
0100
0001
1000
0000
,
0100
0000
0010
0000
0100
0000
1000
0001
0100
0001
0100
0000
0001
0010
1000
0000
,
0010
0000
0000
0000
0000
0000
0001
0000
1000
0000
0001
0000
1000
0000
0000
0010
0000
0000
0100
0000
0000
0000
0000
0000
0001
0000
0000
0000
0000
0000
0010
0000
0000
0000
0000
0000
0100
0000
0000
1000
0000
0000
0010
0000
0000
0000
0000
0000
,
0100
0000
0001
0000
1000
0000
0100
0010
0001
0000
0100
0000
0001
1000
0100
0000
,
0010
0000
0100
1000
0001
0100
0010
0000
0100
0000
0001
0010
0100
1000
0010
0000
,
0100
0000
0001
0000
1000
0000
0100
0010
0001
0000
0100
0000
0001
0010
1000
0000
,
0010
0000
0000
0000
0000
0000
0100
0000
0000
1000
0000
0000
0001
0000
0000
0100
0000
0000
0010
0000
0000
0000
0000
0000
1000
0000
0000
0000
0000
0000
0001
0000
0000
0000
0000
0000
0010
0000
0000
0000
0000
0000
0001
0000
0000
0000
0001
0000
,
1000
0000
0010
0000
0100
0000
0001
0010
0100
0000
1000
0000
0010
0000
0001
0000
,
0010
0000
0000
1000
0010
0100
0001
0000
0000
1000
0000
0000
0100
0000
0000
0010
0000
0000
0100
0000
0000
1000
0000
1000
,
0001
0000
0100
0000
0010
0000
1000
0100
0010
0001
0100
0000
1000
0100
0020
0000
,
0100
0000
0000
1030
0001
1000
0001
0000
0000
0020
0000
0000
0000
0000
0000
1000
0000
0000
0100
0000
0000
0031
1000
0001
,
1000
2000
0010
0001
0100
3020
0100
0001
,
0100
0000
1030
0001
1000
0001
0010
0100
0010
0100
1000
0010
0100
0001
0010
0100
,
1000
0000
0000
0001
0000
0000
0100
0000
0000
0001
0000
0000
0100
0000
0000
0010
0000
0000
1000
0000
0000
0000
0100
0000
0000
0000
0010
0000
0000
0000
1000
0000
0000
0000
0010
0000
0000
0000
0001
0000
0000
0000
1000
0000
0000
0000
0010
0000
,
0000
0001
0000
0010
0000
1000
0000
0010
0000
2000
0000
0000
0000
0000
0000
0000
0000
0000
0000
0000
0000
0000
0000
0000
,
0000
0000
0000
3002
0000
0000
0000
0000
,
0000
0000
0000
0203
0000
0000
0000
0000
,
0000
0000
0000
0320
0000
0000
0000
0000
,
1030
0100
0010
0001
1000
0010
1000
0001
0010
0100
1000
0001
,
0100
0000
0001
1001
0000
0000
1000
0100
,
0010
0000
0000
0000
0001
1000
0001
1000
0001
0000
1000
0000
0000
0000
0000
0000
,
0001
0100
0001
0100
0001
0000
1000
0000
0000
0000
0000
0000
0100
0000
0010
0000
,
0001
1000
0010
0100
0001
0010
0100
1000
0001
0100
0010
1000
,
0001
0000
0010
0011
0000
0000
0001
0100
,
0010
0000
0000
0000
1000
0001
1000
0001
1000
0000
0001
0000
0000
0000
1000
0000
,
0001
0100
0001
0100
0001
0000
1000
0000
0100
0000
0010
0000
0001
0000
0100
0000
,
0010
1000
0001
0010
0100
1000
0010
0100
0001
1000
0100
0010
,
0001
0000
1000
1010
0000
0000
0010
0100
,
0001
0000
1000
0000
0010
1000
0010
1000
0010
0000
1000
0000
0000
0000
0000
0000
,
0001
1000
0001
0000
1000
0000
0010
0000
0000
0000
0100
0000
1000
0000
0100
0000
,
0001
0010
0100
1000
0010
0100
0001
1000
0100
0010
0001
0100
,
0010
0000
0000
0000
0000
0000
1000
0000
0000
1001
0000
0000
0000
0000
0000
0001
0000
0000
0010
0000
0100
0000
1000
0000
,
0010
0000
0001
0000
0010
0100
0010
0100
0010
0000
1000
0000
0001
0000
0010
0000
,
0100
1000
0100
1000
0100
0000
0010
0000
1000
0000
0010
0000
0001
0000
0000
0000
,
1000
0010
1000
0000
0000
0000
0002
0203
0302
0003
0000
0000
1001
0000
0000
0000
,
1000
1010
0000
0010
0100
0001
0010
0001
,
1000
0100
0010
0001
1000
0000
0001
0000
0000
0000
0100
0000
0001
1000
0001
1000
,
0001
0000
0000
0010
0000
0000
0001
0000
0000
0100
0000
0000
0010
0000
0000
1000
0000
0000
0001
0000
0100
0000
0010
0000
,
1000
0100
0010
0001
0100
0010
0001
0010
1000
0001
0000
0000
,
1000
1100
0000
0100
1000
0001
1000
0010
,
1000
0010
0100
0001
2000
0000
0000
0000
0000
0000
0000
0000
3001
0010
0100
1000
,
0001
0000
0000
0100
0000
0000
1000
0000
0000
0100
0000
0000
0001
0000
0000
0010
0000
0000
0100
0000
1000
0000
0001
0000
,
0100
0000
0000
0000
0010
0000
0000
0000
1000
0000
0000
0000
0001
0000
0000
0010
0000
0000
0100
0000
0000
1000
0000
0000
0002
0000
0000
0003
0000
0000
1001
0000
0000
0000
0000
0000
0000
0000
0000
0000
0000
0000
1000
0000
0000
0000
0000
0000
,
1010
0000
0000
0000
0000
0000
0010
0000
0000
0100
0000
0000
0001
0000
0000
1000
0000
0100
0000
0010
0000
0001
0000
0100
,
0000
0000
0010
0000
0000
0000
1000
0000
0000
0001
0000
0000
1000
0000
0000
0001
0000
0000
0020
0000
0000
0030
0000
0000
1001
0000
0000
0000
0000
0000
0000
0000
0000
0000
0000
0000
0001
0000
0000
0000
0000
0000
0101
0000
0000
0000
0000
0000
,
0000
0000
0100
0000
0010
0000
0001
0000
0010
0000
1000
0000
0001
0000
1000
0100
,
1000
0000
0100
0000
0010
0000
0001
0000
0100
0000
0010
0000
1000
0000
1000
0001
,
0010
0000
0001
0000
0100
0000
0010
0000
1000
0000
0100
0000
0010
0001
1000
0100
,
0010
0000
0001
1000
0100
1000
0001
1000
0010
1000
0010
0000
0200
0302
0203
0300
,
0110
2002
0000
0000
,
3003
0110
0000
0000
,
0000
0000
1000
0010
1000
0010
0100
0000
,
0001
1000
0001
0010
,
0001
0000
0100
0001
0100
0001
1000
0000
,
0001
0000
0100
0010
1000
0001
0100
0000
,
0001
0000
0000
0010
0000
0001
0000
0100
0000
0010
0000
1000
,
0000
0100
0000
0010
0000
0001
0000
1000
0000
0010
0000
0100
,
0000
0001
0000
0010
0000
0100
0000
1000
0000
0001
0000
0100
,
0000
1000
0000
0100
0000
0010
0000
1000
0000
0100
0000
0010
,
0000
0001
0000
0200
0000
0000
0000
0000
0000
0300
0000
0000
;
