#TITLE:HAERETICUS;
#SUBTITLE:;
#ARTIST:D.J.Amuro Vs MAX MAXIMIZER;
#TITLETRANSLIT:;
#SUBTITLETRANSLIT:;
#ARTISTTRANSLIT:;
#GENRE:ECCENTRIC;
#CREDIT:skeleton made by BlindedVanguard;
#BANNER:HAERETICUS.png;
#BACKGROUND:HAERETICUS-bg.png;
#LYRICSPATH:;
#CDTITLE:../_YSD cdtitles/ysd sale5 cdtitle.png;
#MUSIC:HAERETICUS.ogg;
#OFFSET:-0.101000;
#SAMPLESTART:23.174999;
#SAMPLELENGTH:18.462000;
#SELECTABLE:YES;
#BPMS:0.000000=208.000000
,144.000000=104.000000
,211.000000=208.000000
;
#STOPS:176.000000=1.731000,
209.000000=1.154000
;
#BGCHANGES:0.000=HAERETICUS.mp4=1.000=0=0=0=StretchNoLoop====,
99999=-nosongbg-=1.000=0=0=0 // don't automatically add -songbackground-
;
#KEYSOUNDS:;
#ATTACKS:;
#LASTSECONDHINT:105.101379;

//---------------dance-single - ----------------
#NOTES:
     dance-single:
     :
     Beginner:
     3:
     0.137726,0.162453,0.018904,0.000000,0.000000,102.000000,100.000000,2.000000,0.000000,0.000000,0.000000,0.137726,0.162453,0.018904,0.000000,0.000000,102.000000,100.000000,2.000000,0.000000,0.000000,0.000000:
0000
0000
0000
0000
,
0000
0000
0000
0000
,
0000
0000
0000
0000
,
0000
0000
0000
0000
,
1000
0000
0000
0000
,
0010
0000
0000
0000
,
0100
0000
0000
0000
,
0001
0000
0000
0000
,
1001
0000
0000
0000
,
0000
0000
0000
0000
,
1000
0000
0000
0000
,
0001
0000
0000
0000
,
1000
0000
0000
0000
,
0100
0000
0000
0000
,
0010
0000
0000
0000
,
0100
0000
0000
0000
,
0010
0000
0000
0000
,
0001
0000
0000
0000
,
1001
0000
0000
0000
,
0001
0000
0000
0000
,
1000
0000
0100
0000
,
1000
0000
0000
0000
,
0001
0000
0100
0000
,
0001
0000
0000
0000
,
1000
0000
0010
0000
,
1000
0000
0000
0000
,
0001
0000
0100
0000
,
0001
0000
0000
0000
,
1000
0000
0010
0000
,
0100
0000
0000
0000
,
0001
0000
0100
0000
,
0010
0000
0000
0000
,
1000
0000
0100
0000
,
0010
0000
0000
0000
,
0001
0000
0010
0000
,
0100
0000
1000
0000
,
1000
0000
0100
0000
,
1000
0000
0100
0000
,
1000
0000
0001
0000
,
0100
0000
0001
0000
,
1000
0000
0001
0000
,
1000
0000
0010
0000
,
0100
0000
0001
0000
,
1000
0000
0100
0000
,
0010
0001
0000
1000
,
0000
0010
0000
1000
,
0000
0001
0000
1000
,
0000
0010
0000
1000
,
0000
0001
0000
0010
,
0000
0100
0000
0010
,
0000
0001
0000
1000
,
0000
0010
0000
0100
,
0000
0001
0000
1000
,
0000
0100
0000
0010
,
0000
0000
0000
0001
,
0000
0100
0000
0010
,
0000
0000
0000
1000
,
0000
0100
0000
0010
,
0000
0000
0000
0001
,
0000
1000
0000
0010
,
0000
0000
0000
0100
,
0000
0001
0000
0010
,
0000
0000
0000
0100
,
0000
1000
0000
0010
,
0000
0000
0000
0100
,
0000
0001
0000
1000
,
0000
0000
0000
0100
,
0000
0010
0000
0001
,
0000
0100
0000
0010
;

//---------------dance-single - ----------------
#NOTES:
     dance-single:
     :
     Easy:
     10:
     0.403727,0.519849,0.170132,0.189036,0.000000,299.000000,281.000000,18.000000,20.000000,0.000000,0.000000,0.403727,0.519849,0.170132,0.189036,0.000000,299.000000,281.000000,18.000000,20.000000,0.000000,0.000000:
0000
0000
0000
0000
,
0000
0000
0000
0000
,
0000
0000
0000
0000
,
0000
0000
0000
0000
,
1000
0001
0100
0010
,
1000
0001
0010
0100
,
1000
0001
0100
0010
,
0100
0001
0010
0100
,
2200
0000
0000
0000
,
0000
0000
3300
0000
,
1000
0000
0000
0001
0000
0000
0100
0000
,
0000
0010
0000
0000
1000
0000
0001
0000
,
1000
0000
0000
0100
0000
0000
0010
0000
,
0000
0001
0000
0000
0100
0000
0010
0000
,
1010
0000
0000
1000
0000
0000
0001
0000
,
0000
0010
0000
0000
0100
0000
1000
0000
,
1001
0010
1001
0001
,
0110
1001
0101
1010
,
2002
0000
0000
3003
,
1000
0010
0000
0100
0001
0000
1000
0000
,
0100
0010
0001
0100
,
0010
0000
1000
0000
0001
0100
0001
0000
,
1000
0100
0010
0001
,
0100
0000
0010
0000
1000
0001
0010
0000
,
0100
1000
0010
0100
,
0001
0000
1000
0000
0100
0010
0100
0000
,
1000
0000
0001
0000
1000
0010
0000
0100
,
0001
0000
0100
0010
0000
1000
0001
0000
,
0010
0100
2000
0001
,
3010
0000
0100
0000
0001
1000
0001
0000
,
1000
0100
0020
0100
,
0031
1000
0001
0000
0101
0000
1010
0000
,
0101
0100
0020
1000
,
0130
0000
0001
0000
1000
0001
1000
0000
,
0100
0000
0010
0000
0001
1000
0000
0010
,
0100
0000
0001
1000
0000
0100
0010
0000
,
0001
0100
0010
0000
,
1000
0100
0010
0000
,
0001
0100
0010
0000
,
0001
0000
0010
0000
1000
0100
0010
0000
,
0001
0000
0100
0000
0010
1000
0010
0100
,
0001
0000
1000
0000
0100
0010
0001
0010
,
0100
0000
1000
0000
0010
0100
0001
1000
,
0100
0001
0100
0010
0001
0100
1000
0100
,
0001
0000
1000
0000
0010
0000
0100
0001
,
1000
0000
0100
0000
0010
0000
0001
1000
,
0010
0000
0100
0000
0001
0000
0010
1000
,
0010
0000
0001
0000
1000
0000
0010
0100
,
1000
0000
0100
0000
0001
0000
0010
0100
,
1000
0000
0100
0010
0001
0000
1000
0010
,
0100
0000
0010
1000
0001
0000
1000
0100
,
0010
0000
0001
1000
0010
0001
0010
1000
,
0001
0010
0200
0000
0000
0000
1300
0000
,
0001
0100
0010
1000
,
0010
0000
0100
0001
1000
0000
0001
0000
,
0010
0100
1000
0100
,
0010
0000
0001
0100
0010
0000
1000
0000
,
0001
0100
0010
0100
,
0001
0000
1000
0100
0010
0000
0001
0000
,
1000
0000
0010
0100
0000
0001
1000
0000
,
0100
0010
0002
0000
0000
0000
1003
0000
,
0010
0000
0100
0000
0010
0000
1000
0001
,
0100
0110
1001
0110
,
0001
1000
0100
0020
,
0032
0203
0310
1010
,
1000
0000
0001
0000
0010
0000
0100
1000
,
0001
0101
0011
0002
,
0203
2300
3002
0023
,
2030
3200
0302
0103
;

//---------------dance-single - ----------------
#NOTES:
     dance-single:
     :
     Medium:
     14:
     0.768296,0.974716,0.151229,0.103970,0.921550,569.000000,553.000000,16.000000,11.000000,0.000000,0.000000,0.768296,0.974716,0.151229,0.103970,0.921550,569.000000,553.000000,16.000000,11.000000,0.000000,0.000000:
0000
0000
0000
0000
,
0000
0000
0000
0000
,
0000
0000
0000
0000
,
0000
0000
0000
0000
,
1000
0010
1000
0000
0001
0100
0001
0000
,
1000
0100
1000
0000
0001
0010
0001
0000
,
1000
0100
0010
0000
0001
0100
0010
0000
,
1000
0001
0100
0001
2000
3000
1001
0000
,
2002
0000
0000
0000
,
0000
0000
0000
3003
,
1000
0000
0010
0100
0000
0001
1000
0000
,
0100
0010
0000
0001
0100
0000
0010
0000
,
1000
0000
0100
0010
0000
0001
0100
0000
,
0010
1000
0000
0001
0010
0000
0100
0000
,
1100
0000
1000
0001
0000
0100
0010
0000
,
1000
0100
0000
0010
0001
0000
1000
0000
,
1010
0001
0011
1000
,
1100
0101
0011
1010
,
2002
0000
0000
3003
,
1000
0000
0000
0010
0000
0000
0100
0000
0000
0001
0000
0000
1000
0000
0100
0000
0010
0000
0001
0000
0000
0000
0000
0000
,
1000
0010
0100
0001
0100
0010
1000
0010
0100
0001
0100
0010
,
1000
0000
0010
0000
0100
0000
0001
0000
0100
0000
0010
0000
1000
0000
0000
1000
0000
0000
0001
0000
0000
0000
0000
0000
,
1000
0100
0010
0001
0010
0100
1000
0100
0010
0001
0010
0100
,
1000
0000
0100
0000
0010
0000
0001
0000
0010
0000
0100
0000
1000
0000
0000
1000
0000
0000
0001
0000
0000
0000
0000
0000
,
0100
0010
1000
0010
0100
0001
0100
0010
1000
0010
0100
0001
,
0100
0000
0010
0000
1000
0000
0010
0000
0100
0000
0001
0000
0100
0000
0000
0100
0000
0000
0010
0000
0000
0000
0000
0000
,
1000
0100
0001
0100
1000
0100
0001
0100
,
1000
0010
0001
0010
1000
0100
0010
0000
,
0001
0010
0100
1000
0100
0010
0001
0010
0100
1000
0100
0010
,
0001
0000
0010
0000
0100
0000
1000
0000
0100
0000
0010
0000
0001
0000
0000
0001
0000
0000
0100
0000
0000
0000
0000
0000
,
0010
1000
0010
0100
0001
0100
0010
1000
0010
0100
0001
0100
,
0010
0000
1000
0000
0010
0000
0100
0000
0001
0000
1000
0000
0100
0000
0000
0100
0000
0000
0110
0000
0000
0000
0000
0000
,
0010
0001
0010
0100
1000
0100
0010
0001
0010
0100
1000
0100
,
0010
0000
0001
0000
0010
0000
0100
0000
1000
0000
0100
0000
0010
0000
0000
0010
0000
0000
0001
0000
0000
0000
0000
0000
,
1000
0010
0001
0010
1000
0010
0001
0010
,
1000
1000
0100
0100
0001
0100
1000
0001
,
0100
0000
0000
0000
0020
0000
0000
0000
1030
0010
0100
0010
1000
0001
0010
0100
,
1000
0010
0100
0001
1000
0100
0010
0001
0100
0000
0010
0000
1000
0000
0001
0000
,
0010
0001
0100
0010
0001
0010
0100
0001
0010
0100
1000
0010
0100
0001
1000
0100
,
0010
1000
0010
0100
1000
0010
0100
0001
1000
0100
0001
0200
0000
0000
0000
0000
,
1300
1000
0000
0000
0001
0001
0000
0000
1000
0010
1000
0001
0010
0001
2000
0000
,
3010
0010
0000
0000
0100
0100
0000
0000
0001
0100
0001
1000
0100
1000
0001
1000
,
0010
0010
0000
0000
0100
0100
0000
0000
0001
0010
0001
1000
0010
1000
0001
0000
,
0010
0100
1000
0010
0100
0001
1000
0100
0010
0001
0100
0010
0001
0010
0100
0001
,
1000
0000
0100
0010
0001
0010
0100
1000
,
0001
0000
0100
0010
1000
0010
0100
0001
,
1000
0000
0100
0010
0001
0100
0010
1000
,
0001
0010
0100
0000
1000
0000
0001
0000
0100
0000
0010
0000
0001
0000
0010
0000
,
0100
0000
0000
0001
0000
0000
1000
0000
0000
0000
0000
0000
0100
0000
0000
0000
0000
0000
0010
0001
0010
0001
0000
0000
,
1000
0000
0000
0000
0000
0000
0000
0000
0000
0000
0000
0000
0010
0000
0100
0000
0010
0000
0100
0000
0000
0000
0000
0000
0001
0000
0000
0000
0000
0000
0000
0000
0000
0000
0000
0000
1000
0000
0000
0100
0000
0000
0010
0000
0000
0000
0000
0000
,
0001
1000
0010
0000
0100
0000
0001
1000
0100
0000
0010
0000
0001
0000
0100
0010
,
1000
0000
0000
0001
0000
0000
1000
0100
1000
0100
0000
0000
0010
0001
0010
0001
0000
0000
1000
0010
1000
0010
0000
0000
,
0100
0001
0100
0001
0100
0001
2000
0000
0000
0000
0000
0000
0000
0000
0000
0000
0000
0000
3001
0000
0010
0000
0100
0000
,
1000
0100
0010
0001
0010
0100
1000
0100
0010
0001
0100
0010
,
1000
0000
0010
0000
0100
0000
0001
0000
0000
0001
0000
0000
1000
0000
0000
0000
0000
0000
0100
0000
0010
0000
0001
0000
,
0010
0100
1000
0100
0010
0001
0100
0010
1000
0010
0100
0001
,
0100
0000
0010
0000
1000
0000
0010
0000
0000
0010
0000
0000
0110
0000
0000
0000
0000
0000
0100
0000
0001
0000
1000
0000
,
0100
0010
0001
0010
0100
1000
0010
0100
0001
0100
0010
1000
,
0100
0000
0010
0000
0001
0000
0100
0000
0000
0100
0000
0000
0010
0000
0000
0000
0000
0000
1000
0000
0000
0100
0000
0000
,
0001
0100
1000
0001
0100
1000
0100
0001
,
0010
1000
0020
0000
0000
0000
0031
0100
,
0010
0100
0001
0010
0100
1000
0001
0100
,
0010
0100
0101
0000
1001
0000
1000
0100
,
0010
0000
0000
0100
0000
0000
1000
0000
0000
0001
0000
0000
0100
0000
0000
0010
0000
0000
1000
0000
0100
0000
0010
0000
,
0001
0000
0010
0000
0100
0000
1000
0000
0010
0000
0100
0000
0001
0000
0000
0000
0000
0000
1000
0000
0000
0100
0000
0000
,
0010
0100
1000
0010
0100
0001
0010
0100
,
0010
0000
0000
0001
0000
0000
0011
0000
0000
0000
0000
0000
1100
0000
0000
0000
0000
0000
1000
0000
0100
0000
0010
0000
,
0001
0100
0010
1000
0001
0010
0100
1000
0010
0100
0001
1000
,
0100
0010
0001
0100
0010
1000
0200
0000
0000
0310
0000
0000
;

//---------------dance-single - ----------------
#NOTES:
     dance-single:
     I SMITE THEE, HERETIC:
     Hard:
     17:
     0.947880,1.390241,0.349716,0.170132,1.228733,702.000000,665.000000,37.000000,18.000000,1.000000,0.000000,0.947880,1.390241,0.349716,0.170132,1.228733,702.000000,665.000000,37.000000,18.000000,1.000000,0.000000:
0000
0000
0000
0000
,
0000
0000
0000
0000
,
0000
0000
0000
0000
,
0000
0000
0000
0000
,
1000
0010
0100
0001
0100
0001
1000
0001
,
0100
0010
1000
0010
1000
0001
0010
0100
,
1100
1000
0001
0100
0101
0001
1000
0010
,
0110
0000
0000
0000
0101
0000
0000
0000
0001
0100
0001
0100
0001
0000
1000
0000
,
2200
0000
0000
0000
,
0000
0000
0000
3300
,
1000
0100
1000
0001
0100
0001
1000
0010
,
1000
0001
0010
0001
1000
0010
0100
0001
,
1000
0010
1000
0001
0010
0001
1000
0100
,
1000
0001
0100
0001
0010
0100
1000
0001
,
0101
0100
0001
1000
0100
0010
0100
1000
,
0001
0100
0010
1000
0100
0010
0001
1000
,
1001
0001
0100
0010
1010
1000
0100
0010
,
0011
1001
1010
0110
,
0101
0000
0000
0000
0000
0000
0000
0000
0000
0000
0000
0000
0100
0001
0100
0001
,
0100
0010
0010
1000
0001
0001
0010
0100
,
1000
0010
0100
0001
0100
0010
1000
0100
0010
0001
0010
0100
,
1000
0000
0010
0000
0100
0000
0001
0000
0100
0000
0010
0000
1000
0000
0000
1000
0000
0000
0100
0000
0000
0010
0000
0000
,
0001
0100
0010
1000
0010
0100
0001
0010
0100
1000
0100
0010
,
0001
0000
0100
0000
0010
0000
1000
0000
0010
0000
0100
0000
0001
0000
0000
0001
0000
0000
0010
0000
0000
1000
0000
0000
,
0010
0001
0011
0000
1000
0010
1010
0000
,
0001
0000
0100
0000
0010
1000
0100
0010
0001
0000
0001
0000
0100
0000
0010
0000
,
1000
0010
1000
0010
0100
0000
0001
0010
0001
0010
0100
0000
1000
0010
1000
0010
,
0100
0001
0000
0100
0001
1000
0100
1000
0100
0000
0010
0000
0001
0000
0000
0000
,
1000
0010
0100
0001
0010
0100
2100
0000
0000
3001
0100
0010
,
1000
0000
0000
0000
0100
0000
0000
0000
0010
0000
0000
0000
0001
0000
0000
0000
0100
0000
0000
0000
0010
0000
0000
0000
1000
0000
0000
0000
0000
0000
1000
0000
0000
0000
0000
0000
0100
0000
0000
0010
0000
0000
0000
0000
0000
0000
0000
0000
,
0001
0100
0010
1000
0100
0010
0012
0000
0000
1003
0010
0100
,
0001
1000
0001
1000
0001
0000
0000
0000
0011
0000
0001
0000
1001
0000
0001
0000
,
0100
0010
1000
0100
0010
0001
1002
0000
0000
0103
0010
1000
,
0100
0000
0000
0000
0010
0000
0000
0000
0001
0000
0000
0000
0100
0000
0000
0000
0010
0000
0000
0000
1000
0000
0000
0000
0001
0000
0000
0000
0000
0000
0001
0000
0000
0000
0000
0000
0010
0000
0000
0100
0000
0000
0000
0000
0000
0000
0000
0000
,
1000
0010
1000
0010
0100
0000
0001
0010
0001
0010
0100
0000
1000
0010
1000
0010
,
0100
0000
0100
0000
0100
0000
0001
0000
0010
0100
0010
0100
1000
0000
0010
0100
,
0002
0000
0000
0000
0000
0000
0000
0000
0000
0000
0000
0000
0103
0010
0100
0001
0100
0010
1000
0010
0100
0001
1000
0100
,
0010
0000
0000
0000
0000
0000
0000
0000
0000
0000
0000
0000
0001
0000
0000
0000
0000
0000
0000
0000
0000
0000
0000
0000
0000
0000
0000
0000
0000
0000
0000
0000
0000
0000
0000
0000
0001
0000
0000
0000
0000
0000
0000
0000
0000
0000
0000
0000
0200
0000
0000
0000
0000
0000
0000
0000
0000
0000
0000
0000
0000
0000
0000
0000
0000
0000
0000
0000
0000
0000
0000
0000
0000
0000
0000
0000
0000
0000
0000
0000
0000
0000
0000
0000
0000
0000
0000
0000
0000
0000
0000
0000
0000
0000
0000
0000
0310
0000
0000
0000
0000
0000
0000
0000
0100
0000
0000
0000
0000
0000
0000
0000
0001
0000
0000
0000
0000
0000
0000
0000
1000
0000
0000
0000
0000
0000
0000
0000
0100
0000
0000
0000
0000
0000
0000
0000
0010
0000
0000
0000
0000
0000
0000
0000
0001
0000
0000
0000
0000
0000
0000
0000
0000
0000
0000
0000
1000
0000
0000
0000
0000
0000
0000
0000
0000
0000
0000
0000
0010
0000
0000
0000
0000
0000
0100
0000
0000
0000
0000
0000
0010
0000
0000
0000
0000
0000
0000
0000
0000
0000
0000
0000
,
1000
0001
1000
0000
0100
0000
0010
0000
0001
1000
0001
0000
0100
0000
0010
0000
1000
0000
0100
0000
0010
0000
0100
0000
1000
0000
0001
0000
0100
0000
0010
0000
,
0100
0000
0000
0001
0000
0000
0010
0000
0000
0100
0000
0000
1000
0000
0010
0000
0100
0000
0010
0000
1000
0000
0100
0000
0010
0000
0000
1000
0000
0000
0010
0000
0000
0002
0000
0000
0000
0000
0000
0000
0000
0000
0003
0000
0000
0000
0000
0000
,
1001
1001
0000
0000
2100
0000
0000
0000
3010
0010
0010
0100
0100
0100
0001
0001
,
1001
1001
0000
0000
0012
0000
0000
0000
0103
0100
0100
0010
0010
0010
1000
1000
,
1001
1001
0000
0000
2100
0000
0000
0000
3001
0001
0001
0100
0100
0100
0010
0010
,
1000
0100
0010
0100
1000
0010
0100
0001
0010
1000
0010
0001
0100
0010
0100
0010
,
2002
3003
0000
0000
0000
0000
0000
0000
1000
0000
0000
0000
0100
0000
0000
0000
0010
0000
0000
0000
0100
0000
0000
0000
1000
0000
0000
0000
0001
0000
0000
0000
,
0100
0000
0010
0100
0001
1000
0100
0010
,
0001
0000
1000
0000
0010
0000
0100
0010
0001
0010
0100
0001
0010
0100
1000
0001
,
0100
0010
0100
0000
0001
0000
1000
0000
0100
0000
0000
0000
0010
0000
0000
0000
0001
0000
0000
0000
0100
0000
0000
0000
0010
0000
1000
0000
0100
0000
0010
0000
,
0001
0000
0000
1000
0000
0000
0010
0000
0000
0100
0000
0000
0101
0000
0000
0000
0000
0000
0001
0000
0000
0010
0000
0000
0100
0000
0000
0010
0000
0000
1000
0000
0000
0010
0000
0000
0100
0000
1000
0000
0100
0000
0010
0000
0001
0000
0100
0000
,
0001
0000
0000
0000
0000
0000
0000
0000
0000
0000
0000
0000
1000
0000
0000
0000
0000
0000
0000
0000
0000
0000
0000
0000
0010
0000
0000
0000
0000
0000
0000
0000
0000
0000
0000
0000
0000
0000
0000
0000
0000
0000
0000
0000
0000
0000
0000
0000
0100
0000
0000
0000
0000
0000
0000
0000
0010
0000
0000
0000
0000
0000
0000
0000
0100
0000
0000
0000
0000
0000
0000
0000
1000
0000
0000
0000
0000
0000
0000
0000
0100
0000
0000
0000
0000
0000
0000
0000
0010
0000
0000
0000
0000
0000
0000
0000
0100
0000
0000
0000
0000
0000
0000
0000
0001
0000
0000
0000
0000
0000
0000
0000
1000
0000
0000
0000
0000
0000
0000
0000
0100
0000
0000
0000
0000
0000
0000
0000
0010
0000
0000
0000
0000
0000
0000
0000
0001
0000
0000
0000
0000
0000
0000
0000
1000
0000
0000
0000
0000
0000
0010
0000
0000
0000
0000
0000
1000
0000
0000
0000
0000
0000
0000
0000
0000
0000
0000
0000
0001
0000
0000
0000
0000
0000
0000
0000
0000
0000
0000
0000
0000
0000
0000
0000
0000
0000
0000
0000
0000
0000
0000
0000
,
0010
0000
0000
0000
0000
0000
0100
0000
0000
0000
0000
0000
0010
0000
0000
0000
0000
0000
0000
0000
0000
0000
0000
0000
0001
0000
0000
0000
0000
0000
0000
0000
0000
0000
0000
0000
0000
0000
0000
0000
0000
0000
0000
0000
0000
0000
0000
0000
1000
0000
0000
0000
0000
0000
0000
0000
0010
0000
0000
0000
0000
0000
0000
0000
0100
0000
0000
0000
0000
0000
0000
0000
0001
0000
0000
0000
0000
0000
0000
0000
0010
0000
0000
0000
0000
0000
0000
0000
0100
0000
0000
0000
0000
0000
0000
0000
1000
0000
0000
0000
0000
0000
0000
0000
0000
0000
0000
0000
0000
0000
0000
0000
0000
0000
0000
0000
0000
0000
0000
0000
0001
0000
0000
0000
0000
0000
0000
0000
0000
0000
0000
0000
0000
0000
0000
0000
0000
0000
0000
0000
0000
0000
0000
0000
0100
0000
0000
0000
0000
0000
0000
0000
0010
0000
0000
0000
0000
0000
0000
0000
1000
0000
0000
0000
0000
0000
0000
0000
0100
0000
0000
0000
0000
0000
0000
0000
0010
0000
0000
0000
0000
0000
0000
0000
0001
0000
0000
0000
0000
0000
0000
0000
,
1000
0000
0000
0001
0000
0000
0100
0010
0001
0010
0100
0001
0010
0100
1000
0010
0100
0001
1000
0100
0010
0001
1000
0010
,
0100
0001
1000
0100
0010
0001
0200
0000
0000
0000
0000
0000
0000
0000
0000
0000
0000
0000
0301
0000
0010
0000
0100
0000
,
1000
0010
0100
0001
1000
0100
0010
0001
0100
0010
1000
0001
,
0010
0000
0000
0000
0100
0000
0000
0000
1000
0000
0000
0000
0010
0000
0000
0100
0000
0000
0001
0000
0000
0000
0000
0000
1000
0000
0000
0000
0000
0000
0100
0000
0000
0000
0000
0000
0010
0000
0000
0000
0001
0000
0000
0000
0100
0000
0000
0000
,
0010
1000
0100
0010
0001
1000
0010
0100
0001
0010
0100
1000
,
0001
0000
0100
0000
0010
0000
1010
0000
0000
1000
0000
0000
1001
0000
0000
1000
0000
0000
0100
0000
1000
0000
0001
0000
,
0100
0010
0100
0001
0010
0100
1000
0010
0100
0001
1000
0100
,
0010
0000
0000
0000
0001
0000
0000
0000
0100
0000
0000
0000
0010
0000
0000
1000
0000
0000
0001
0000
0000
0000
0000
0000
0010
0000
0000
0000
0000
0000
0100
0000
0000
0000
0000
0000
1000
0000
0000
0010
0000
0000
1000
0000
0000
0010
0000
0000
,
0100
0000
0001
0010
0001
0010
0100
0000
1000
0010
1000
0010
0100
0000
0001
1000
,
0001
1000
0100
0000
0000
0000
0000
0000
0000
0000
0000
0000
1000
0000
0100
0000
,
1000
0010
0200
0001
0310
0001
0010
0100
,
0001
1000
1100
1000
1001
1000
0010
0100
,
0010
0000
0000
1000
0000
0000
0200
0000
0000
0010
0000
0000
1300
0000
0000
0001
0000
0000
1000
0000
0100
0000
0010
0000
,
1000
0000
0010
0000
0100
0000
1000
0000
0001
0000
0100
0000
0010
0000
0000
0000
0000
0000
0100
0000
0000
0001
0000
0000
,
0010
0100
2000
0100
3001
0100
0010
0001
,
0010
0000
0000
0100
0000
0000
0110
0000
0000
0100
0000
0000
0101
0000
0000
0100
0000
0000
0001
0000
0010
0000
0100
0000
,
0001
0100
1000
0001
1000
0010
0001
0010
1000
0001
1000
0100
,
0001
1000
0010
0001
0100
1000
0200
0000
0000
0301
0000
0000
,
0000
0000
0000
0000
,
;

//---------------dance-double - ----------------
#NOTES:
     dance-double:
     :
     Beginner:
     4:
     0.160681,0.324905,0.113422,0.103970,0.000000,119.000000,107.000000,12.000000,11.000000,0.000000,0.000000,0.160681,0.324905,0.113422,0.103970,0.000000,119.000000,107.000000,12.000000,11.000000,0.000000,0.000000:
// measure 0
00000000
00000000
00000000
00000000
,  // measure 1
00000000
00000000
00000000
00000000
,  // measure 2
00000000
00000000
00000000
00000000
,  // measure 3
00000000
00000000
00000000
00000000
,  // measure 4
00010000
00000000
00000000
00000000
,  // measure 5
00001000
00000000
00000000
00000000
,  // measure 6
01000000
00000000
00000000
00000000
,  // measure 7
00010000
00000000
00000000
00000000
,  // measure 8
10010000
00000000
00000000
00000000
,  // measure 9
00000000
00000000
00000000
00000000
,  // measure 10
10000000
00000000
00000000
00000000
,  // measure 11
01000000
00000000
00000000
00000000
,  // measure 12
10000000
00000000
00000000
00000000
,  // measure 13
00010000
00000000
00000000
00000000
,  // measure 14
01010000
00000000
00000000
00000000
,  // measure 15
00001000
00000000
00000000
00000000
,  // measure 16
00011000
00000000
00011000
00000000
,  // measure 17
00010000
00010000
00001000
00001000
,  // measure 18
00011000
00000000
00000000
00000000
,  // measure 19
00010000
00000000
00000000
00000000
,  // measure 20
00000010
00000000
00010000
00000000
,  // measure 21
00000010
00000000
00000000
00000000
,  // measure 22
00001000
00000000
00000001
00000000
,  // measure 23
00001000
00000000
00000000
00000000
,  // measure 24
00000100
00000000
00000010
00000000
,  // measure 25
00000100
00000000
00000000
00000000
,  // measure 26
00001000
00000000
00000001
00000000
,  // measure 27
00002000
00000000
00003000
00000000
,  // measure 28
00000001
00000000
00000200
00000000
,  // measure 29
00000300
00000000
00000010
00000000
,  // measure 30
00001000
00000000
00000020
00000000
,  // measure 31
00000030
00000000
00010000
00000000
,  // measure 32
00001000
00000000
00020000
00000000
,  // measure 33
00030000
00000000
00001000
00000000
,  // measure 34
01000000
00000000
00020000
00000000
,  // measure 35
00030000
00000000
10000000
00000000
,  // measure 36
10010000
00000000
00010000
00000000
,  // measure 37
01000000
00000000
00001000
00000000
,  // measure 38
00010000
00000000
00000100
00000000
,  // measure 39
00010000
00000000
00001000
00000000
,  // measure 40
00011000
00000000
00010000
00000000
,  // measure 41
00000010
00000000
00001000
00000000
,  // measure 42
00000010
00000000
00010000
00000000
,  // measure 43
00011000
00000000
01001000
00000000
,  // measure 44
10010000
10000000
00000000
00010000
,  // measure 45
00000000
01000000
00000000
00100000
,  // measure 46
00000000
10000000
00000000
01000000
,  // measure 47
00000000
00100000
00000000
00001000
,  // measure 48
00000000
00010000
00000000
00001000
,  // measure 49
00000000
01000000
00000000
00100000
,  // measure 50
00000000
00010000
00000000
00100000
,  // measure 51
00000000
01000000
00000000
00010000
,  // measure 52
00000000
10000000
00000000
10010000
,  // measure 53
00000000
10000000
00000000
01000000
,  // measure 54
00000000
00000000
00000000
00100000
,  // measure 55
00000000
00001000
00000000
00010000
,  // measure 56
00000000
00000000
00000000
00000010
,  // measure 57
00000000
00000100
00000000
00000001
,  // measure 58
00000000
00000000
00000000
00000100
,  // measure 59
00000000
00001000
00000000
00010000
,  // measure 60
00000000
00001000
00000000
00011000
,  // measure 61
00000000
00010000
00000000
00001000
,  // measure 62
00000000
01000000
00000000
00001000
,  // measure 63
00000000
00100000
00000000
02000000
,  // measure 64
03000000
20000000
30000000
00100000
,  // measure 65
00000000
01000000
00000000
00100000
,  // measure 66
00000000
10000000
00000000
02000000
,  // measure 67
03000000
00020000
00030000
00002000
,  // measure 68
00003000
00000200
00000300
00000010
;

//---------------dance-double - ----------------
#NOTES:
     dance-double:
     :
     Easy:
     11:
     0.387524,0.519849,0.236295,0.141777,0.000000,287.000000,262.000000,25.000000,15.000000,0.000000,0.000000,0.387524,0.519849,0.236295,0.141777,0.000000,287.000000,262.000000,25.000000,15.000000,0.000000,0.000000:
// measure 0
00000000
00000000
00000000
00000000
,  // measure 1
00000000
00000000
00000000
00000000
,  // measure 2
00000000
00000000
00000000
00000000
,  // measure 3
00000000
00000000
00000000
00000000
,  // measure 4
00010000
00001000
00010000
00000100
,  // measure 5
00001000
00000001
00000100
00000010
,  // measure 6
00001010
00001000
00001001
00000001
,  // measure 7
00000011
00000011
00001100
00001100
,  // measure 8
00022000
00000000
00000000
00000000
,  // measure 9
00000000
00000000
00033000
00000000
,  // measure 10
00001000
00000000
00000000
01000000
00000000
00000000
00100000
00000000
,  // measure 11
00000000
01000000
00000000
00000000
00010000
00000000
10000000
00000000
,  // measure 12
01000000
00000000
00000000
00100000
00000000
00000000
00001000
00000000
,  // measure 13
00000000
00010000
00000000
00000000
00000010
00000000
00001000
00000000
,  // measure 14
00001001
00000000
00000000
00000001
00000000
00000000
00000010
00000000
,  // measure 15
00000000
00000100
00000000
00000000
00001000
00000000
00000010
00000000
,  // measure 16
00000110
00000100
00000101
00000001
,  // measure 17
00001001
00001100
00000011
00000101
,  // measure 18
00002020
00000000
00003030
00000000
,  // measure 19
00001000
00000010
00001000
00000001
,  // measure 20
00001000
00000100
00000010
00001000
,  // measure 21
00010000
00000000
00100000
00000000
01000000
00010000
01000000
00000000
,  // measure 22
00100000
10000000
00100000
01000000
,  // measure 23
00100000
00000000
00010000
00000000
00001000
00010000
00001000
00000000
,  // measure 24
00010000
00000100
00000010
00001000
,  // measure 25
00000010
00000000
00000001
00000000
00001000
00000010
00001000
00000000
,  // measure 26
00000010
00000000
00000100
00000000
00000000
00000001
00000000
00000000
,  // measure 27
00001000
00000000
00000000
00000100
00000010
00000000
00000001
00000000
,  // measure 28
00000100
00001000
00020000
01030000
,  // measure 29
10000000
00000000
00100000
00000000
01000000
00001000
01000000
00000000
,  // measure 30
00001000
00010000
00100000
00020000
,  // measure 31
00031000
00000010
00000110
00001100
,  // measure 32
00001000
00000010
00000200
00001300
,  // measure 33
00010000
00100000
01000000
00010000
,  // measure 34
10000000
00000000
01000000
00000000
00000000
00010000
00000000
00000000
,  // measure 35
00001000
00000000
00000000
00000100
00000000
00000000
00000001
00000000
,  // measure 36
00001000
00000010
00000100
00000000
,  // measure 37
00000001
00000010
00000100
00000000
,  // measure 38
00000001
00000100
00001000
00000000
,  // measure 39
00010000
01000000
10000000
00000000
,  // measure 40
10100000
00000000
10100000
00000000
00100000
00010000
00001000
00010000
,  // measure 41
00100000
00000000
01100000
00000000
01000000
00100000
00010000
00001000
,  // measure 42
00010000
00000000
00011000
00000000
00010000
00000100
00000010
00000100
,  // measure 43
00010000
00000010
00000100
00001000
00010000
00001000
00000100
00000010
,  // measure 44
00001000
00000000
00000100
00000000
00000010
00000000
00000001
00000100
,  // measure 45
00000010
00000100
00001000
00010000
,  // measure 46
00001000
00100000
01000000
00000000
00100000
00000000
00010000
00000000
,  // measure 47
10000000
00000000
00100000
00000000
01000000
00000000
10000000
01000000
,  // measure 48
00100000
00000000
01000000
00000000
00010000
00000000
10000000
01000000
,  // measure 49
00010000
00000000
00001000
00000000
00010000
00000000
00100000
00010000
,  // measure 50
00001000
00010000
00000100
00000010
,  // measure 51
00001000
00000000
00000010
00000001
00001000
00000010
00000100
00001000
,  // measure 52
00010000
00100000
02000000
00000000
00000000
00000000
03010000
00000000
,  // measure 53
01000000
00100000
00010000
00001000
,  // measure 54
00000010
00000000
00000100
00001000
00000100
00000000
00000010
00000000
,  // measure 55
00000001
00000010
00000100
00000010
,  // measure 56
00001000
00000000
00010000
00001000
00010000
00000000
00001000
00000000
,  // measure 57
01000000
00100000
00010000
00100000
,  // measure 58
10000000
00000000
00010000
00100000
00010000
00000000
00100000
00000000
,  // measure 59
01000000
00000000
00000000
10000000
00000000
00000000
00010000
00000000
,  // measure 60
00000000
01000000
00200000
00000000
00000000
00000000
10300000
00000000
,  // measure 61
00100000
00000000
02000000
00000000
13000000
00000000
01000000
00010000
,  // measure 62
01000000
01001000
00011000
00010000
,  // measure 63
00000100
00000002
00000103
00002000
,  // measure 64
00003020
00000230
00000301
00001000
,  // measure 65
00000100
00000000
00000020
00000000
00001030
00000000
00010000
00001000
,  // measure 66
01000000
01010000
10100000
10000000
,  // measure 67
01000000
00100000
00010000
00001000
,  // measure 68
00000100
00000010
00000001
00001000
;

//---------------dance-double - ----------------
#NOTES:
     dance-double:
     :
     Medium:
     15:
     0.802052,1.072188,0.160681,0.094518,0.982987,594.000000,577.000000,17.000000,10.000000,0.000000,0.000000,0.802052,1.072188,0.160681,0.094518,0.982987,594.000000,577.000000,17.000000,10.000000,0.000000,0.000000:
// measure 0
00000000
00000000
00000000
00000000
,  // measure 1
00000000
00000000
00000000
00000000
,  // measure 2
00000000
00000000
00000000
00000000
,  // measure 3
00000000
00000000
00000000
00000000
,  // measure 4
00001000
01000000
00001000
00000000
00010000
00000100
00010000
00000000
,  // measure 5
00001000
00100000
00001000
00000000
00010000
00000010
00010000
00000000
,  // measure 6
00001000
00010000
00100000
00000000
01000000
00010000
10000000
00000000
,  // measure 7
11000000
00110000
00011000
00010010
,  // measure 8
00002002
00000000
00000000
00000000
,  // measure 9
00000000
00000000
00003003
00000000
,  // measure 10
00000001
00000000
00000100
00000010
00000000
00000010
00010000
00000000
,  // measure 11
00010000
00001000
00000000
00001000
00100000
00000000
01000000
00000000
,  // measure 12
10000000
00000000
00100000
01000000
00000000
01000000
00010000
00000000
,  // measure 13
00010000
00100000
00000000
00100000
00001000
00000000
00010000
00000000
,  // measure 14
00010010
00000000
00000010
00000100
00000000
00000100
00000001
00000000
,  // measure 15
00000001
00000010
00000000
00000010
00000100
00000000
00001000
00000000
,  // measure 16
00001100
00010000
00011000
00100000
,  // measure 17
00101000
01001000
10100000
00110000
,  // measure 18
22000000
00000000
00000000
33000000
,  // measure 19
10000000
00100000
01000000
00010000
10000000
00100000
01000000
00000000
,  // measure 20
00010000
01000000
00001000
00010000
00001000
01000000
00010000
01000000
00001000
00010000
00001000
01000000
,  // measure 21
00010000
00000000
01000000
00000000
00001000
00000000
00010000
00000000
00001000
00000000
01000000
00000000
00001000
00000000
00000000
00001000
00000000
00000000
00010000
00000000
00000000
00000100
00000000
00000000
,  // measure 22
00001000
00000100
00010000
00001000
00010000
00000100
00001000
00000100
00010000
00001000
00010000
00000100
,  // measure 23
00001000
00000000
00000100
00000000
00010000
00000000
00001000
00000000
00010000
00000000
00000100
00000000
00001000
00000000
00000000
00001000
00000000
00000000
00000010
00000000
00000000
00000100
00000000
00000000
,  // measure 24
00000001
00000100
00000010
00001000
00000010
00000100
00000001
00000100
00000010
00001000
00000010
00000100
,  // measure 25
00000001
00000000
00000100
00000000
00000010
00000000
00001000
00000000
00000010
00000000
00000100
00000000
00000001
00000000
00000000
00000001
00000000
00000000
00000010
00000000
00000000
00000100
00000000
00000000
,  // measure 26
00000010
00000001
00000100
00001000
00010000
00100000
10000000
00100000
,  // measure 27
00010000
00001000
00010000
01000000
10000000
00100000
01000000
00000000
,  // measure 28
00010000
01000000
00100000
10000000
00100000
01000000
00010000
00100000
01000000
10000000
01000000
00100000
,  // measure 29
00010000
00000000
00100000
00000000
01000000
00000000
10000000
00000000
01000000
00000000
00100000
00000000
00010000
00000000
00000000
00010000
00000000
00000000
01000000
00000000
00000000
00100000
00000000
00000000
,  // measure 30
00010000
00001000
01000000
00010000
01000000
00001000
00010000
00000100
00001000
00000100
00010000
00001000
,  // measure 31
00010000
00000000
00000100
00000000
00001000
00000000
00000100
00000000
00010000
00000000
00001000
00000000
00010000
00000000
00000000
00010000
00000000
00000000
00000010
00000000
00000000
00000100
00000000
00000000
,  // measure 32
00000001
00000100
00000010
00001000
00000010
00000100
00000001
00000010
00000100
00001000
00000100
00000010
,  // measure 33
00000001
00000000
00000010
00000000
00000100
00000000
00001000
00000000
00000100
00000000
00000010
00000000
00000001
00000000
00000000
00000001
00000000
00000000
00001000
00000000
00000000
00000010
00000000
00000000
,  // measure 34
00000100
00001000
00010000
00100000
10000000
00100000
00010000
00001000
,  // measure 35
00010000
01000000
10000000
01000000
00010000
00001000
00000100
00000001
,  // measure 36
00000020
00000000
00000000
00000000
00000000
00000000
00000000
00000000
00000031
00000100
00000010
00001000
00000100
00000010
00000001
00000100
,  // measure 37
00000010
00000001
00000010
00000100
00001000
00010000
00001000
00100000
01000000
10000000
00100000
01000000
00010000
10000000
01000000
00100000
,  // measure 38
10000000
00100000
00010000
10000000
00100000
00010000
00001000
00000010
00000001
00000100
00001000
00010000
00001000
00000010
00000001
00000010
,  // measure 39
00000100
00001000
00000100
00000001
00000100
00001000
00000010
00000001
00000010
00010000
00001000
00200000
00000000
00000000
00300000
00000000
,  // measure 40
01000000
01000000
00000000
00000000
10000000
10000000
00000000
00000000
00010000
01000000
00001000
00010000
00001000
01000000
00010000
00000000
,  // measure 41
01000000
01000000
00000000
00000000
00001000
00001000
00000000
00000000
00010000
00000100
00001000
00000100
00010000
00001000
00010000
00000010
,  // measure 42
00001000
00001000
00000000
00000000
00000001
00000001
00000000
00000000
00001000
00000100
00001000
00000001
00000100
00000001
00001000
00000000
,  // measure 43
00000010
00001000
00000100
00000010
00000001
00000100
00000010
00001000
00000100
00000001
00000100
00001000
00000010
00000001
00000010
00000100
,  // measure 44
00002000
00000000
00013000
00001000
00100000
01000000
00100000
00001000
,  // measure 45
00010000
00000000
00001000
00010000
00100000
01000000
00010000
00100000
,  // measure 46
01000000
00000000
10000000
00000000
00010000
00000000
01000000
00100000
00010000
00100000
01000000
00010000
00100000
01000000
10000000
00100000
,  // measure 47
01000000
00001000
00010000
00000100
00001000
00000000
00000100
00000010
00000001
00000000
00000100
00000010
00001000
00000010
00000100
00000001
,  // measure 48
00001000
00000000
00000000
00000001
00000000
00000000
00000100
00000000
00000000
00000001
00000000
00000000
00000010
00000000
00000000
00000100
00000000
00000000
00010000
00001000
00010000
00001000
00000000
00000000
,  // measure 49
01000000
00000000
00000000
00001000
00000000
00000000
00010000
00000000
00000000
00001000
00000000
00000000
01000000
00000000
00010000
00000000
01000000
00000000
00010000
00000000
00000000
00000000
00000000
00000000
10000000
00000000
00000000
00000000
00000000
00000000
01000000
00000000
00000000
00000000
00000000
00000000
00100000
00000000
00000000
00010000
00000000
00000000
01000000
00000000
00000000
00000000
00000000
00000000
,  // measure 50
00100000
10000000
01000000
00000000
00100000
00010000
10000000
00100000
00010000
00000000
00001000
00000000
00000010
00000100
00001000
00000010
,  // measure 51
00000100
00000000
00000000
00000001
00000000
00000000
00001000
00000000
00000000
00000000
00000000
00000000
00000100
00000000
00000010
00000000
00000100
00000000
00000010
00000000
00000000
00000000
00000000
00000000
00000001
00000000
00001000
00000000
00000001
00000000
00001000
00000000
00000000
00000000
00000000
00000000
00000010
00000000
00000000
00000000
00000000
00000000
00000100
00000000
00000000
00000000
00000000
00000000
,  // measure 52
00000001
00001000
00000001
00001000
00000000
00000000
00000002
00000000
00000000
00000000
00000000
00000000
00000003
00000000
00000000
00000000
00000000
00000000
00001000
00000000
00000100
00000000
00010000
00000000
,  // measure 53
00001000
00010000
00000100
00001000
00000100
00010000
00001000
01000000
00010000
01000000
00100000
10000000
,  // measure 54
01000000
00000000
00100000
00000000
00010000
00000000
10000000
00000000
00000000
10000000
00000000
00000000
00100000
00000000
00000000
01000000
00000000
00000000
00010000
00000000
01000000
00000000
00001000
00000000
,  // measure 55
00010000
00001000
01000000
00010000
01000000
00001000
00010000
00000100
00000010
00000001
00000100
00000010
,  // measure 56
00001000
00000000
00000001
00000000
00000010
00000000
00000100
00000000
00000000
00000100
00000000
00000000
00001000
00000000
00000000
00000010
00000000
00000000
00000100
00000000
00000001
00000000
00001000
00000000
,  // measure 57
00000100
00001000
00000001
00000100
00000010
00001000
00000100
00010000
00001000
01000000
00010000
00100000
,  // measure 58
01000000
00000000
10000000
00000000
00010000
00000000
01000000
00000000
00000000
01000000
00000000
00000000
00100000
00000000
00000000
10000000
00000000
00000000
01000000
00000000
00000000
00010000
00000000
00000000
,  // measure 59
00001000
00010000
00100000
10000000
00100000
00010000
00001000
00000010
,  // measure 60
00000001
00000010
00002000
00000000
00000000
00000000
00013000
00001000
,  // measure 61
01000000
00100000
10000000
00010000
00100000
01000000
10000000
00100000
,  // measure 62
01000000
00001000
00000000
00011000
00000000
00010100
00000000
00010000
,  // measure 63
00000100
00000000
00000000
00000010
00000000
00000000
00000100
00000000
00000000
00001000
00000000
00000000
00000001
00000000
00000000
00000100
00000000
00000000
00000010
00000000
00001000
00000000
00000010
00000000
,  // measure 64
00000100
00000000
00000001
00000000
00000100
00000000
00000010
00000000
00010000
00000000
00000100
00000000
00001000
00000000
00000000
00000000
00000000
00000000
00000100
00000000
00000000
00000010
00000000
00000000
,  // measure 65
00000001
00001000
00000010
00010000
00001000
00100000
01000000
10000000
,  // measure 66
00010000
00000000
00000000
01000000
00000000
00000000
01010000
00000000
00000000
00000000
00000000
00000000
10100000
00000000
00000000
00000000
00000000
00000000
10000000
00000000
01000000
00000000
00100000
00000000
,  // measure 67
00010000
01000000
00100000
10000000
00010000
01000000
00001000
00010000
00000100
00000010
00000001
00000100
,  // measure 68
00000010
00001000
00000001
00000010
00000100
00001000
00000020
00000000
00000000
00000130
00000000
00000000
;

//---------------dance-double - ----------------
#NOTES:
     dance-double:
     :
     Hard:
     17:
     0.934378,1.299622,0.245747,0.198488,1.280718,692.000000,666.000000,26.000000,21.000000,0.000000,0.000000,0.934378,1.299622,0.245747,0.198488,1.280718,692.000000,666.000000,26.000000,21.000000,0.000000,0.000000:
// measure 0
00000000
00000000
00000000
00000000
,  // measure 1
00000000
00000000
00000000
00000000
,  // measure 2
00000000
00000000
00000000
00000000
,  // measure 3
00000000
00000000
00000000
00000000
,  // measure 4
00010000
00000000
00001000
00000000
00010000
00000000
00001000
00000000
00100000
00000000
00001000
00000000
00100000
00000000
00001000
00100000
,  // measure 5
01000000
00100000
01000000
00100000
00010000
10000000
00010000
10000000
,  // measure 6
00100000
00010000
00001000
00010000
00001000
00000010
00000001
00001000
,  // measure 7
00000010
00000000
00000100
00000001
00001000
00000000
00000100
00000000
00000020
00000000
00000000
00000000
00000031
00000000
00001000
00000000
,  // measure 8
00002020
00000000
00000000
00000000
,  // measure 9
00000000
00000000
00000000
00000000
00000000
00003030
00000000
00000000
,  // measure 10
00001000
00000010
00001000
00000001
00000010
00000001
00001000
00000100
,  // measure 11
00001000
00000001
00000100
00000001
00001000
00000100
00010000
00001000
,  // measure 12
01000000
00010000
01000000
00001000
00010000
00001000
00100000
00010000
,  // measure 13
00100000
00001000
00010000
00001000
01000000
00100000
10000000
00010000
,  // measure 14
10010000
10000000
01000000
10000000
00010000
00100000
00010000
10000000
,  // measure 15
00100000
10000000
00010000
00100000
00001000
00010000
00000010
00001000
,  // measure 16
00001001
00000000
00000001
00000010
00000110
00000000
00000100
00001000
,  // measure 17
00001001
00001100
00011000
01010000
,  // measure 18
20200000
00000000
00000000
30300000
,  // measure 19
10000000
00000000
00000000
00100000
00000000
00000000
00100000
00000000
00000000
10000000
00000000
00000000
00010000
00000000
00100000
00000000
01000000
00000000
10000000
00000000
00000000
00000000
00000000
00000000
,  // measure 20
00010000
01000000
00100000
01000000
00001000
00010000
00000100
00001000
00000100
00000010
00000001
00000010
,  // measure 21
00000100
00000000
00001000
00000000
00000001
00000000
00000100
00000000
00000010
00000000
00000100
00000000
00000001
00000000
00000000
00000001
00000000
00000000
00001000
00000000
00000000
00000100
00000000
00000000
,  // measure 22
00000010
00000100
00001000
00000001
00001000
00000100
00010000
00001000
01000000
00100000
01000000
00010000
,  // measure 23
00100000
00000000
01000000
00000000
10000000
00000000
00010000
00000000
01000000
00000000
00100000
00000000
10000000
00000000
00000000
10000000
00000000
00000000
01000000
00000000
00000000
00010000
00000000
00000000
,  // measure 24
00001000
00010000
00100000
00010000
00001000
00010000
00000100
00001000
00000001
00000100
00000010
00001000
,  // measure 25
00000100
00000000
00000010
00000000
00000001
00000000
00001000
00000000
00000010
00000000
00000100
00000000
00000001
00000000
00000000
00000001
00000000
00000000
00000010
00000000
00000000
00000100
00000000
00000000
,  // measure 26
00001000
00000010
00001000
00000010
00000100
00000000
00000001
00000010
00000001
00000010
00000100
00000000
00001000
00000010
00001000
00000010
,  // measure 27
00000100
00000001
00000000
00000001
00001000
00000100
00010000
00000000
00001000
01000000
00001000
01000000
00010000
00000000
00000000
00000000
,  // measure 28
10000000
00100000
01000000
00010000
01000000
00100000
00020000
00031000
00010000
00000100
00000010
00000001
,  // measure 29
00000100
00000000
00000000
00000000
00000010
00000000
00000000
00000000
00001000
00000000
00000000
00000000
00000001
00000000
00000000
00000000
00000010
00000000
00000000
00000000
00000100
00000000
00000000
00000000
00001000
00000000
00000000
00000000
00000000
00000000
00001000
00000000
00000000
00000000
00000000
00000000
00000001
00000000
00000000
00000100
00000000
00000000
00000010
00000000
00000000
00000000
00000000
00000000
,  // measure 30
00001000
00000010
00000100
00000001
00000100
00000010
00000200
00001300
00010000
00100000
01000000
00010000
,  // measure 31
00100000
00000000
01000000
00000000
10000000
00000000
00010000
00000000
01000000
00000000
00100000
00000000
10000000
00000000
00000000
10000000
00000000
00000000
01000000
00000000
00000000
00010000
00000000
00000000
,  // measure 32
00001000
00010000
00100000
01000000
00100000
00010000
00002000
00013000
00000100
00000010
00001000
00010000
,  // measure 33
00001000
00000000
00000010
00000000
00000100
00000000
00001000
00000000
00000010
00000000
00000100
00000000
00000001
00000000
00000000
00000001
00000000
00000000
00000010
00000000
00000000
00000100
00000000
00000000
,  // measure 34
00001000
00000010
00001000
00000010
00000100
00000000
00000001
00000010
00000001
00000010
00000100
00000000
00001000
00000010
00001000
00000010
,  // measure 35
00010000
00000000
00010000
00000000
00010000
00000000
00011000
00000000
00001000
00100000
00001000
00100000
01000000
00000000
10000000
00000000
,  // measure 36
00020000
00000000
00000000
00000000
00000000
00000000
00000000
00000000
00000000
00000000
00000000
00000000
10030000
00100000
01000000
00100000
10000000
00010000
10000000
01000000
00100000
01000000
00010000
00001000
,  // measure 37
00010000
00000000
00000000
00000000
00000000
00000000
00000000
00000000
00000000
00000000
00000000
00000000
00000100
00000000
00000000
00000000
00000000
00000000
00000000
00000000
00000000
00000000
00000000
00000000
00000000
00000000
00000000
00000000
00000000
00000000
00000000
00000000
00000000
00000000
00000000
00000000
00000100
00000000
00000000
00000000
00000000
00000000
00000000
00000000
00000000
00000000
00000000
00000000
00002000
00000000
00000000
00000000
00000000
00000000
00000000
00000000
00000000
00000000
00000000
00000000
00000000
00000000
00000000
00000000
00000000
00000000
00000000
00000000
00000000
00000000
00000000
00000000
00000000
00000000
00000000
00000000
00000000
00000000
00000000
00000000
00000000
00000000
00000000
00000000
00000000
00000000
00000000
00000000
00000000
00000000
00000000
00000000
00000000
00000000
00000000
00000000
00003010
00000000
00000000
00000000
00000000
00000000
00000000
00000000
00000100
00000000
00000000
00000000
00000000
00000000
00000000
00000000
00000001
00000000
00000000
00000000
00000000
00000000
00000000
00000000
00001000
00000000
00000000
00000000
00000000
00000000
00000000
00000000
00000100
00000000
00000000
00000000
00000000
00000000
00000000
00000000
00000010
00000000
00000000
00000000
00000000
00000000
00000000
00000000
00000001
00000000
00000000
00000000
00000000
00000000
00000000
00000000
00000000
00000000
00000000
00000000
00001000
00000000
00000000
00000000
00000000
00000000
00000000
00000000
00000000
00000000
00000000
00000000
00000010
00000000
00000000
00000000
00000000
00000000
00000100
00000000
00000000
00000000
00000000
00000000
00000010
00000000
00000000
00000000
00000000
00000000
00000000
00000000
00000000
00000000
00000000
00000000
,  // measure 38
00001000
00000001
00001000
00000000
00000100
00000000
00010000
00000000
00001000
01000000
00001000
00000000
00010000
00000000
01000000
00000000
10000000
00000000
00100000
00000000
10000000
00000000
01000000
00000000
00010000
00000000
00001000
00000000
00010000
00000000
00100000
00000000
,  // measure 39
01000000
00000000
00000000
10000000
00000000
00000000
01000000
00000000
00000000
00010000
00000000
00000000
10000000
00000000
01000000
00000000
00100000
00000000
00010000
00000000
01000000
00000000
00100000
00000000
00010000
00000000
00000000
00001000
00000000
00000000
00000010
00000000
00000000
00000200
00000000
00000000
00000000
00000000
00000000
00000000
00000000
00000000
00000300
00000000
00000000
00000000
00000000
00000000
,  // measure 40
00001100
00001100
00000000
00000000
00002001
00000000
00000000
00000000
00003010
00000010
00000010
00000100
00000100
00000100
00000010
00000010
,  // measure 41
00001010
00001010
00000000
00000000
00012000
00000000
00000000
00000000
00103000
00100000
00100000
01000000
01000000
01000000
10000000
10000000
,  // measure 42
10010000
10010000
00000000
00000000
01020000
00000000
00000000
00000000
10030000
10000000
10000000
01000000
01000000
01000000
00100000
00100000
,  // measure 43
00010000
01000000
00100000
10000000
01000000
00100000
00001000
00010000
00000010
00001000
00000010
00000100
00001000
00010000
00001000
00000100
,  // measure 44
00000002
00000003
00000000
00000000
00000000
00000000
00000000
00000000
00001001
00000000
00000000
00000000
00001000
00000000
00000000
00000000
00000100
00000000
00000000
00000000
00000010
00000000
00000000
00000000
00001000
00000000
00000000
00000000
00100000
00000000
00000000
00000000
,  // measure 45
01000000
00000000
10000000
00100000
01000000
10000000
01000000
00010000
,  // measure 46
00000100
00000000
00001000
00000000
00010000
00000000
00001000
00000010
00000001
00000100
00001000
00010000
00100000
01000000
00010000
10000000
,  // measure 47
01000000
00100000
01000000
00000000
10000000
00000000
00010000
00000000
01000000
00000000
00000000
00000000
00001000
00000000
00000000
00000000
00010000
00000000
00000000
00000000
00100000
00000000
00000000
00000000
00001000
00000000
00100000
00000000
00010000
00000000
00001000
00000000
,  // measure 48
00000010
00000000
00000000
00000000
00000000
00000000
00000001
00000000
00000000
00000000
00000000
00000000
00001000
00000000
00000000
00000000
00000000
00000000
00000001
00000000
00000000
00000100
00000000
00000000
00001000
00000000
00000000
00000100
00000000
00000000
00000001
00000000
00000000
00000000
00000000
00000000
00001000
00000000
00000100
00000000
00000010
00000000
00001000
00000000
00010000
00000000
00100000
00000000
,  // measure 49
01000000
00000000
00000000
00000000
00000000
00000000
00000000
00000000
00000000
00000000
00000000
00000000
00000000
00000000
00000000
00000000
00000000
00000000
00000000
00000000
00000000
00000000
00000000
00000000
00010000
00000000
00000000
00000000
00000000
00000000
00000000
00000000
00000000
00000000
00000000
00000000
00000000
00000000
00000000
00000000
00000000
00000000
00000000
00000000
00000000
00000000
00000000
00000000
10000000
00000000
00000000
00000000
00000000
00000000
00000000
00000000
00100000
00000000
00000000
00000000
00000000
00000000
00000000
00000000
01000000
00000000
00000000
00000000
00000000
00000000
00000000
00000000
10000000
00000000
00000000
00000000
00000000
00000000
00000000
00000000
01000000
00000000
00000000
00000000
00000000
00000000
00000000
00000000
00100000
00000000
00000000
00000000
00000000
00000000
00000000
00000000
00010000
00000000
00000000
00000000
00000000
00000000
00000000
00000000
00001000
00000000
00000000
00000000
00000000
00000000
00000000
00000000
00010000
00000000
00000000
00000000
00000000
00000000
00000000
00000000
00000100
00000000
00000000
00000000
00000000
00000000
00000000
00000000
00001000
00000000
00000000
00000000
00000000
00000000
00000000
00000000
00000001
00000000
00000000
00000000
00000000
00000000
00000000
00000000
00000100
00000000
00000000
00000000
00000000
00000000
00000010
00000000
00000000
00000000
00000000
00000000
00000100
00000000
00000000
00000000
00000000
00000000
00000000
00000000
00000000
00000000
00000000
00000000
00000001
00000000
00000000
00000000
00000000
00000000
00000000
00000000
00000000
00000000
00000000
00000000
00000000
00000000
00000000
00000000
00000000
00000000
00000000
00000000
00000000
00000000
00000000
00000000
,  // measure 50
00001000
00000000
00000000
00000000
00000000
00000000
00000100
00000000
00000000
00000000
00000000
00000000
00001000
00000000
00000000
00000000
00000000
00000000
00000000
00000000
00000000
00000000
00000000
00000000
00000001
00000000
00000000
00000000
00000000
00000000
00000000
00000000
00000000
00000000
00000000
00000000
00000000
00000000
00000000
00000000
00000000
00000000
00000000
00000000
00000000
00000000
00000000
00000000
00001000
00000000
00000000
00000000
00000000
00000000
00000000
00000000
00000100
00000000
00000000
00000000
00000000
00000000
00000000
00000000
00000010
00000000
00000000
00000000
00000000
00000000
00000000
00000000
00001000
00000000
00000000
00000000
00000000
00000000
00000000
00000000
00010000
00000000
00000000
00000000
00000000
00000000
00000000
00000000
00001000
00000000
00000000
00000000
00000000
00000000
00000000
00000000
00100000
00000000
00000000
00000000
00000000
00000000
00000000
00000000
00000000
00000000
00000000
00000000
00000000
00000000
00000000
00000000
00000000
00000000
00000000
00000000
00000000
00000000
00000000
00000000
00000000
00000000
00000000
00000000
00000000
00000000
00000000
00000000
00000000
00000000
00000000
00000000
00000000
00000000
00000000
00000000
00000000
00000000
00000000
00000000
00000000
00000000
00000000
00000000
00010000
00000000
00000000
00000000
00000000
00000000
00000000
00000000
01000000
00000000
00000000
00000000
00000000
00000000
00000000
00000000
00100000
00000000
00000000
00000000
00000000
00000000
00000000
00000000
00010000
00000000
00000000
00000000
00000000
00000000
00000000
00000000
00001000
00000000
00000000
00000000
00000000
00000000
00000000
00000000
00010000
00000000
00000000
00000000
00000000
00000000
00000000
00000000
,  // measure 51
00000100
00000000
00000000
00000000
00000000
00000000
00001000
00000100
00000010
00001000
00010000
00100000
01000000
00010000
10000000
01000000
00100000
00010000
01000000
00100000
10000000
00010000
10000000
01000000
,  // measure 52
00100000
01000000
00010000
00001000
00010000
01000000
00200000
00000000
00000000
00000000
00000000
00000000
00300000
00000000
00000000
00000000
00000000
00000000
00010000
00000000
00100000
00000000
01000000
00000000
,  // measure 53
00100000
00001000
00010000
00000010
00001000
00000010
00000100
00000001
00000100
00000010
00001000
00000001
,  // measure 54
00000010
00000000
00000100
00000000
00000010
00000000
00000001
00000000
00000000
00000001
00000000
00000000
00001000
00000000
00000000
00000010
00000000
00000000
00000100
00000000
00000010
00000000
00001000
00000000
,  // measure 55
00000001
00001000
00000010
00010000
00001000
00100000
01000000
00100000
00010000
01000000
00100000
10000000
,  // measure 56
00010000
00000000
00100000
00000000
01000000
00000000
10000000
00000000
00000000
10000000
00000000
00000000
00100000
00000000
00000000
00010000
00000000
00000000
00001000
00000000
00010000
00000000
01000000
00000000
,  // measure 57
00010000
00001000
00010000
00000010
00001000
00000001
00000010
00000100
00001000
00000010
00000100
00000001
,  // measure 58
00001000
00000000
00000000
00000000
00000100
00000000
00000000
00000000
00000010
00000000
00000000
00000000
00000001
00000000
00000000
00000000
00000000
00000000
00000001
00000000
00000000
00000000
00000000
00000000
00000100
00000000
00000000
00000000
00000000
00000000
00000010
00000000
00000000
00000000
00000000
00000000
00001000
00000000
00000000
00000100
00000000
00000000
00001000
00000000
00000000
00000100
00000000
00000000
,  // measure 59
00000010
00000000
00000001
00000100
00000001
00000100
00000010
00000000
00001000
00000100
00001000
00000100
00000010
00000000
00000001
00000100
,  // measure 60
00000001
00000100
00000010
00000000
00020000
00000000
00000000
00000000
00000000
00000000
00000000
00000000
00031000
00000000
00000010
00000000
,  // measure 61
00001000
00010000
00200000
01000000
10300000
00010000
10000000
01000000
,  // measure 62
00100000
00001000
00011000
00001000
00001010
00000000
00000011
00000001
,  // measure 63
00000100
00000000
00000000
00000010
00000000
00000000
00000002
00000000
00000000
00000010
00000000
00000000
00001003
00000000
00000000
00000100
00000000
00000000
00010000
00000000
00001000
00000000
00000010
00000000
,  // measure 64
00001000
00000000
00010000
00000000
00100000
00000000
00010000
00000000
00001000
00000000
00000010
00000000
00001000
00000000
00000000
00000000
00000000
00000000
00011000
00000000
00000000
00010000
00000000
00000000
,  // measure 65
01000000
00100000
00020000
01000000
10030000
01000000
00100000
01000000
,  // measure 66
10000000
00000000
00000000
00100000
00000000
00000000
01100000
00000000
00000000
01000000
00000000
00000000
01001000
00000000
00000000
00001000
00000000
00000000
00010000
00000000
00001000
00000000
00000010
00000000
,  // measure 67
00000100
00000010
00001000
00010000
00100000
10000000
00010000
10000000
00100000
00010000
00001000
00000010
,  // measure 68
00000001
00000010
00001000
00010000
01000000
10000000
00200000
00000000
00000000
01300000
00000000
00000000
;
