#VERSION:0.83;
#TITLE:GammaRay Burst;
#SUBTITLE:;
#ARTIST:cosMo@暴走P;
#TITLETRANSLIT:;
#SUBTITLETRANSLIT:;
#ARTISTTRANSLIT:cosMo@BousouP;
#GENRE:;
#ORIGIN:WE ARE THE BOSS [MTOF-0007];
#TAGS:;
#CREDIT:;
#BANNER:GammaRay Burst.png;
#BACKGROUND:GammaRay Burst-bg.png;
#PREVIEWVID:;
#JACKET:GammaRay Burst-jacket.png;
#CDIMAGE:;
#DISCIMAGE:;
#LYRICSPATH:;
#CDTITLE:../_YSD cdtitles/ysd sc2023 cdtitle.png;
#MUSIC:GammaRay Burst.ogg;
#OFFSET:0.000000;
#SAMPLESTART:34.299999;
#SAMPLELENGTH:20.316999;
#SELECTABLE:YES;
#BPMS:0.000000=189.000000
;
#STOPS:;
#DELAYS:;
#WARPS:;
#TIMESIGNATURES:0.000000=4=4
,428.000000=3=4
;
#TICKCOUNTS:0.000000=4
;
#COMBOS:0.000000=1
;
#SPEEDS:0.000000=1.000000=0.000000=0
;
#SCROLLS:0.000000=1.000000
;
#FAKES:;
#LABELS:0.000000=Song Start
;
#BGCHANGES:;
#KEYSOUNDS:;
#ATTACKS:
;

//---------------dance-single - ----------------
#NOTEDATA:;
#CHARTNAME:;
#CHARTHASH:2674264173;
#STEPSTYPE:dance-single;
#BANNER:;
#DESCRIPTION:;
#CHARTSTYLE:;
#DIFFICULTY:Beginner;
#METER:5;
#METERF:0.000000;
#LASTSECONDHINT:143.492065;
#RADARVALUES:0.154852,0.271335,0.075466,0.068605,0.000000,158.000000,147.000000,11.000000,10.000000,0.000000,0.000000,0.000000,0.000000,0.000000,0.154852,0.271335,0.075466,0.068605,0.000000,158.000000,147.000000,11.000000,10.000000,0.000000,0.000000,0.000000,0.000000,0.000000;
#CREDIT:YOSEFU;
#NOTES:
// measure 0
0000
0000
0000
0000
,  // measure 1
0000
0000
0000
0000
,  // measure 2
0000
0000
0000
0000
,  // measure 3
0000
0000
0000
0000
,  // measure 4
0000
0000
0000
0000
,  // measure 5
0000
0000
0000
0000
,  // measure 6
0000
0000
0000
0000
,  // measure 7
0000
0000
0000
0000
,  // measure 8
0000
0000
0000
0000
,  // measure 9
1000
0000
0000
0000
,  // measure 10
0001
0000
0000
0000
,  // measure 11
0100
0000
0000
0000
,  // measure 12
0010
0000
0000
0000
,  // measure 13
1000
0000
0000
0000
,  // measure 14
0100
0000
0000
0000
,  // measure 15
0010
0000
0000
0000
,  // measure 16
0001
0000
0000
0000
,  // measure 17
1001
0000
1000
0000
,  // measure 18
0001
0000
0001
0000
,  // measure 19
1000
0000
1000
0000
,  // measure 20
0001
0000
0001
0000
,  // measure 21
0100
0000
0100
0000
,  // measure 22
0010
0000
0010
0000
,  // measure 23
0100
0000
0100
0000
,  // measure 24
0010
0000
0010
0000
,  // measure 25
1001
0000
0000
0000
,  // measure 26
0000
0000
0000
0000
,  // measure 27
1000
0000
0100
0000
,  // measure 28
1000
0000
0000
0000
,  // measure 29
0001
0000
0100
0000
,  // measure 30
0001
0000
0000
0000
,  // measure 31
1000
0000
0010
0000
,  // measure 32
1000
0000
0000
0000
,  // measure 33
0001
0000
0010
0000
,  // measure 34
0001
0000
0000
0000
,  // measure 35
1000
0000
0100
0000
,  // measure 36
0010
0000
0000
0000
,  // measure 37
0001
0000
0010
0000
,  // measure 38
0100
0000
0000
0000
,  // measure 39
1000
0000
0010
0000
,  // measure 40
0100
0000
0000
0000
,  // measure 41
0001
0000
0010
0000
,  // measure 42
0100
0000
1000
0000
,  // measure 43
1001
0000
0000
0000
,  // measure 44
0001
0000
0000
0000
,  // measure 45
0100
0000
0000
0000
,  // measure 46
0010
0000
0000
0000
,  // measure 47
1000
0000
0000
0000
,  // measure 48
0100
0000
0000
0000
,  // measure 49
0010
0000
0000
0000
,  // measure 50
0001
0000
0000
0000
,  // measure 51
2000
0000
0000
0000
,  // measure 52
0000
0000
3000
0000
,  // measure 53
0020
0000
0000
0000
,  // measure 54
0000
0000
0030
0000
,  // measure 55
2000
0000
0000
0000
,  // measure 56
0000
0000
3000
0000
,  // measure 57
0020
0000
0000
0000
,  // measure 58
0000
0000
0030
0000
,  // measure 59
1001
0000
0000
0000
,  // measure 60
0000
0000
0000
0000
,  // measure 61
1001
0000
0000
0000
,  // measure 62
0000
0000
0000
0000
,  // measure 63
1001
0000
0000
0000
0000
0000
0000
0001
,  // measure 64
0000
0000
0001
0000
,  // measure 65
0110
0000
0000
0000
,  // measure 66
1001
0000
0000
0000
,  // measure 67
1000
0000
1000
0000
,  // measure 68
0001
0000
0001
0000
,  // measure 69
0100
0000
0100
0000
,  // measure 70
0010
0000
0010
0000
,  // measure 71
1000
0000
1000
0000
,  // measure 72
0100
0000
0100
0000
,  // measure 73
0010
0000
0001
0000
,  // measure 74
0010
0000
0100
0000
,  // measure 75
0000
1000
0000
0000
,  // measure 76
1000
0000
0001
0000
,  // measure 77
0200
0000
0300
0000
,  // measure 78
0010
0000
1000
0000
,  // measure 79
0010
0000
0100
0000
,  // measure 80
0001
0000
0100
0000
,  // measure 81
0010
0000
1000
0000
,  // measure 82
0002
0000
0003
0000
,  // measure 83
1001
0000
0000
0000
,  // measure 84
0000
0000
0000
1001
,  // measure 85
0000
0000
0000
0000
0000
0100
0000
0000
,  // measure 86
0000
0000
0000
0000
,  // measure 87
1001
0000
0000
0000
,  // measure 88
0001
0000
0000
0000
,  // measure 89
0020
0000
0030
0000
,  // measure 90
0200
0000
0300
0000
,  // measure 91
1000
0000
1000
0000
,  // measure 92
0001
0000
0001
0000
,  // measure 93
0100
0000
0100
0000
,  // measure 94
0010
0000
0010
0000
,  // measure 95
1000
0000
1000
0000
,  // measure 96
0100
0000
0100
0000
,  // measure 97
0010
0000
0010
0000
,  // measure 98
0001
0000
0001
0000
,  // measure 99
1000
1000
1000
0000
,  // measure 100
0001
0001
0001
0000
,  // measure 101
0010
0010
0010
0000
,  // measure 102
0100
0100
0100
0000
,  // measure 103
1000
0100
1000
0000
,  // measure 104
0001
0100
0001
0000
,  // measure 105
1000
0010
1000
0000
,  // measure 106
0001
0010
0001
0000
,  // measure 107
2000
0000
0000
0000
,  // measure 108
0000
0000
0000
0000
,  // measure 109
0000
3000
0000
0000
,  // measure 110
0002
0000
0000
0000
,  // measure 111
0000
0000
0000
0000
,  // measure 112
0000
0000
0000
0000
,  // measure 113
0003
0000
0000
0000
;

//---------------dance-single - ----------------
#NOTEDATA:;
#CHARTNAME:;
#CHARTHASH:520179949;
#STEPSTYPE:dance-single;
#BANNER:;
#DESCRIPTION:;
#CHARTSTYLE:;
#DIFFICULTY:Easy;
#METER:10;
#METERF:0.000000;
#LASTSECONDHINT:135.873016;
#RADARVALUES:0.362629,0.550559,0.137211,0.219537,0.000000,370.000000,350.000000,20.000000,32.000000,0.000000,0.000000,0.000000,0.000000,0.000000,0.362629,0.550559,0.137211,0.219537,0.000000,370.000000,350.000000,20.000000,32.000000,0.000000,0.000000,0.000000,0.000000,0.000000;
#CREDIT:YOSEFU;
#NOTES:
// measure 0
0000
0000
0000
0000
,  // measure 1
0000
0000
0000
0000
,  // measure 2
0000
0000
0000
0000
,  // measure 3
0000
0000
0000
0000
,  // measure 4
0000
0000
0000
0000
,  // measure 5
0000
0000
0000
0000
,  // measure 6
0000
0000
0000
0000
,  // measure 7
0000
0000
0000
0000
,  // measure 8
0000
0000
0000
0000
,  // measure 9
1000
0001
0000
1001
,  // measure 10
1000
0010
0000
0100
,  // measure 11
0001
1000
0000
0100
,  // measure 12
0010
0001
0000
1000
,  // measure 13
0001
0100
0000
0000
0000
0000
0001
0000
,  // measure 14
1000
0100
0000
0010
,  // measure 15
0001
1000
0000
0010
,  // measure 16
0100
0001
1001
1001
,  // measure 17
1000
0000
0100
0000
0010
0001
0010
0000
,  // measure 18
0100
0000
1000
0000
0001
0100
0001
0000
,  // measure 19
0100
0000
0010
0000
1000
0001
1000
0000
,  // measure 20
0001
0000
0010
0000
0100
0010
0100
0000
,  // measure 21
1000
0000
0001
0000
0100
0001
0100
0000
,  // measure 22
0001
0000
1000
0000
0100
0010
0100
0000
,  // measure 23
1000
0000
0001
0000
0100
0010
1000
0000
,  // measure 24
0001
0000
0010
0000
0100
1000
0001
0000
,  // measure 25
2000
0000
0000
0000
,  // measure 26
0000
0000
0000
0000
,  // measure 27
3001
0000
0010
0000
0100
0000
1000
0002
,  // measure 28
0000
0000
0000
0103
0010
0000
1000
0000
,  // measure 29
0100
0000
0010
0000
0001
0000
0100
0020
,  // measure 30
0000
0000
0000
1030
0001
0000
0010
0000
,  // measure 31
0100
0000
0010
0002
0000
1003
0001
0000
,  // measure 32
0100
0000
0010
2000
0000
3001
0010
0000
,  // measure 33
0200
0300
1000
0001
,  // measure 34
0100
0010
1000
0010
,  // measure 35
0100
0000
0001
0000
1000
0000
0100
0020
,  // measure 36
0000
0000
0000
0130
1000
0000
0001
0000
,  // measure 37
0100
0000
0010
0000
1000
0000
0100
0020
,  // measure 38
0000
0000
0000
0031
0100
0000
0010
0000
,  // measure 39
1000
0000
0100
0020
0000
0031
1000
0000
,  // measure 40
0010
0000
0100
0002
0000
1003
0100
0000
,  // measure 41
0020
0000
0030
0001
0100
0000
0010
0000
,  // measure 42
1000
0100
0110
0011
,  // measure 43
2001
0000
0000
0000
,  // measure 44
3020
0000
0000
0000
,  // measure 45
0230
0000
0000
0000
,  // measure 46
0302
0000
0000
0000
,  // measure 47
0023
0000
0000
0000
,  // measure 48
0230
0000
0000
0000
,  // measure 49
2300
0000
0000
0000
,  // measure 50
3020
0000
0030
0000
,  // measure 51
0210
0000
0000
0000
,  // measure 52
0302
0000
0000
0000
,  // measure 53
2003
0000
0000
0000
,  // measure 54
3200
0000
0000
0000
,  // measure 55
0320
0000
0000
0000
,  // measure 56
0032
0000
0000
0000
,  // measure 57
0203
0000
0000
0000
,  // measure 58
0320
0000
0000
0000
,  // measure 59
1030
0000
0000
1000
0000
0000
0000
0000
,  // measure 60
0000
0000
0000
0001
,  // measure 61
0001
0001
0000
0001
0000
0000
0000
0000
,  // measure 62
0000
0000
0000
0010
,  // measure 63
0100
0000
1100
0000
0000
0000
0000
1001
,  // measure 64
0000
0000
1001
0000
0100
0100
0000
0000
,  // measure 65
1001
0000
0000
1001
0000
0110
0000
0000
,  // measure 66
0001
0000
1000
0000
0010
0100
0010
0000
,  // measure 67
1000
0100
0010
0001
,  // measure 68
0100
0010
0100
0000
0001
0000
1000
0000
,  // measure 69
0100
0010
0001
1000
,  // measure 70
0010
0100
0010
0000
1000
0000
0100
0000
,  // measure 71
0110
0010
0001
1000
,  // measure 72
0010
1000
0010
0000
0100
0000
0001
0000
,  // measure 73
0010
0100
1000
0001
,  // measure 74
0100
0001
0100
0000
0010
0000
1000
0000
,  // measure 75
0100
0011
0001
1000
,  // measure 76
0010
0000
0100
0000
0001
0000
1000
0100
,  // measure 77
0002
0000
0000
0103
1000
0000
0001
0000
,  // measure 78
0100
0010
1000
0001
,  // measure 79
1000
0000
0100
1000
0000
0100
1000
0000
,  // measure 80
0001
0000
0100
0010
1000
0000
0001
0000
,  // measure 81
0010
0000
0100
0000
1000
0000
0001
0100
,  // measure 82
2000
0000
0000
3100
,  // measure 83
0001
0000
0000
0101
0000
1000
0000
1000
,  // measure 84
0000
0100
0010
0011
,  // measure 85
0000
0000
1001
0000
0000
1010
0000
0000
,  // measure 86
0001
0100
0010
1000
,  // measure 87
1010
0000
0010
0000
,  // measure 88
0100
0001
0010
1000
,  // measure 89
0020
0000
0000
0000
,  // measure 90
0230
0000
0000
2300
0000
0000
3001
0000
,  // measure 91
0100
0000
0010
0000
1000
0001
1000
0000
,  // measure 92
0001
0000
0010
0000
0100
1000
0100
0000
,  // measure 93
0010
0000
0001
0000
1000
0010
1000
0000
,  // measure 94
0010
0000
0100
0000
0001
0010
0100
0000
,  // measure 95
1000
0000
0001
0000
0100
0010
0100
0000
,  // measure 96
0001
0000
0010
0000
0100
1000
0100
0000
,  // measure 97
0010
0000
0001
0000
1000
0010
0100
0000
,  // measure 98
0001
0000
1000
0000
0100
0010
0001
0000
,  // measure 99
1000
0000
0010
0000
0100
0001
1000
0100
,  // measure 100
0010
0000
0100
0000
1000
0001
0100
0010
,  // measure 101
1000
0000
0001
0000
0010
0100
0010
0001
,  // measure 102
1000
0000
0010
0000
0100
0001
1000
0100
,  // measure 103
0010
0010
0001
0001
,  // measure 104
1000
1000
0010
0010
,  // measure 105
0100
0001
0100
0000
0001
1000
0001
0000
,  // measure 106
1000
0100
0010
0001
0010
0100
1000
0001
,  // measure 107
0100
0000
0000
0000
;

//---------------dance-single - ----------------
#NOTEDATA:;
#CHARTNAME:;
#CHARTHASH:3343966011;
#STEPSTYPE:dance-single;
#BANNER:;
#DESCRIPTION:;
#CHARTSTYLE:;
#DIFFICULTY:Medium;
#METER:13;
#METERF:14.000000;
#LASTSECONDHINT:143.412689;
#RADARVALUES:0.514541,0.658591,0.109769,0.301864,0.034303,525.000000,509.000000,16.000000,44.000000,0.000000,0.000000,0.000000,0.000000,0.000000,0.514541,0.658591,0.109769,0.301864,0.034303,525.000000,509.000000,16.000000,44.000000,0.000000,0.000000,0.000000,0.000000,0.000000;
#CREDIT:YOSEFU;
#NOTES:
0000
0000
0000
0000
,
0000
0000
0000
0000
,
0000
0000
0000
0000
,
0000
0000
0000
0000
,
0000
0000
0000
0000
,
0000
0000
0000
0000
,
0000
0000
0000
0000
,
0000
0000
0000
0000
,
0000
0000
0000
0000
,
1000
0000
0001
0000
0000
1000
0010
0000
,
1000
0000
0001
1000
0000
0010
1000
0000
,
0001
0000
1000
0000
0000
0100
1000
0000
,
0001
0000
1000
0001
0000
1000
0100
0000
,
0010
0000
0001
0000
0000
1000
0010
0000
,
1000
0000
0001
0010
0000
0001
1000
0000
,
0001
0000
1000
0000
0000
0010
0100
0000
,
0001
0000
0000
0100
0000
0000
0010
0000
0010
1000
0000
1000
,
0001
1000
0100
0010
0001
0010
0100
0000
,
1000
0010
0100
0001
0010
0100
1000
0000
,
0001
0100
0010
0100
0001
1000
0100
0000
,
0010
0100
1000
0001
0100
0010
1000
0000
,
0001
0010
0100
0010
0001
1000
0010
0000
,
0100
0010
1000
0001
0010
0100
1000
0000
,
0100
0010
0001
1000
0010
0100
0001
0000
,
1000
0100
0010
0001
1000
0010
0100
0001
,
2002
0000
0000
0000
,
0000
0000
0000
3003
,
0000
1000
0100
0010
0001
1000
0010
0200
,
0000
0000
0000
0300
,
0000
0001
0010
0100
1000
0001
0100
0020
,
0000
0000
0000
0030
,
1000
0001
0010
0002
0000
1003
0001
1000
,
0001
0100
0001
0000
0100
0000
0020
0000
0000
0000
1030
0000
0001
0000
0010
0000
,
0200
0000
0000
1300
0002
0000
0203
0000
,
0320
0000
2030
0000
3001
0010
0100
1000
,
0000
0001
0100
0010
1000
0001
0010
0200
,
0000
0000
0000
0300
,
0000
1000
0100
0010
0100
1000
0001
0200
,
0000
0000
0000
0300
,
0010
1000
0001
0020
0000
0130
0010
0001
,
1000
0001
1000
0000
0001
0000
0200
0000
0000
0000
0310
0000
1000
0000
0001
0000
,
0020
0000
0000
0130
2000
0000
3002
0000
,
0203
0000
0320
0000
1030
0001
0010
0100
,
1000
0000
0001
0000
,
0100
0000
0010
1000
,
0001
0000
0010
0000
,
0100
0000
1000
0001
,
0100
0000
0001
0000
,
1000
0000
0100
0010
,
0001
0000
1000
0000
,
0010
0000
0100
0001
,
1001
0000
1000
0000
,
0100
0000
0010
0100
,
1000
0000
0010
0000
,
0100
0000
0001
1000
,
0100
0000
0010
0000
,
0100
0000
1000
0010
,
0100
0000
0001
1000
,
0100
0000
0000
0000
0010
0100
1000
0000
,
1001
0000
0000
0101
0000
0000
0000
0000
,
0000
0000
0000
0101
,
0001
1000
0000
1001
0000
0000
0000
0000
,
0000
0000
0000
0000
0000
0000
1000
0100
,
0010
0000
0011
0000
0000
0000
0000
1001
,
0000
0000
1010
0000
1000
0001
0000
0000
,
0011
0000
0000
1001
0000
1100
0000
0000
,
1000
0100
0010
0001
1000
0010
0100
0001
,
2000
0000
0000
3002
2003
0000
3100
0010
,
0001
0010
0100
1000
0010
0100
0001
1000
,
0100
0000
0010
0000
0001
0000
0100
0000
0010
0000
0000
1000
0000
0000
0100
0000
,
0002
0000
0000
0203
0000
0000
2300
0000
,
3001
0100
0010
1000
0100
0010
0001
0100
,
0010
1000
0100
0010
0100
1000
0001
0200
,
0000
0310
1000
0001
0010
0100
1000
0100
,
0010
0001
0100
0010
1000
0001
0020
0000
,
0031
0000
0000
0000
1001
0000
0000
1000
0000
0000
0010
0000
0000
0100
0000
0000
,
0001
1000
0000
0100
0010
0100
1000
0001
,
0200
0000
0000
0310
2000
0000
3002
0000
,
0013
0100
1000
0010
0100
0001
1000
0100
,
0010
0001
0100
1000
0100
0001
1000
0100
,
0001
0100
1000
0010
0100
0001
1000
0100
,
0010
0000
0000
0001
0000
0000
1000
0000
0000
0010
0000
0000
0100
0000
0001
0000
,
2000
0000
0000
0000
,
3001
0000
0000
1001
0000
0000
1000
0100
,
0010
0001
1000
0010
0100
0001
1000
0100
,
0010
0000
0011
0000
0000
1001
0000
0000
,
1000
0010
0100
0000
0001
0010
0100
0000
,
1000
0010
0001
0010
1000
0001
0010
1000
,
0010
0100
1000
0001
0100
0010
1000
0001
,
0020
0000
0000
0000
,
0230
0000
0000
2300
0000
0000
3002
0000
,
0013
0100
1000
0100
0010
0001
1000
0000
,
0010
0100
0001
1000
0100
0010
0001
0000
,
1000
0010
0100
0001
0010
0001
1000
0000
,
0001
0100
0010
1000
0001
0010
0100
0000
,
1000
0100
0010
0001
1000
0010
0100
0000
,
0010
1000
0010
0100
0001
0010
0100
0000
,
1000
0100
0010
0001
0100
0010
1000
0000
,
0001
0010
0100
1000
0010
0100
0001
0000
,
1000
0100
0001
0100
1000
0010
0100
0001
,
0010
0100
0010
1000
0010
0001
0100
0010
,
0001
0010
1000
0100
0001
0100
0010
0001
,
0100
0010
0100
1000
0100
0010
0100
0001
,
1000
0010
1000
0100
1000
0001
0100
0001
,
0010
0001
1000
0100
0010
0001
1000
0010
,
0001
0010
1000
0001
0010
1000
0010
0100
,
1000
0010
0001
0010
0100
0001
0010
0100
,
2000
0000
0000
3200
,
0000
0000
0320
0000
,
0000
0032
0000
0000
,
2003
0000
0000
3020
,
0000
0000
0230
0000
,
0000
0000
0000
0000
0302
0000
0000
0000
0000
0000
0000
0000
0000
0000
0000
0003
;

//---------------dance-single - ----------------
#NOTEDATA:;
#CHARTNAME:;
#CHARTHASH:2845417533;
#STEPSTYPE:dance-single;
#BANNER:;
#DESCRIPTION:;
#CHARTSTYLE:;
#DIFFICULTY:Hard;
#METER:16;
#METERF:16.000000;
#LASTSECONDHINT:143.412689;
#RADARVALUES:0.711537,1.123479,0.102908,0.288143,0.576286,726.000000,711.000000,15.000000,42.000000,0.000000,0.000000,0.000000,0.000000,0.000000,0.711537,1.123479,0.102908,0.288143,0.576286,726.000000,711.000000,15.000000,42.000000,0.000000,0.000000,0.000000,0.000000,0.000000;
#CREDIT:YOSEFU;
#NOTES:
0000
0000
0000
0000
,
0000
0000
0000
0000
,
0000
0000
0000
0000
,
0000
0000
0000
0000
,
0000
0000
0000
0000
,
0000
0000
0000
0000
,
0000
0000
0000
0000
,
0000
0000
0000
0000
,
0000
0000
0000
0000
,
1000
0000
1010
0000
0000
0010
0100
0000
,
0001
0000
1000
0001
0000
1000
0100
0000
,
0010
0000
0011
0000
0000
0001
1000
0000
,
0010
0000
0000
1000
0010
0000
0000
0000
0100
0000
0001
0000
1000
0000
0000
0000
,
0100
0000
0110
0000
0000
0010
0001
0000
,
1001
0000
1000
0010
0000
1000
0001
0000
,
0010
0000
0110
0000
0000
0100
1000
0000
,
0001
0000
0000
0000
0000
0000
0000
0000
0000
1000
0000
0000
0001
0000
0000
0000
0000
0000
0000
0000
0000
0000
0000
0000
1000
0000
0000
0000
0100
0000
0000
0000
0010
0000
0000
0000
0001
0000
0000
0000
0010
0000
0000
0000
0100
0000
0000
0000
,
1000
0000
0001
0000
0010
0000
0001
0000
1000
0010
1000
0010
1000
0000
0000
0000
,
0001
0000
0010
0000
0100
0000
0010
0000
0001
1000
0001
1000
0001
0000
0000
0000
,
1000
0000
0010
0000
0100
0000
0010
0000
1000
0001
1000
0001
1000
0000
0000
0000
,
0001
0000
0010
0000
0100
0000
1000
0000
0001
0100
0001
0100
0001
0000
0000
0000
,
1000
0000
0100
0000
0010
0000
0001
0000
1000
0010
1000
0010
1000
0000
0000
0000
,
0001
0000
0100
0000
0010
0000
0100
0000
0001
1000
0001
1000
0001
0000
0000
0000
,
0010
0000
0100
0000
1000
0000
0001
0000
0100
0010
0100
0010
0100
0000
0000
0000
,
0001
0000
1000
0000
0100
0000
0010
0000
0001
1000
0001
1000
0010
0100
0010
0100
,
0002
0000
0000
0000
,
0000
0000
1003
0010
1000
0000
0001
0000
0010
0100
1000
0001
0100
0000
0010
0000
,
1000
0001
0100
0010
0100
0001
1000
0200
,
0000
0000
0000
0310
0000
0010
0001
0000
,
1000
0010
0100
0001
1000
0100
0010
0002
,
0000
0000
0000
0000
0103
0010
1000
0000
,
0001
0010
0100
0020
0000
0031
1000
0010
,
1000
0001
1000
0001
1000
0000
0200
0000
0000
0000
0310
0000
0001
0000
1000
0000
,
0020
0000
0000
0000
0000
0000
0130
0001
2000
0000
0000
0000
3002
0000
0000
0000
,
0023
0000
0230
0000
1300
0100
0010
0001
,
1000
0010
0100
0001
0010
0001
1000
0020
,
0000
0000
0000
0130
0000
0100
0001
0000
,
0010
0100
1000
0010
0100
0001
1000
0200
,
0000
0000
0000
0000
0310
0001
1000
0000
,
0010
0100
0010
2000
0000
3001
0010
0100
,
1000
0001
1000
0001
1000
0000
0020
0000
0000
0000
0130
0000
0001
0000
1000
0000
,
0200
0000
0000
0000
0000
0000
0310
0001
2000
0000
0000
0000
3002
0000
0000
0000
,
0203
0000
0000
0320
0000
0000
1030
0001
1000
0001
0010
0100
,
1000
0000
0001
1000
,
0100
0000
0010
0100
,
1000
0000
0001
0100
,
0010
0000
0001
0010
,
1000
0000
0100
0010
,
0001
0000
0100
0010
,
1000
0000
0001
0010
,
0100
0000
0001
0100
,
1000
0000
0001
0100
,
0010
0000
1000
0100
,
0010
0000
0001
1000
,
0010
0000
0001
0010
,
1000
0000
0001
0010
,
0100
0000
1000
0010
,
0100
0000
0001
1000
,
0100
0000
0010
0001
0100
0010
1000
0000
,
1010
0000
0000
1001
0000
0000
0000
0000
,
0000
0000
0000
0011
,
0101
0100
0000
1001
0000
0000
0000
0000
,
0000
0000
0000
0000
0000
0000
0000
0000
0000
0000
0000
0000
1000
0001
1000
0001
,
1000
0000
0000
0000
0001
0000
0000
0000
0010
0000
0000
0001
1000
0000
0010
0000
,
0000
0100
0001
0000
1000
0100
0000
0010
0001
0000
1000
0000
0000
0000
0001
0000
,
0101
0100
0010
1010
1000
1001
0001
0010
,
0100
1000
0100
1000
0001
0100
0001
0100
0010
1000
0001
0010
0100
1000
0100
0010
,
0002
0000
0000
0000
0000
0000
2003
0000
3200
0000
0000
0000
0310
0001
0010
0100
,
1000
0001
0100
0010
1000
0000
0001
0000
1000
0100
0010
0001
1000
0010
0100
0000
,
0001
0010
0100
1000
0001
0100
0010
0000
1000
0000
0000
0010
0000
0000
0100
0000
,
0002
0000
0000
2003
0000
0000
3200
0000
,
1300
0100
1000
0000
0001
0100
0001
0000
1000
0000
0001
0100
0001
0000
1000
0100
,
1000
0000
0001
0000
1000
0100
1000
0000
0001
0100
0001
0000
1000
0100
0010
0001
,
1000
0010
0001
0010
0100
0001
0010
1000
,
0010
0100
1000
0001
0100
0010
2000
0000
,
3000
0000
0000
0000
1010
0000
0000
0010
0000
0000
1000
0000
0000
0001
0000
0000
,
0010
0000
0100
1000
0000
0000
0001
0100
0010
0100
0001
0000
1000
0100
0010
0001
,
0200
0000
0000
0000
0000
0000
0310
1000
0002
0000
0000
0000
0023
0000
0000
0000
,
0130
1000
0100
0010
0001
0000
1000
0010
0100
0001
1000
0000
0001
0010
0100
1000
,
0001
0100
0010
0100
0001
0000
1000
0100
0010
0001
1000
0000
0001
0100
0010
1000
,
0001
0000
1000
0010
0100
0000
0001
0000
0010
0000
0100
0000
1000
0000
0001
0100
,
0010
0000
0000
1000
0000
0000
0001
0000
0000
0010
0000
0100
1000
0001
0100
0000
,
0020
0000
0000
0000
,
1030
0000
0001
0000
0010
0000
0110
0000
0100
0000
1000
0000
0001
0100
0010
1000
,
0001
0000
0010
0000
0100
0000
1000
0000
0010
0000
0100
0000
0001
1000
0100
0010
,
0001
0000
0000
1000
0000
0000
0010
0000
0100
0000
1000
0000
0100
0000
0001
0000
,
1000
0100
1000
0100
1000
0000
0000
0000
0001
0100
0001
0100
0001
0000
0000
0000
,
1000
0000
0000
0000
0100
0000
0000
0000
1000
0000
0000
0000
0100
0000
0000
0000
0010
0000
0000
0000
0001
0000
0000
0000
1000
0000
0000
0010
0000
0000
1000
0000
0000
0010
0000
0000
1000
0000
0000
0001
0000
0000
0010
0000
0000
0000
0000
0000
,
0100
1000
0100
0010
0001
1000
0010
0000
0100
0001
1000
0100
0010
0001
1000
0010
,
0200
0000
0000
0000
,
0302
0000
0000
2003
0000
0000
3200
0000
,
0310
0000
0001
0000
1000
0000
0010
0000
0100
0001
0100
0001
0100
0000
0000
0000
,
0010
0000
1000
0000
0001
0000
0010
0000
0100
1000
0100
1000
0100
0000
0000
0000
,
0010
0000
0001
0000
1000
0000
0010
0000
1000
0001
1000
0001
1000
0000
0000
0000
,
0010
0000
1000
0000
0001
0000
0010
0000
0001
1000
0001
1000
0001
0000
0000
0000
,
0010
0000
0001
0000
1000
0000
0010
0000
0100
0001
1000
0001
0100
0000
0000
0000
,
0010
0000
1000
0000
0001
0000
0010
0000
0001
1000
0010
1000
0001
0000
0000
0000
,
0010
0000
0100
0000
1000
0000
0001
0000
0100
0010
1000
0001
0010
0000
0000
0000
,
0100
0000
1000
0000
0010
0000
0100
0000
0001
1000
0100
0010
0001
0000
0000
0000
,
1000
0000
0100
0000
0010
0000
0100
0000
1000
0001
1000
0001
0100
0010
0100
0010
,
1000
0000
0001
0000
0010
0000
0100
0000
1000
0010
1000
0010
0100
0001
0100
0001
,
1000
0000
0001
0000
0100
0000
0001
0000
1000
0100
1000
0100
0010
0001
0010
0001
,
1000
0000
0001
0000
0100
0000
0010
0000
1000
0001
0010
0100
1000
0001
0100
0010
,
1000
0000
0001
0000
0010
0000
0100
0000
1000
0000
0001
0100
0001
0000
1000
0000
,
0100
0010
0100
0000
1000
0001
1000
0000
0001
0100
0001
0000
1000
0000
0100
0000
,
0010
0001
0010
0001
1000
0010
1000
0010
0100
0000
0001
0000
1000
0000
0100
0000
,
0010
0001
0010
0100
1000
0001
0100
0010
1000
0001
0010
0100
1000
0001
0100
0010
,
2000
0000
0000
3200
,
0000
0000
0320
0000
,
0000
0032
0000
0000
,
0203
0000
0000
0320
,
0000
0000
2030
0000
,
0000
0000
0000
0000
3002
0000
0000
0000
0000
0000
0000
0000
0000
0000
0000
0003
;

//---------------dance-single - ----------------
#NOTEDATA:;
#CHARTNAME:Burst of Light;
#CHARTHASH:655168166;
#STEPSTYPE:dance-single;
#BANNER:;
#DESCRIPTION:;
#CHARTSTYLE:;
#DIFFICULTY:Challenge;
#METER:18;
#METERF:0.000000;
#LASTSECONDHINT:143.412689;
#RADARVALUES:0.962437,1.278441,0.150932,0.308725,1.193735,982.000000,960.000000,22.000000,45.000000,0.000000,0.000000,0.000000,0.000000,0.000000,0.962437,1.278441,0.150932,0.308725,1.193735,982.000000,960.000000,22.000000,45.000000,0.000000,0.000000,0.000000,0.000000,0.000000;
#CREDIT:Yosefu;
#NOTES:
0000
0000
0000
0000
,
0000
0000
0000
0000
,
0000
0000
0000
0000
,
0000
0000
0000
0000
,
0000
0000
0000
0000
,
0000
0000
0000
0000
,
0000
0000
0000
0000
,
0000
0000
0000
0000
,
0000
0000
0000
0000
,
1000
0000
1010
0000
0000
0001
0101
0000
,
1000
0000
0000
0000
1100
0000
1000
0000
0000
0000
0001
0000
0101
0000
0000
0100
,
0010
0000
1010
0000
0000
1000
1100
0000
,
0001
0000
0000
1000
0010
0000
0000
0000
0100
0000
0100
0000
0101
0000
0001
1000
,
0100
0000
0110
0000
0000
0001
1001
0000
,
1000
0000
0000
0000
1010
0000
0010
0000
0000
0000
0100
0000
0101
0000
0000
0001
,
1000
0000
1100
0000
0000
0001
0101
0000
,
1000
0000
0000
0000
0000
0000
0000
0000
0000
0100
0000
0000
0010
0000
0000
0000
0000
0000
0000
0000
0000
0000
0000
0000
0001
0000
0000
0000
0010
0000
0000
0000
0100
0000
0000
0000
1000
0000
0000
0000
0010
0000
0000
0000
0100
0000
0000
0000
,
0001
1000
0100
0010
0100
1000
0001
0100
0010
0100
0001
1000
0100
0010
0001
0000
,
1000
0010
0100
0010
1000
0001
0010
0100
1000
0001
0100
0010
0100
0001
1000
0000
,
0001
0010
0100
1000
0001
0100
0010
0100
0001
1000
0100
0010
0001
1000
0010
0000
,
0100
0001
1000
0100
0010
0100
1000
0001
0100
0010
1000
0001
0010
0100
1000
0000
,
0001
0100
0010
0100
0001
1000
0100
0010
0100
1000
0001
0100
0010
1000
0001
0000
,
1000
0100
0010
0001
1000
0010
0100
0010
1000
0001
0010
0100
1000
0001
0100
0000
,
0010
1000
0001
0010
0100
0010
0001
0100
0010
1000
0001
0010
0100
1000
0010
0000
,
1000
0010
0100
0001
0010
0100
1000
0001
0100
0010
1000
0001
0010
0100
0010
0001
,
1000
0000
0000
0100
0010
0100
0100
0010
,
0000
0000
0001
1000
0001
0000
1000
0000
0001
0010
0100
1000
0001
0100
0010
1000
,
0001
1000
0001
0100
0010
0100
1000
0200
,
0000
0000
0000
0000
0301
0000
1000
0100
0010
0100
1000
0000
0001
0000
0000
0000
,
1000
0100
0010
0001
1000
0010
0001
0020
,
0100
0000
0000
0000
1030
0000
0001
0010
0100
1000
0001
0000
1000
0000
0010
0100
,
0001
0100
0001
0020
0000
0031
1000
0010
,
1000
0100
0010
0001
1000
0000
0020
0000
0000
0000
0130
0000
0001
0000
1000
0000
,
0200
0000
0000
0000
0000
0000
0310
0001
2000
0000
0000
0000
3020
0000
0000
0000
,
0230
0000
0302
0000
1003
0100
1000
0001
,
0100
0010
1000
0100
0010
0100
0001
0200
,
0000
0000
0000
0000
1300
0000
0001
0100
0010
0100
0001
0000
1000
0000
0000
0000
,
0100
0010
0001
1000
0001
0100
1000
0200
,
0010
0000
0000
0000
0301
0000
1000
0100
0010
0100
1000
0000
0001
0000
1000
0100
,
0010
0100
0010
0002
0000
1003
0010
1000
,
0001
0010
0100
1000
0001
0000
0200
0000
0000
0000
0310
0000
1000
0000
0001
0000
,
0020
0000
0000
0000
0000
0000
0130
1000
0002
0000
0000
0000
0203
0000
0000
0000
,
0320
0000
0000
2030
0000
0000
3001
0010
0100
1000
0010
0100
,
0001
0000
0100
0010
,
1000
0001
0010
0000
0100
0000
1000
0000
,
0001
0000
0100
0010
,
0100
0000
0001
0010
1000
0000
0010
0000
,
0001
0000
1000
0010
,
0100
0001
1000
0000
0100
0000
0010
0000
,
0001
0000
1000
0100
,
0010
0000
0001
0100
1000
0000
0100
0000
,
0002
0000
0100
0010
,
0010
0000
1000
0100
,
2003
0000
0010
0100
,
0100
0000
0010
0100
,
3002
0000
0010
1000
,
1003
0001
0010
0000
0100
0000
1000
0000
,
0001
0000
0100
0010
1000
0010
0100
0001
,
1000
0000
0000
0000
0100
0000
0000
0000
0010
0001
0010
0100
1000
0000
0000
0000
,
1001
0000
0001
0011
0000
0000
0010
0000
,
0000
0001
0000
1000
0000
0010
1010
0000
,
1001
0000
1001
0000
0000
0000
0011
0000
0000
0000
0000
0000
0010
0100
1000
0000
,
0001
0000
0100
0000
0000
0000
0100
0000
0000
0000
0010
0000
1000
0001
0010
0100
,
1000
0000
0000
0000
1001
0000
0000
0000
0001
0000
0000
1000
0010
0000
1010
0000
,
0000
1000
0001
0000
0010
0100
0000
1000
0001
0000
1001
0000
1000
0000
0001
0000
,
0100
0010
1000
0001
0010
0100
0010
0001
1000
0010
0100
0001
0010
0100
1000
0001
,
0100
0010
1000
0001
0010
0100
1000
0001
0100
0010
1000
0001
0010
0001
1000
0010
,
2000
0000
0000
0000
0000
0000
3020
0000
2030
0000
0000
0000
3001
0010
0100
1000
,
0001
0100
0010
0100
0001
1000
0100
0010
0100
1000
0001
0100
0010
1000
0001
0010
,
0100
1000
0100
0010
0001
1000
0010
0100
0001
0000
0000
1000
0000
0000
0010
0000
,
0002
0000
0000
0023
0000
0000
0230
0000
,
0301
1000
0100
0010
0100
1000
0001
1000
0010
0100
0010
1000
0001
1000
0100
0010
,
0100
1000
0001
1000
0010
0100
0001
0100
0010
1000
0100
0010
0001
1000
0020
0000
,
0000
0130
0001
1000
0100
0000
0010
0000
0001
0000
0100
0000
0010
0000
1000
0000
,
0001
0100
0010
0100
0001
1000
0100
0010
0001
0100
0001
1000
0020
0000
0000
0000
,
1030
0100
0010
0001
0100
0000
0010
1000
0000
0001
0010
0000
0001
0100
0000
0010
,
1000
0000
0001
0010
0000
0000
1000
0010
0100
1000
0001
0100
0010
1000
0010
0100
,
2000
0000
0000
0000
0000
0000
3100
0010
2000
0000
0000
0000
3002
0000
0000
0000
,
0013
0100
1000
0100
0010
0001
1000
0010
0100
0001
1000
0100
0010
0100
1000
0001
,
0100
0001
0010
0100
0001
0100
0010
0001
1000
0010
0001
0010
0100
0001
1000
0100
,
0010
0001
0100
0010
1000
0001
0010
0100
1000
0000
0001
0100
0010
0100
0001
1000
,
0100
0000
0010
0001
0000
1000
0010
0000
0100
0001
0000
1000
0100
0010
0001
1000
,
0020
0000
0000
0000
0000
0000
0000
0000
1030
0001
0010
0100
1000
0010
1000
0001
,
0010
0100
0010
0001
1000
0010
0100
0001
0100
0010
1000
0001
0010
0100
1000
0001
,
0100
0010
0100
0001
1000
0100
0010
0001
0010
0100
1000
0001
0100
0010
0100
0001
,
1000
0000
0000
0100
0000
0000
0010
0000
0001
0000
0100
0000
0010
0000
1000
0000
,
0001
1000
0100
1000
0001
0000
0010
0000
0001
1000
0010
0100
0001
0000
0010
0000
,
0001
0000
0000
0000
1000
0000
0000
0000
0100
0000
0000
0000
1000
0000
0000
0000
0001
0000
0000
0000
0100
0000
0000
0000
0001
0000
0000
1000
0000
0000
0100
0000
0000
0010
0000
0000
0001
0000
0000
0100
0000
0000
0001
0000
0000
1000
0000
0000
,
0100
0010
0100
1000
0001
0100
0010
0100
0001
1000
0100
0010
0001
0100
0001
1000
,
0200
0000
0000
0000
,
0320
0000
0000
0032
0000
0000
0203
0000
,
0301
1000
0010
0100
0010
1000
0001
0010
0100
0010
0001
1000
0010
0100
0001
0000
,
1000
0100
0010
0100
1000
0001
0100
0010
1000
0001
0010
0100
0010
0001
1000
0000
,
0001
0100
0010
1000
0001
0010
0100
0010
0001
1000
0010
0100
0001
1000
0100
0000
,
0010
0001
1000
0010
0100
0010
1000
0001
0010
0100
1000
0001
0100
0010
1000
0000
,
0001
0010
0100
0010
0001
1000
0010
0100
0010
1000
0001
0010
0100
1000
0001
0000
,
1000
0010
0100
0001
1000
0100
0010
0100
1000
0001
0100
0010
1000
0001
0010
0000
,
0100
1000
0001
0100
0010
0100
0001
0010
0100
1000
0001
0100
0010
1000
0100
0000
,
1000
0100
0010
0001
0100
0010
1000
0001
0010
0100
1000
0001
0100
0010
0100
0001
,
1000
0001
0010
0100
0010
0001
1000
0010
0100
0010
1000
0001
0010
0100
1000
0001
,
0100
0010
1000
0001
0010
0100
1000
0001
0100
0001
1000
0100
0010
0100
1000
0001
,
0100
0010
1000
0100
0010
0001
1000
0010
0100
0001
1000
0100
0010
0001
0100
0001
,
1000
0100
0010
0100
1000
0001
0100
0010
1000
0100
0010
0001
1000
0010
0100
0001
,
1000
0000
0001
0000
1000
0000
0001
0000
0010
0000
0100
1000
0010
0000
0100
0000
,
0001
1000
0100
0000
0010
0001
1000
0001
0100
0010
1000
0000
0001
0000
1000
0000
,
0100
0010
0001
1000
0010
0100
0010
1000
0001
0010
0100
1000
0010
0100
0001
1000
,
0100
0010
0001
1000
0010
0100
0001
1000
0100
0010
0001
1000
0010
1000
0001
0010
,
0002
0000
0000
2003
,
0000
0000
3200
0000
,
0000
0320
0000
0000
,
0032
0000
0000
0203
,
0000
0000
0320
0000
,
0000
0000
0000
0000
2030
0000
0000
0000
0000
0000
0000
0000
0000
0000
0000
3000
;
