#VERSION:0.83;
#TITLE:GRAVITON;
#SUBTITLE:;
#ARTIST:BEMANI Sound Team "L.E.D.";
#TITLETRANSLIT:;
#SUBTITLETRANSLIT:;
#ARTISTTRANSLIT:L.E.D.;
#GENRE:NEUROFUNK;
#CREDIT:;
#MUSIC:GRAVITON.ogg;
#BANNER:GRAVITON.png;
#BACKGROUND:GRAVITON-bg.png;
#CDTITLE:../_YSD cdtitles/ysd tEYEcoon cdtitle.png;
#SAMPLESTART:93.581;
#SAMPLELENGTH:20.757;
#SELECTABLE:YES;
#OFFSET:-0.178;
#BPMS:0.000=185.000
,60.000=92.500
,62.000=185.000
,184.000=92.500
,186.000=185.000
,292.500=92.500
,292.750=185.000
,293.000=370.000
,293.500=185.000
;
#STOPS:94.000=0.162
,109.500=0.162
,157.000=0.162
,172.500=0.162
,186.000=0.162
,217.500=0.162
,233.000=0.162
,260.500=0.811
,274.000=0.486
,308.500=0.162
;
#SPEEDS:0.000=1.000=0.000=0;
#SCROLLS:0.000=1.000;
#TICKCOUNTS:0.000=4;
#TIMESIGNATURES:0.000=4=4,
60.000=2=4,
62.000=4=4,
94.000=7=8,
97.500=4=4,
109.500=7=8,
113.000=4=4,
157.000=7=8,
160.500=4=4,
172.500=7=8,
176.000=4=4,
184.000=2=4,
186.000=7=8,
189.500=4=4,
217.500=7=8,
221.000=4=4,
233.000=7=8,
236.500=4=4,
260.500=3=8,
262.000=4=4,
274.000=5=8,
276.500=4=4,
308.500=7=8,
312.000=4=4
;
#LABELS:0.000=Song Start;
#COMBOS:0.000=1;
#DISPLAYBPM:92.500:185.000;
#ORIGIN:beatmania IIDX INFINITAS (2020);
#TAGS:;
#PREVIEWVID:;
#JACKET:GRAVITON-jacket.png;
#CDIMAGE:;
#DISCIMAGE:;
#BGCHANGES:;
#FGCHANGES:;

//--------------- dance-single - ----------------
#NOTEDATA:;
#STEPSTYPE:dance-single;
#DESCRIPTION:;
#DIFFICULTY:Beginner;
#METER:5;
#RADARVALUES:0.206448,0.351078,0.163292,0.081646,0,177,157,20,10,0,0,0,0,0,0.206448,0.351078,0.163292,0.081646,0,177,157,20,10,0,0,0,0,0;
#DISPLAYBPM:92.500:185.000;
#CHARTNAME:;
#CHARTHASH:2500867460;
#BANNER:;
#CHARTSTYLE:;
#METERF:0.000000;
#LASTSECONDHINT:115.162865;
#CREDIT:YOSEFU;
#NOTES:
0000
0000
0000
0000
,
0000
0000
0000
0000
,
0000
0000
0000
0000
,
0000
0000
0000
0000
,
0000
0000
0000
0000
,
0000
0000
0000
0000
,
0000
0000
0000
0000
,
0000
0000
0000
0000
,
1000
0000
0001
0000
,
1000
0000
0001
0000
,
0100
0000
0010
0000
,
0100
0000
0010
0000
,
1000
0000
0001
0000
,
1000
0000
0001
0000
,
0100
0000
0010
0000
,
0200
0000
0300
0100
,
0000
0100
0000
0001
,
0000
0001
0000
1000
,
0000
1000
0000
0100
,
0000
0100
0000
0010
,
0000
0010
0000
0001
,
0000
0001
0000
0100
,
0000
0100
0100
0000
,
0200
0000
0300
0000
,
0000
0001
0000
0000
0000
1000
0000
0000
,
0000
1000
0000
0000
0000
0100
0000
0000
,
0000
0100
0000
0000
0000
0010
0000
0000
,
0000
0020
0000
0030
0000
0000
0000
0000
,
0001
0000
0100
0000
,
0100
0000
0010
0000
,
0010
0010
0000
2000
,
3000
1001
0000
0001
,
0000
1000
0000
0001
,
0000
0010
0000
0100
,
0000
0010
0000
0100
,
0000
1000
0000
0001
,
0000
1000
0000
0001
,
0000
0100
0000
0010
,
0000
0000
1000
0000
0000
1000
0000
0000
,
2000
0000
3000
0000
0000
1000
0000
0000
,
0000
0001
0000
0000
0000
1000
0000
0000
,
0000
0010
0000
0000
0000
0100
0000
0000
,
0000
0010
0000
0000
0000
0100
0000
0200
,
0000
0300
0000
0000
0000
0000
1000
0000
,
0000
0001
0000
1000
,
1000
0000
0000
0000
0000
0001
0000
0000
,
1001
0000
0000
0000
,
1000
0000
0000
1000
0000
0000
1000
0000
,
0000
1000
0000
0000
0000
0001
0000
0000
,
0001
0000
0000
0001
0000
0000
0001
0000
,
0000
0001
0000
0000
0000
0100
0000
0000
,
0100
0000
0000
0100
0000
0000
0100
0000
,
0000
0100
0000
0000
0000
0010
0000
0000
,
0010
0000
0000
0010
0000
0000
0010
0000
,
0000
0020
0000
0030
0000
0000
0000
0000
,
1000
0000
0001
0000
,
1000
0000
0100
0000
,
0010
0000
0100
0000
,
2000
0000
3000
0000
0000
1000
0000
0000
,
0000
1001
0000
0000
0000
0100
0000
0000
,
0000
0110
0000
0000
0000
0001
0000
0000
,
0000
1001
0000
0000
0000
0010
0000
0000
,
0000
1001
0000
0000
0000
0000
0000
0000
,
1000
0000
0000
0000
2000
0000
0000
3000
,
0000
1000
0000
1000
0000
0000
0000
0000
,
0000
1001
0000
0000
0110
0000
0000
0000
,
0010
0000
1001
0000
,
0010
0000
0110
0000
,
1001
0000
0110
0000
,
0000
1001
0000
0000
0000
1000
0000
0000
,
0000
0001
0000
0000
0000
1000
0000
0000
,
0000
0010
0000
0000
0000
0100
0000
0000
,
0000
0010
0000
0000
0000
0100
0000
0000
,
0000
0002
0000
0003
0000
0000
0000
0001
,
0000
0000
0000
0100
0000
0000
0000
0001
,
0000
0000
0000
1000
0000
0000
0000
0001
,
0000
0001
0000
0001
0000
1000
0000
1000
,
0000
1001
0000
0001
,
0000
1000
0000
0100
,
0000
0010
0000
0001
,
0000
1000
0000
0001
,
0001
0000
0100
0000
,
0110
0000
0010
0000
,
1001
0000
0110
0000
,
1001
0000
0000
0110
,
0110
0000
0000
0000
;

//--------------- dance-single - ----------------
#NOTEDATA:;
#STEPSTYPE:dance-single;
#DESCRIPTION:;
#DIFFICULTY:Easy;
#METER:10;
#RADARVALUES:0.442055,0.526617,0.334749,0.122469,0.048988,379,338,41,15,0,0,0,0,0,0.442055,0.526617,0.334749,0.122469,0.048988,379,338,41,15,0,0,0,0,0;
#DISPLAYBPM:92.500:185.000;
#CHARTNAME:;
#CHARTHASH:2912640650;
#BANNER:;
#CHARTSTYLE:;
#METERF:0.000000;
#LASTSECONDHINT:115.162865;
#CREDIT:Yosefu as ''gravitywell'';
#NOTES:
0000
0000
0000
0000
,
0000
0000
0000
0000
,
0000
0000
0000
0000
,
0000
0000
0000
0000
,
0000
0000
0000
0000
,
0000
0000
0000
0000
,
0000
0000
0000
0000
,
0000
0000
0000
0000
,
1000
0100
0010
0100
,
1000
0001
0100
0001
,
1000
0100
0010
0001
,
0100
0010
1000
0001
,
0010
0001
1000
0010
,
0100
0010
1000
0100
,
0001
0000
0100
0000
1000
0001
1000
0001
,
2000
0000
3001
0101
,
0000
1001
1000
1100
,
0000
0110
0001
0101
,
0000
1001
1000
1010
,
0000
0001
0101
0100
,
0000
0101
0001
0011
,
0000
0110
0100
1100
,
0000
0000
1001
0000
1000
0010
0000
1000
,
0001
0000
0000
0000
0100
0000
0000
0000
0020
0030
1000
0000
0000
0000
0000
0000
,
0000
1001
0000
0001
0000
0011
0000
0000
,
0000
0110
0000
0100
0000
1100
0000
0000
,
0000
0011
0000
0100
0000
0110
0000
0000
,
0000
0000
1001
0000
0000
0000
0002
0003
1000
0000
0000
0000
0000
0000
0000
0000
,
1100
1000
1001
0000
,
0001
1000
1100
0000
,
1001
0000
0110
0000
1001
0000
0001
0100
,
0001
1000
0100
0001
,
0100
0010
0001
1000
,
0010
0100
0001
0000
1000
0000
0100
0000
,
0001
0100
0010
0001
,
1000
0010
1000
0000
0001
0000
0100
0000
,
1000
0100
0010
1000
,
0001
0010
0001
0000
1000
0000
0100
0000
,
0010
0000
0000
0000
0001
0000
0000
0001
0000
0000
1000
0000
0000
1000
0000
0000
,
0001
0000
0000
0000
0200
0300
0010
0000
0000
0000
1000
0000
0000
0000
0001
0000
,
0000
0010
0000
1000
0000
0010
0000
0100
,
1000
0001
0000
0100
0000
0010
0000
1000
,
0000
0100
0000
0001
0000
0100
0000
0010
,
0001
0000
2000
3000
0001
0000
0000
0000
0100
0000
0000
0000
0010
0000
0000
0000
,
1000
0000
0100
0000
0001
0000
0100
0010
,
0001
0000
1000
0000
0010
0100
0000
0001
,
2000
0000
0000
0000
0000
0000
0000
0000
3200
0300
0010
0000
0000
0000
0001
0000
,
1000
0000
0001
0100
0000
0001
1000
0000
,
0001
0010
0000
0100
0000
1000
0000
0001
,
0100
0000
0001
0010
0000
0001
1000
0000
,
0001
0100
0000
0001
0000
1000
0000
0100
,
1000
0000
0100
0010
0000
0100
1000
0000
,
0100
0010
0000
0001
0000
1000
0000
0001
,
0100
0000
0010
1000
0000
0001
0010
0000
,
0100
0000
1000
0000
0000
0000
0002
0003
1000
0000
0000
0000
0010
0000
0100
0000
,
0001
0000
1000
0000
0100
0000
1000
0001
,
0100
0000
0001
0000
1000
0000
0100
0010
,
0001
0000
1000
0000
0001
0000
0100
0001
,
1000
0000
0000
0000
0200
0300
0010
0000
0000
0000
0001
0000
1000
0000
0010
0000
,
0000
0110
0000
0100
0000
0001
1000
0100
,
0000
0110
0000
0010
0000
0001
1000
0010
,
0000
0001
0010
0100
0000
0001
1000
0100
,
0000
2002
0000
0000
0000
0000
0000
0000
,
0000
0000
0000
0000
0000
0000
0000
3003
,
0000
0100
0000
1001
0000
0000
0001
0000
,
1000
0000
0020
0030
0001
0000
0010
0000
1000
0000
0000
0000
0100
0000
0000
0000
,
0010
0001
0010
0001
0010
0000
0100
0000
,
1000
0001
1000
0001
0100
0000
0010
0000
,
1000
0000
0001
0000
0100
0000
0001
0000
0020
0030
1000
0000
0010
0000
0001
0000
,
1000
0010
0000
0110
0000
0000
0100
0001
,
0000
1000
0000
1100
0000
0000
0100
1000
,
0000
0001
0000
0101
0000
0000
0100
0010
,
0000
1000
0000
0001
1000
0000
0001
1000
,
0000
0020
0000
0130
0000
0000
0001
1000
,
0000
0100
0000
0110
0000
0000
0010
0001
,
0000
1000
0000
1010
0000
0000
0010
1000
,
0000
0001
0010
0001
0000
1000
0010
1000
,
0010
0000
0200
0300
0001
0000
0000
0000
0000
0000
1000
0000
0100
0000
0000
0000
,
0010
0000
0011
0000
0000
0001
1000
0000
,
0010
0000
0110
0000
0000
0100
0001
0000
,
1000
0000
0100
0010
0000
0001
1000
0000
,
1010
0000
0010
0000
0000
0100
0001
0000
,
1001
0000
1000
0000
0000
0100
0010
0000
,
0001
0010
0001
0000
1000
0010
1000
0000
,
0001
0010
0001
0010
0100
0000
1001
0000
,
0110
0000
0000
0000
;

//--------------- dance-single - ----------------
#NOTEDATA:;
#STEPSTYPE:dance-single;
#DESCRIPTION:;
#DIFFICULTY:Medium;
#METER:13;
#RADARVALUES:0.583186,0.702155,0.367407,0.114304,0.061234,500,455,45,14,0,0,0,0,0,0.583186,0.702155,0.367407,0.114304,0.061234,500,455,45,14,0,0,0,0,0;
#DISPLAYBPM:92.500:185.000;
#CHARTNAME:;
#CHARTHASH:258577628;
#BANNER:;
#CHARTSTYLE:;
#METERF:0.000000;
#LASTSECONDHINT:115.162865;
#CREDIT:Yosefu as ''gravitywell'';
#NOTES:
0000
0000
0000
0000
,
0000
0000
0000
0000
,
0000
0000
0000
0000
,
0000
0000
0000
0000
,
0000
0000
0000
0000
,
0000
0000
0000
0000
,
0000
0000
0000
0000
,
0000
0000
0000
0000
,
0000
1000
0001
0000
0010
0001
0000
1000
,
0000
0001
0010
0000
0001
1000
0000
0100
,
0000
0010
0001
0000
1000
0001
0000
0100
,
0000
0001
1000
0000
0100
0010
0000
0001
,
0000
1000
0001
0000
0100
0001
0000
0010
,
0000
0001
1000
0000
0100
0010
0000
0100
,
0000
1000
0001
0000
0100
0010
0000
1000
,
0002
0000
0013
0110
,
0000
0100
1000
0000
0001
0100
0101
0000
,
0000
0001
0010
0000
0100
0000
1100
0000
,
0000
1000
0010
0000
0100
0001
0101
0000
,
0000
0100
0010
1000
0100
0000
1100
0000
,
0000
0100
0010
0000
0001
1000
1010
0000
,
0000
0010
0100
0000
0010
1000
1010
0000
,
0000
0010
0100
0000
0001
0100
1000
0100
,
0001
0000
0010
0000
1000
0000
0010
0000
0002
0003
1000
0000
0000
0000
0000
0000
,
0100
1000
0000
0001
0100
0101
0000
0000
,
0001
0010
0000
0100
0000
1100
0000
0000
,
1000
0010
0000
0100
0001
1001
0000
0000
,
1000
0000
0100
0000
0010
0000
0002
0003
1000
0000
0000
0000
0000
0000
0001
0000
,
0100
0000
0001
0010
0011
0000
0000
0001
,
1000
0000
0010
0000
0110
0000
0000
0100
,
0101
0000
1001
0000
1100
0000
1000
0100
,
0001
0100
1000
0001
0100
0000
0001
1000
,
0000
0100
0000
0010
0100
0000
1000
0001
,
0000
0100
0010
1000
0001
0000
0010
0001
,
0000
1000
0000
0100
0010
0000
0100
1000
,
0000
0001
0000
0100
0010
0000
1000
0001
,
0000
0010
0000
0001
1000
0000
0010
0100
,
0000
0001
0000
0010
0100
1000
0001
0100
,
0000
0000
0001
0000
1000
0000
0000
0100
0000
0000
0001
0000
0000
0100
0000
0000
,
1000
0000
0000
0000
0002
0003
0100
0000
0000
0000
0010
0000
1000
0000
0000
0000
,
0001
0000
0010
0001
0000
1000
0010
0000
,
0100
0000
0001
0010
0100
1000
0001
0000
,
0100
0000
0001
1000
0000
0100
0010
0000
,
0001
0000
2000
3000
0010
0000
0000
0000
0100
0000
0001
0000
0000
0000
1000
0000
,
0000
0100
0010
0000
0100
1000
0000
0010
,
0100
0001
1000
0000
0100
0110
0000
0010
,
0012
0000
0000
0000
0000
0000
0000
0000
2003
3000
0001
0000
0100
0000
0001
0000
,
1000
0100
1000
0001
0010
0001
1000
0010
,
1000
0001
0010
0100
0000
1000
0100
1000
,
0001
0100
0001
1000
0010
1000
0001
0010
,
0001
1000
0010
0110
0000
0100
0001
0010
,
0100
1000
0010
0100
0001
0010
0100
1000
,
0010
0100
0001
1000
0000
0001
0100
1000
,
0100
0001
0010
1000
0010
0001
1000
0010
,
0001
0000
0010
0000
1000
0000
0002
0003
1000
0000
0000
0000
0100
0000
1000
0000
,
0010
0000
0100
0001
1001
0000
1000
0100
,
0010
0000
0001
0000
1001
0000
1000
0010
,
0100
0000
0001
0010
0011
0000
0001
1000
,
0010
0000
0100
0000
0002
0003
1000
0000
0000
0000
0100
0000
0010
0000
0011
0000
,
0000
1001
0000
0101
0000
0100
0010
1010
,
0000
1001
1000
0100
0010
0001
1000
0010
,
0100
0101
0001
0010
0100
1000
0001
0100
,
0001
0102
0000
0000
0000
0000
0000
0000
,
0000
0000
0000
0000
,
0000
1003
0000
1001
0000
0001
0100
0000
,
0001
0000
0020
0030
0001
0100
0001
0000
1000
0000
0100
0000
1000
0000
0000
0000
,
0001
0100
0001
0000
1000
0100
0010
0000
,
0001
0100
0001
0000
1000
0100
0001
0100
,
1000
0000
0001
0000
0100
0000
0010
0000
2000
3000
0001
0100
0001
0000
1000
0000
,
0100
0010
0100
0000
1000
0000
0001
0000
0100
0000
0010
0000
1000
0000
1010
0000
,
0000
0010
0100
0001
0010
0100
1000
1100
,
0000
0001
0100
0001
1000
0100
0010
0011
,
0000
0001
1000
0001
0100
0010
0100
1000
,
0100
0002
0000
0013
0100
1000
0001
0101
,
0000
0100
0010
1000
0100
0010
0001
0011
,
0000
0010
0001
0100
0010
1000
0100
1100
,
0000
1000
0100
0001
0100
0010
0001
1000
,
0010
0000
2000
3000
0001
0000
0000
0000
0010
0000
0100
0000
1100
0000
0000
0000
,
1000
0001
0100
0010
1000
0001
0011
0000
,
0010
0100
1000
0010
0100
0001
0101
0000
,
0100
0010
1000
0100
0001
0100
0010
0001
,
1001
0000
1000
0010
0100
0001
0011
0000
,
1001
0000
1000
0010
0001
0010
0110
0000
,
0101
0001
0010
0100
1100
1000
0001
0100
,
0101
0001
1000
0100
0001
0100
0010
0001
,
0100
0000
0000
0000
;

//--------------- dance-single - ----------------
#NOTEDATA:;
#STEPSTYPE:dance-single;
#DESCRIPTION:;
#DIFFICULTY:Hard;
#METER:15;
#RADARVALUES:0.746478,0.877694,0.416395,0.163292,0.4613,640,589,51,20,0,0,0,0,0,0.746478,0.877694,0.416395,0.163292,0.4613,640,589,51,20,0,0,0,0,0;
#DISPLAYBPM:92.500:185.000;
#CHARTNAME:;
#CHARTHASH:4167199817;
#BANNER:;
#CHARTSTYLE:;
#METERF:0.000000;
#LASTSECONDHINT:115.162865;
#CREDIT:Yosefu as ''gravitywell'';
#NOTES:
0000
0000
0000
0000
,
0000
0000
0000
0000
,
0000
0000
0000
0000
,
0000
0000
0000
0000
,
0000
0000
0000
0000
,
0000
0000
0000
0000
,
0000
0000
0000
0000
,
0000
0000
0000
0000
,
1000
0010
0100
0010
1000
0001
0000
0010
,
0000
0100
1000
0000
0001
0100
0000
0001
,
1000
0100
0010
0100
1000
0001
0000
0100
,
0001
0010
0100
0000
1000
0001
0000
0100
,
0001
1000
0100
0000
0010
0001
1000
0000
,
0010
1000
0001
0000
0010
0100
1000
0000
,
0001
0000
0100
0000
0010
0000
1000
0000
0001
0000
0010
0000
0100
1000
0100
1000
,
0200
0000
0000
0000
0000
0000
0000
0000
0310
0000
0000
0000
0011
0000
0000
0001
,
1000
0000
0010
0000
0100
0000
0000
0000
0001
0000
0001
0000
0101
0000
0000
0100
,
0001
0000
1000
0000
0100
0000
0000
0000
0010
0000
0000
0000
0011
0000
0000
0001
,
1000
0000
0010
0000
0100
0000
0000
0000
0001
0000
0001
0000
1001
0000
0000
1000
,
0100
0000
0010
0000
0011
0000
0000
0001
1000
0000
0000
0000
1010
0000
0000
0010
,
0100
0000
0001
0000
1000
0000
0000
0000
0100
0000
0100
0000
0110
0000
0000
0010
,
0001
0000
1000
0000
0010
0000
0000
0000
0100
0000
0100
0000
0101
0000
0000
0001
,
1000
0000
0100
0000
0010
0000
0000
0100
1000
0000
0001
0100
0001
0000
1000
0000
,
0001
0100
0001
0000
1000
0100
1000
0000
0002
0003
1000
0000
0000
0001
0100
0000
,
0010
0000
1010
0000
0000
0000
1000
0000
1000
0000
1100
0000
0000
0100
0010
0000
,
0001
0000
1000
0000
0000
0000
0010
0000
0000
0000
0110
0000
0000
0100
0001
0000
,
1000
0000
0100
0000
0000
0000
0010
0000
0010
0000
0011
0000
0000
0001
1000
0000
,
0010
0000
0110
0000
0000
0100
0002
0003
1000
0000
0000
0100
0010
0000
0001
0000
,
1001
0000
0000
0000
1000
0000
1000
0000
1010
0000
0000
0010
0100
0000
0001
0000
,
1000
0000
0000
0000
0100
0000
0000
0000
0110
0000
0000
0010
0100
0000
1000
0000
,
1001
0000
0000
0000
0110
0000
0000
0000
1001
0000
0000
0000
0001
0100
0001
0000
,
1000
0100
1000
0000
0001
0000
0100
0000
0010
0000
0100
0000
0001
0000
1000
0000
,
0000
0100
0000
0010
0001
0000
1000
0010
,
0000
0100
0001
1000
0100
0010
0100
1000
,
0000
0001
0100
0010
1000
0000
0100
0010
,
0000
0001
1000
0100
0010
0100
1000
0001
,
0000
0100
0000
0010
1000
0000
0001
0010
,
0000
0100
0000
0010
0001
1000
0010
0100
,
0000
0000
0001
0000
0100
0000
0000
1001
0000
0000
0010
0000
0000
1001
0000
0000
,
1000
0001
1000
0000
0200
0300
0010
0000
0000
0000
0001
0000
1000
0000
0010
0000
,
0000
0100
0100
0101
0000
0001
0010
0000
,
0100
1000
0001
0100
0010
0100
0001
0000
,
1000
0100
0010
0001
0000
0100
0010
1010
,
0000
1000
0002
0003
0010
0000
0000
0000
0001
0000
1000
0000
1010
0000
0000
0000
,
0010
0000
0010
0000
0110
0000
0000
0100
0001
0000
1000
0000
1100
0000
0000
0100
,
0010
0000
0010
0000
0011
0000
0000
0000
0001
0000
1001
0000
1000
0010
1000
0000
,
0002
0000
0000
0000
0000
0000
0000
0000
0023
0030
0100
0000
1000
0001
1000
0000
,
0001
0000
0100
0001
0100
0000
0001
0000
1000
0100
1000
0000
0001
0000
0010
0100
,
0010
0000
0001
0000
1000
0000
0010
0000
0000
0000
0100
0000
0001
1000
0001
0000
,
0010
0000
0100
1000
0100
0000
0010
0000
0001
1000
0001
0000
0100
0000
0010
1000
,
0010
0000
0100
0000
0001
1000
0001
0000
0000
0000
0010
0000
0001
1000
0001
0000
,
0100
0000
0001
1000
0001
0000
0010
0000
0100
1000
0100
0000
0010
0000
0001
0100
,
0001
0000
0010
0000
0100
1000
0100
0000
0000
0000
0010
0000
0001
0100
0001
0000
,
1000
0000
0100
1000
0100
0000
0010
0000
0001
0100
0001
0000
1000
0000
0100
1000
,
0100
0000
0010
0000
0001
0000
2000
3000
0010
0000
0100
0001
0000
1000
0100
0000
,
0010
0000
0000
0000
0001
0000
1000
0000
0010
0000
1000
0001
0000
0100
0001
0000
,
1000
0000
0200
0000
0310
0000
0000
0001
1000
0000
0001
0100
0000
0001
1000
0000
,
0100
0000
0000
0000
0010
0000
0000
0001
1000
0000
0010
0100
0000
0001
1000
0000
,
1200
0000
0000
0000
0000
0300
1001
0000
1000
0001
0000
0100
0001
0000
1000
0000
,
0200
0000
0310
0000
0000
0001
1000
0000
0001
0100
0000
0001
0010
0000
0100
0000
,
1000
0000
1001
0000
0001
0100
0001
0000
1000
0000
0001
0010
0001
0000
1000
0000
,
0010
0000
0100
0001
0100
0000
0001
0000
1000
0000
0100
0010
0100
0000
1000
0001
,
1000
0001
1000
0000
0000
0000
1010
0000
0000
0010
1000
0000
0001
0000
0000
0000
,
0101
0000
0100
1001
0000
0002
0000
0023
,
0000
0000
0031
0000
0000
0000
0101
0000
0000
0100
0001
0000
1000
0000
0000
0000
,
1100
0000
0200
0300
1000
0001
0100
0010
1000
0000
0001
0000
1000
0000
0001
0000
,
0100
0010
0100
0010
1000
0001
1000
0001
,
1000
0100
1000
0100
0010
0001
0100
0010
,
1000
0001
1000
0001
1000
0001
1000
0001
2000
3000
0001
0010
0001
0010
0100
1000
,
0100
1000
0001
0000
0100
0000
0001
0000
0000
1000
0100
0000
0010
0000
0001
0000
,
0000
0000
1000
0000
1000
0000
1010
0000
0000
0010
0100
0000
0001
0000
1000
0000
,
0100
0000
0010
0000
0010
0000
0011
0000
0000
0001
1000
0000
0010
0000
0100
0000
,
0020
1030
1000
1001
0001
0000
0010
0011
,
0000
0001
2000
0000
0000
0000
3010
0000
0000
0000
0000
0000
0100
0000
0101
0000
,
0000
0000
0001
0000
0001
0000
0011
0000
0000
0010
0100
0000
1000
0000
0001
0000
,
0000
0100
0001
0000
0000
1000
0100
0000
0000
0010
0001
0000
0100
0000
0010
0000
,
2000
0000
3001
0100
0001
0100
0001
0000
1000
0000
0001
0010
0001
0010
0001
0000
,
1000
0000
0200
0300
0010
0000
0000
0001
1000
0000
0010
0000
1010
0000
0000
0000
,
1000
0000
1000
0000
1100
0000
0000
0100
0010
0000
0001
0000
1000
0000
0000
0001
,
0100
0000
0100
0000
0110
0000
0000
0010
1000
0000
0001
0000
0010
0000
0200
0000
,
1300
0000
1000
0000
1010
0000
0010
0000
0000
0000
0100
0000
1001
0000
0000
0001
,
0010
0010
0011
0000
0001
1000
1010
0000
,
0010
0010
0110
0000
0100
0001
1001
1000
,
0001
0010
0100
0001
0100
0010
0001
1000
,
0001
0000
0100
0000
1000
0000
0100
0000
0001
1000
0001
1000
0100
0010
0100
0010
,
0001
0000
0000
0000
;

//--------------- dance-single - ----------------
#NOTEDATA:;
#STEPSTYPE:dance-single;
#DESCRIPTION:;
#DIFFICULTY:Challenge;
#METER:17;
#RADARVALUES:0.942428,1.053233,0.449053,0.163292,0.86953,808,753,55,20,0,0,0,0,0,0.942428,1.053233,0.449053,0.163292,0.86953,808,753,55,20,0,0,0,0,0;
#DISPLAYBPM:92.500:185.000;
#CHARTNAME:;
#CHARTHASH:3806564882;
#BANNER:;
#CHARTSTYLE:;
#METERF:0.000000;
#LASTSECONDHINT:115.162865;
#CREDIT:Yosefu as ''gravitywell'';
#NOTES:
0000
0000
0000
0000
,
0000
0000
0000
0000
,
0000
0000
0000
0000
,
0000
0000
0000
0000
,
0000
0000
0000
0000
,
0000
0000
0000
0000
,
0000
0000
0000
0000
,
0000
0000
0000
0000
,
1000
0010
0001
0010
0100
0001
0000
1000
,
0001
0010
0100
1000
0001
0100
0010
0000
,
1000
0100
0001
0100
0010
0001
0000
1000
,
0010
0100
0001
0010
0100
1000
0000
0001
,
0100
0010
0001
0010
1000
0001
0000
0010
,
0100
1000
0001
0100
0010
1000
0000
0001
,
1000
0000
0010
0000
0100
0000
0001
0000
0010
0100
0010
0100
1000
0001
1000
0001
,
0100
0000
0010
0000
1000
0001
0000
0100
0001
0000
0000
0000
1001
0000
0000
1000
,
0100
1000
0001
0000
0100
0000
0000
0000
0001
0000
0001
0000
1001
0000
0000
1000
,
0001
0100
0001
0000
1000
0000
0000
0000
0100
0000
0000
0000
0110
0000
0000
0010
,
0001
0010
0100
0000
1000
0000
0000
0000
0001
0000
0001
0000
0101
0000
0000
0100
,
0001
1000
0001
0000
0100
0000
0010
1000
0100
0000
0000
0000
1100
0000
0000
1000
,
0001
0100
0001
0000
1000
0000
0000
0000
0100
0000
0100
0000
0110
0000
0000
0010
,
0001
1000
0010
0000
0100
0000
0000
0000
0001
0000
0001
0000
1001
0000
0000
1000
,
0100
0010
0001
0000
0100
0000
0010
1000
0001
0000
1000
0100
1000
0100
0010
0000
,
0001
0010
0001
0010
0100
1000
0010
0000
0200
0300
1001
0000
0000
0001
1000
0001
,
0010
0000
0100
0000
0000
0000
1000
0000
1000
0000
1001
0000
0000
0001
0010
0001
,
1000
0000
0010
0000
0000
0000
0100
0000
0000
0000
1001
0000
0000
0001
0010
0100
,
1000
0000
0001
0000
0000
0000
0100
0000
0100
0000
0110
0000
0000
0010
1000
0001
,
1000
0000
0100
0000
0010
0001
0200
0300
1001
0000
0000
0001
0010
0100
1000
0000
,
0010
0000
0000
0000
1000
0000
1000
0000
1100
0000
0000
0100
1000
0001
0100
0000
,
0010
0000
0000
0000
1000
0000
0000
0000
0101
0000
0000
0001
1000
0100
0010
0000
,
0001
0000
0000
0000
1010
0000
0000
0000
1001
0000
0000
0000
0001
0100
0001
0100
,
0010
1000
0100
0010
0001
0000
0100
0000
1000
0000
0100
0000
0010
0000
1000
0000
,
0001
0010
0000
0100
1100
1000
0001
0100
,
0010
0000
1000
0001
0010
0000
0100
0000
0001
0000
0100
0000
1000
0000
0001
0000
,
0100
0010
0000
1000
1010
0010
0100
0001
,
0010
0000
0100
1000
0001
0000
0100
0000
1000
0000
0100
0000
0010
0000
1000
0000
,
0001
0010
0000
0100
1100
1000
0010
0100
,
0001
0000
1000
0100
0010
0000
0100
0000
0001
0000
0100
0000
1000
0000
0001
0000
,
0100
0000
0010
0000
1000
0000
0000
0110
0000
0000
0001
0000
0000
0110
0000
0000
,
1000
0100
0010
0001
0200
0300
1001
0000
0000
0000
0001
0000
0100
0000
0101
0000
,
0000
0001
0001
1001
1000
0100
0010
0001
,
1000
0010
0100
0000
0100
0000
0101
0000
0001
0000
0010
0000
0100
0000
1100
0000
,
0000
1000
1000
1010
0010
0100
0001
0010
,
0100
0000
2000
3000
0011
0000
0000
0000
0001
0000
1000
0000
1010
0000
0000
0000
,
0010
0000
0010
0000
0110
0000
0000
0100
0001
1000
0100
0000
0010
0000
0100
1000
,
0010
0000
0010
0000
0110
0000
0000
0100
0001
1000
0100
0000
0010
0001
1000
0000
,
1010
0000
0010
0000
0100
1000
0000
0100
0020
0030
1001
0000
1000
0001
1000
0001
,
0010
0000
0001
1000
0001
1000
0010
0000
1000
0100
1000
0100
0010
0000
0001
0100
,
0001
0100
0010
0000
0100
0001
1000
0000
0100
0000
0010
0000
0001
1000
0001
1000
,
0010
0000
0100
0001
0100
0001
0010
0000
0100
1000
0100
1000
0010
0000
1000
0001
,
1000
0001
0010
0000
0100
0000
1000
0000
0010
0100
0001
0000
1000
0100
1000
0100
,
0010
0000
0001
0100
0001
0100
0010
0000
1000
0100
1000
0100
0010
0000
0001
0100
,
0001
0100
0010
0000
1000
0001
0010
0000
0100
0000
1000
0000
0001
0010
0001
0010
,
0100
0000
1000
0010
1000
0010
0100
0000
0001
0010
0001
0010
0100
0000
1000
0010
,
1000
0010
0100
0000
0001
1000
0200
0300
1001
0000
1000
0100
0010
0100
1000
0000
,
0001
0000
0200
0000
1300
0000
0100
0010
1000
0000
0001
0010
0100
0010
0001
0000
,
1000
0000
0010
0100
0001
0000
0010
0100
1000
0000
0001
0100
0010
0100
0001
0000
,
1000
0000
0200
0000
0301
0000
0100
0010
0001
0000
1000
0010
0100
0010
1000
0000
,
0001
0000
0010
0200
0000
0300
1001
0000
1000
0010
0100
0001
1000
0000
0100
0000
,
0010
0001
0100
0000
0010
1000
0100
0000
0010
0100
1000
0001
0100
0000
0010
0000
,
0100
0001
0010
0000
0100
0010
0001
1000
0010
0000
0100
0001
1000
0100
0010
0000
,
0001
0000
1000
0100
0010
0001
1000
0010
0100
0001
1000
0100
1000
0001
0100
0010
,
1000
0100
0010
0000
0000
0000
0011
0000
0000
0001
1000
0001
0100
0000
0000
0000
,
0101
0000
0001
1001
1000
0200
0000
0301
,
0100
0000
1000
0000
1000
0000
1001
0000
0000
0001
0100
0001
1000
0000
0100
0000
,
0110
0000
0020
0030
0001
0010
1000
0010
0001
0000
0100
0000
1000
0000
0100
0000
,
0010
1000
0100
0010
1000
0010
0001
1000
,
0100
0000
0001
0000
0100
0000
1000
0000
0001
0100
0001
0100
0010
1000
0010
1000
,
0001
0010
0100
1000
0001
0100
0010
1000
0002
0003
1000
0010
0001
0010
1000
0001
,
0010
0100
1000
0000
0001
0000
0101
0000
0000
0100
0001
0010
0100
1000
0001
0000
,
0200
0000
0310
0000
1000
0001
0010
0000
0100
1000
0001
0100
0010
0000
1000
0000
,
0100
0010
0001
0000
0100
0010
1000
0000
0001
0100
0001
0010
0100
1000
0010
0000
,
0200
0000
0301
0000
0001
0000
0011
0000
1001
0000
0000
1000
0010
0100
0001
0000
,
0010
0100
2000
0000
0000
0000
3010
0000
0000
1000
0100
0010
0001
0000
0101
0000
,
0002
0000
0013
0000
0100
1000
0010
0000
0100
0001
1000
0100
0010
0001
0100
0000
,
0010
1000
0001
0000
0010
0100
1000
0000
0000
0001
0100
0010
1000
0000
0100
0000
,
0020
0000
0031
0100
0010
1000
0100
1000
0001
0100
0001
1000
0100
0010
0001
0100
,
0010
1000
0002
0003
1010
0000
0000
0010
1000
0001
0010
0100
1000
0000
0020
0000
,
0130
0000
0001
0010
0100
0000
1000
0010
0100
0001
1000
0000
0100
0000
0010
0001
,
0100
0000
0100
0000
0101
0000
0001
0010
0100
1000
0001
0000
0100
0000
0020
0000
,
1030
0000
1000
0000
1100
0000
1001
0000
0001
0000
0100
0000
0110
0000
0010
1000
,
0001
0000
0001
0000
0011
0000
0010
0100
1000
0001
0100
0000
0101
0000
0001
0000
,
1000
0000
1000
0100
0010
0000
0100
1000
0010
0100
0001
0000
0101
0000
1001
0000
,
1100
0100
0010
0001
1001
1000
0010
0100
,
0001
0100
0001
0100
1000
0100
1000
0100
0001
0100
0010
1000
0100
0010
0001
1000
,
0010
0000
0000
0000
;
