#TITLE:Fundamental;
#SUBTITLE:;
#ARTIST:Bagagee Viphex13;
#TITLETRANSLIT:;
#SUBTITLETRANSLIT:;
#ARTISTTRANSLIT:;
#GENRE:METRONOMIC;
#CREDIT:skeleton made by Ben Speirs;
#BANNER:Fundamental.png;
#BACKGROUND:Fundamental-bg.png;
#LYRICSPATH:;
#CDTITLE:../_YSD cdtitles/ysd sale5 cdtitle.png;
#MUSIC:Fundamental.ogg;
#OFFSET:-0.360000;
#SAMPLESTART:76.908997;
#SAMPLELENGTH:22.069000;
#SELECTABLE:YES;
#BPMS:0.000000=174.000000
,160.000000=348.000000
,416.000000=174.000000
;
#STOPS:
;
#BGCHANGES:0.000=Fundamental.avi=1.000=0=0=0=StretchNoLoop====,
99999=-nosongbg-=1.000=0=0=0 // don't automatically add -songbackground-
;
#KEYSOUNDS:;
#ATTACKS:;

//---------------dance-single - ----------------
#NOTES:
     dance-single:
     :
     Beginner:
     7:
     0.243654,0.397523,0.204314,0.124365,0.000000,192.000000,169.000000,23.000000,14.000000,0.000000,0.000000,0.243654,0.397523,0.204314,0.124365,0.000000,192.000000,169.000000,23.000000,14.000000,0.000000,0.000000:
0000
0000
0000
0000
,
0000
0000
0000
0000
,
0000
0000
0000
0000
,
0000
0000
0000
0000
,
1000
0000
0000
0000
1000
0000
0000
1000
,
0000
0000
0000
0000
,
0001
0000
0000
0000
0001
0000
0000
0001
,
0000
0000
0000
0000
,
0100
0000
0100
0000
,
0010
0000
0010
0000
,
1000
0000
1000
0000
,
0100
0000
0100
0000
,
0010
0000
0010
0000
,
0001
0000
0001
0000
,
0100
0000
0100
0000
,
0020
0000
0030
0000
,
1001
0000
0000
0000
0010
0000
0000
0010
,
0000
0000
0100
0000
,
0001
0000
0000
0000
1000
0000
0000
1000
,
0000
0000
0100
0000
,
0010
0000
0000
0000
0001
0000
0000
0001
,
0000
0000
0100
0000
,
0010
0000
0000
0000
1000
0000
0000
1000
,
0000
0000
1001
0000
,
2002
0000
3003
0000
,
0001
0000
1000
0000
,
0001
0000
0000
0000
0010
0000
0000
0010
,
0000
0000
0100
0000
,
2000
0000
0000
3000
,
0000
1001
0000
0001
,
0001
0000
0100
0000
,
0010
0000
1000
0000
,
0001
0000
0001
0000
,
0100
0000
0100
0000
,
0010
0000
0010
0000
,
1000
0000
1000
0000
,
0001
0000
0010
0000
,
0100
0000
1000
0000
,
0100
0000
0010
0000
,
0002
0000
0003
0000
,
1001
0000
0000
0000
,
1000
0000
0000
0000
,
0010
0000
0000
0000
,
0100
0000
0000
0000
,
0001
0000
0000
0000
,
1000
0000
0000
0000
,
0100
0000
0000
0000
,
0010
0000
0000
0000
,
0001
0000
0000
0000
,
0100
0000
0000
0000
,
0010
0000
0000
0000
,
1000
0000
0000
0000
,
0100
0000
0100
0000
,
0010
0000
0010
0000
,
0110
0000
0110
0000
,
0001
0000
0000
0000
,
1001
0000
0000
0000
,
1000
0000
0000
0000
,
0010
0000
0000
0000
,
0100
0000
0000
0000
,
0001
0000
0001
0000
,
1000
0000
1000
0000
,
0001
0000
0001
0000
,
2000
0000
3000
0000
,
0010
0000
0010
0000
,
0100
0000
0200
0300
,
0001
0000
0001
0000
,
1000
0000
1000
0000
,
0200
0300
0100
0000
,
0010
0000
0020
0000
,
0030
0000
0000
0000
,
0002
0003
0000
0001
,
0001
0000
0000
0000
,
0100
0000
0000
0010
,
0000
0000
0000
0000
,
1000
0000
1000
0000
,
0001
0000
0000
0000
,
1000
0000
0000
0100
,
0000
0000
0000
0000
,
0010
0000
0001
0000
,
1000
0000
1001
0000
,
0010
0000
0100
0000
,
0100
0000
0110
0000
,
0110
0000
0000
0000
,
1001
0000
0000
1001
,
0000
0000
0110
0000
,
0000
0110
0000
0000
,
1000
0000
1000
0000
,
2000
0000
0000
0000
,
0000
0000
3000
0000
,
1000
0000
1001
0000
,
0001
0000
1001
0000
,
0100
0000
0110
0000
,
0000
0000
0110
0000
,
1001
0000
0000
0000
,
0000
0000
2002
3003
,
0000
0000
1000
0000
,
0001
0000
0000
0000
,
0100
0000
0110
0000
,
0010
0000
0110
0000
,
2000
0000
3000
0000
,
1000
0000
1000
0000
,
0001
0000
0100
0000
,
0010
0000
1000
0000
,
0001
0000
0000
0000
1000
0000
0000
1000
,
0000
0000
0000
0000
,
0001
0000
0000
0000
1000
0000
0000
1000
,
0000
0000
0000
0000
,
0010
0000
0000
0000
0100
0000
0000
0100
,
0000
0000
0000
0000
,
0010
0000
0000
0000
0100
0000
0000
0100
,
0000
0000
0000
0000
0000
0000
0000
0100
;

//---------------dance-single - ----------------
#NOTES:
     dance-single:
     :
     Easy:
     12:
     0.392130,0.596285,0.346445,0.568525,0.004442,309.000000,270.000000,39.000000,64.000000,0.000000,0.000000,0.392130,0.596285,0.346445,0.568525,0.004442,309.000000,270.000000,39.000000,64.000000,0.000000,0.000000:
0000
0000
0000
0000
,
0000
0000
0000
0000
,
0000
0000
0000
0000
,
0000
0000
0000
0000
,
2000
0000
3000
0000
2000
3000
0000
2000
,
0000
0000
0000
0000
0000
0000
0000
3000
,
0002
0000
0003
0000
0002
0003
0000
0002
,
0000
0000
0000
0000
0000
0000
0000
0003
,
2000
0000
3000
0000
0020
0030
0000
2000
,
0000
0000
0000
0000
0000
0000
0000
3000
,
0002
0000
0003
0000
0020
0030
0000
0002
,
0000
0000
0000
0000
0000
0000
0000
0003
,
2000
0000
3000
0000
0020
0030
0000
0200
,
0000
0000
0000
0000
0000
0000
0000
0300
,
0002
0000
0003
0000
0020
0000
0030
2000
,
0000
0000
0000
3010
0000
0001
0000
1000
,
0020
0000
0030
0000
0200
0000
0300
0002
,
0000
0000
0000
0013
0000
0100
0000
1000
,
0002
0000
0003
0000
0200
0000
0300
0020
,
0000
0000
0000
1030
0000
0100
0000
0010
,
0002
0000
0003
0000
2000
0000
3000
0020
,
0000
0000
0000
0130
0000
0001
0000
0010
,
0200
0000
0300
0000
2000
0000
3000
0010
,
0100
0101
1010
0101
,
2002
0000
0000
0000
3003
0000
0000
2000
,
0000
0000
0000
3100
0000
0010
0000
0001
,
0200
0000
0300
0000
0020
0000
0030
2000
,
0000
0000
0000
3001
0000
0010
0000
0100
,
2000
0000
0000
0000
0000
0000
0000
0000
3001
0000
0000
0000
0100
0000
0000
0100
,
0000
0010
1000
0000
0001
0000
0010
0000
,
0100
0000
1100
0000
0000
1001
0000
0000
,
0001
0100
1000
0100
,
0010
0100
0001
0100
,
0010
0100
0001
0100
,
0010
1000
0100
1000
,
0001
1000
0001
0000
0100
0000
0010
0000
,
1000
0100
0001
0100
,
1000
0001
0100
1000
,
0100
0001
0100
0010
,
1000
0000
0000
0000
0001
1000
0001
0000
,
0100
0010
0000
1001
,
0000
0001
0000
0101
,
0000
1000
0000
1010
,
0000
0001
0000
0011
,
0000
1000
0000
1010
,
0000
0001
0000
0011
,
0000
1000
0000
0101
,
0000
0001
0000
1100
,
0000
0001
0000
1010
,
0000
0001
0000
1100
,
0000
0010
0000
0101
,
0000
0001
0000
1000
,
0010
0100
0000
0101
,
0000
1010
0000
1000
,
0100
0000
0110
0000
,
0001
1000
0001
0000
,
0100
0010
0000
0100
,
0001
0100
0000
0010
,
1000
0010
0000
0100
,
0001
0000
1000
0000
,
0100
0010
0000
0001
,
1000
0001
0000
0100
,
0010
0100
0000
0101
,
0000
0001
0020
0000
,
0130
1000
0100
1000
,
0100
0000
0020
0000
,
0031
0100
0001
0100
,
0010
0000
0100
0000
,
0002
0000
1003
0010
,
1000
0010
2000
0000
,
3000
0000
0000
0000
,
0200
0000
0000
0310
,
0002
0000
0003
0000
,
0200
0000
0300
0002
,
0000
0000
0000
0013
,
0100
0010
0000
0001
,
2000
0000
3000
0000
,
0020
0000
0030
0100
,
0000
0101
0000
0000
0101
0000
0000
0101
,
0000
0000
1001
0000
,
0002
0000
0003
1000
,
0010
0000
0000
0000
0100
0000
0000
0100
,
0000
0100
0001
0000
,
1001
0000
0000
1001
0000
0000
1001
0000
,
1001
0000
0000
1100
,
0000
0000
0101
0000
,
0000
1010
0000
0000
,
1000
0001
1000
0001
,
2000
0000
0000
0000
,
0000
0000
0000
0000
,
3010
0000
0101
0000
,
0010
0000
1100
0000
,
1000
0000
0011
0000
,
1000
0000
0101
0000
,
1001
0000
1000
0100
,
0020
0000
0032
0000
,
2003
0000
3020
0000
,
0130
0001
1000
0000
,
0100
0000
0110
0000
,
0001
0000
1010
0000
,
1000
0000
0001
0000
,
0100
0010
0100
0000
,
0001
0000
1000
0000
,
0100
0000
0010
0000
,
0002
0000
0003
0000
2000
0000
3000
0020
,
0000
0000
0000
0130
0000
0001
0000
1000
,
0200
0000
0300
0000
0020
0000
0030
0002
,
0000
0000
0000
0103
0000
0010
0000
1000
,
0002
0000
0003
0000
0020
0000
0030
0200
,
0000
0000
0000
0310
0000
0001
0000
1000
,
0002
0000
0003
0000
0200
0000
0300
2000
,
0000
0000
0000
3100
0000
0001
0000
0010
;

//---------------dance-single - ----------------
#NOTES:
     dance-single:
     :
     Medium:
     15:
     0.808372,1.242261,0.293146,0.230963,0.244288,637.000000,604.000000,33.000000,26.000000,0.000000,0.000000,0.808372,1.242261,0.293146,0.230963,0.244288,637.000000,604.000000,33.000000,26.000000,0.000000,0.000000:
0000
0000
0000
0000
,
0000
0000
0000
0000
,
0000
0000
0000
0000
,
0000
0000
0000
0000
,
2000
0000
3000
0000
2000
3000
0000
2000
,
0000
0000
0000
0000
3001
0100
0010
0000
,
2000
0000
3000
0000
2000
3000
0000
1000
,
0100
0010
0001
0100
0010
1000
0001
0010
,
0100
1000
0000
0100
1000
0000
0001
0100
,
0010
1000
0000
0010
1000
0000
0001
0010
,
0100
1000
0100
1000
0001
0100
0001
0100
,
0010
1000
0010
1000
0001
0010
0100
1000
,
0010
0000
0000
0010
0000
0000
0010
0000
0100
0000
0000
0100
0000
0000
0100
0000
,
0001
0000
0000
0001
0000
0000
0001
0000
1000
0000
0000
1000
0000
0000
1000
0000
,
0100
0001
0100
1000
0010
0100
0001
0020
,
0000
0000
0000
0100
0100
0100
0100
0100
,
0031
0000
1001
0000
1000
0010
0110
0100
,
0001
0000
2000
0100
0100
0100
0100
0100
,
3100
0000
0110
0000
0010
0001
1001
1000
,
0010
0000
0200
0001
0001
0001
0001
0001
,
0301
1000
1001
0000
0001
0010
0110
0100
,
0000
0100
2000
0001
0001
0001
0001
0001
,
3001
0100
0101
0001
1000
0100
1100
1000
,
1001
0000
1000
0000
1100
0000
1000
0000
0001
0100
0001
0100
0010
1000
0010
1000
,
0002
0000
0000
0000
0000
0000
1003
0100
1000
0100
0010
0000
0001
0000
1000
0000
,
0010
0000
0100
0000
0201
0000
0001
0000
0001
0000
0001
0000
0001
0000
0301
1000
,
0001
0010
0110
0000
1000
0010
0110
0100
,
0001
0000
0001
0000
1002
0000
1000
0000
1000
0000
1000
0000
1003
0010
1000
0010
,
0200
0000
0000
0000
0000
0000
0301
1000
0001
1000
0100
0000
0010
0000
0010
0001
,
1000
0000
1000
0000
0010
0100
0010
0100
0000
0000
0001
1000
0010
0000
1000
0100
,
0010
0001
0011
1000
0010
1010
1000
0001
,
1000
0100
1000
0000
0001
0010
0001
0000
1000
0010
1000
0000
0001
0100
0001
0000
,
1000
0010
0100
0010
,
1000
0001
0010
0001
,
1000
0100
0010
0100
,
1000
0000
0001
0000
1001
0000
0000
0000
1000
0001
1000
0001
0010
0100
0010
0100
,
1000
0000
0000
1000
0000
0000
1000
0000
0001
0000
0000
0001
0000
0000
0001
0000
,
0100
0000
0000
0100
0000
0000
0100
0000
0010
0000
0000
0010
0000
0000
0010
0000
,
1000
0010
1000
0000
0001
0100
0001
0000
1000
0100
1000
0000
0001
0100
0001
1000
,
0020
0000
0000
0000
0130
0001
0010
0100
,
1000
0010
0100
0010
,
1000
0001
0010
0001
,
1000
0100
0010
0100
,
1000
0000
0001
0000
0100
0010
1000
0000
,
0010
0100
1000
0100
,
0001
0010
0100
0001
,
0100
0000
1000
0000
0010
0100
0001
0000
,
1000
0100
0010
0000
0001
0100
0010
0000
,
1000
0100
0010
0001
,
0100
0010
1000
0001
,
0010
0100
1000
0010
,
0100
0000
0001
0000
1000
0100
0010
0000
,
0001
0100
0010
0000
1000
0001
0010
0000
,
0100
1000
0010
0000
0100
0001
0100
0001
,
0010
0100
0010
0100
,
1000
0001
1000
0001
0100
0010
0100
0000
,
0001
0100
0010
0000
1000
0000
0100
0000
,
1000
0010
0100
0000
0001
0000
1000
0000
,
0100
0010
0001
0000
0100
0000
0010
0000
,
1000
0010
1000
0010
0100
0000
0001
0000
,
1000
0100
0010
0100
1000
0000
0001
0000
,
1000
0010
0100
0010
1000
0000
0001
0000
,
1000
0000
0100
0000
0010
0001
0000
1001
,
0000
1000
0010
0100
0002
0000
0000
0000
,
1003
0100
0010
0000
0001
0100
0010
0000
,
1000
0100
0010
0000
2000
0000
0000
0000
,
3010
0100
1000
0000
0001
0000
1001
0000
,
1000
0000
0001
0100
0000
0100
0010
0000
,
0002
0000
0000
0013
0100
0010
1000
0000
,
0100
0010
0100
0000
0002
0000
0000
0103
,
2000
0000
0000
0000
,
3002
0000
0000
0203
,
0310
1000
1010
0000
,
0001
0010
0110
0100
,
1000
1000
2001
0001
,
0001
0000
0001
0000
3001
0010
0001
0010
,
0100
0100
1100
0100
,
0000
0000
1000
0001
0100
0000
0000
0000
,
0010
1000
0000
0010
1000
0000
0010
1000
,
0000
0000
0001
0000
1000
0100
1000
0010
,
1000
0000
1000
0000
1001
0000
0001
0100
,
0001
0100
0010
0000
1000
0000
1000
0100
,
0000
0100
0010
0000
0001
1000
0000
0000
,
1001
0000
0000
1001
0000
0000
1001
0000
,
1000
0100
1100
0001
,
0100
0101
1000
0010
,
1010
0001
0010
0011
,
0001
0100
0001
0100
0010
1000
0010
0000
,
0200
0000
0000
0000
,
0000
0000
0000
0000
,
0301
0000
0100
0000
0010
0000
1000
0000
0000
0000
0000
0000
,
0001
0000
0010
0000
0100
0000
1000
0000
0000
0000
0000
0000
,
0001
0000
0000
0000
0000
0000
1001
0000
0000
0000
1000
0000
,
0010
0000
0000
0000
0010
0000
0100
0000
0000
0000
0100
0000
,
0001
0000
0000
0000
0000
0000
0000
0001
0000
0000
0000
0000
0100
0000
0000
0010
0000
0000
0100
0000
0000
0010
0000
0000
,
0002
0000
0000
0000
0013
0100
0010
0100
,
0002
0000
0000
0000
1003
0100
1000
0100
,
0010
0001
0010
0001
1000
0000
0000
0000
,
0010
0000
0100
0000
0001
0000
1000
0000
0010
0000
0100
0000
,
0001
0000
1000
0000
0100
0000
0010
0000
0000
0000
0000
0000
,
0001
1000
0010
0000
0100
0000
0001
0000
,
1000
0100
1000
0100
0010
0001
0010
0001
,
1000
0010
0000
0000
0110
0000
0100
0001
,
1000
0001
1000
0001
0010
0000
0000
0000
,
0100
1000
0000
0100
1000
0000
0100
1000
,
0001
0100
0000
0001
0100
0000
0001
0100
,
0010
1000
0010
1000
0001
0010
0001
0010
,
0100
1000
0100
1000
0010
0100
0010
0100
,
0001
0000
0000
0001
0000
0000
0001
0000
0010
0000
0000
0010
0000
0000
0010
0000
,
0100
0000
0000
0100
0000
0000
0100
0000
1000
0000
0000
1000
0000
0000
1000
0000
,
0001
0100
1000
0100
0001
1000
0100
0020
,
0000
0000
0000
0001
0001
0001
0001
0031
;

//---------------dance-single - ----------------
#NOTES:
     dance-single:
     :
     Hard:
     17:
     0.954310,1.341641,0.435277,0.195430,0.435277,752.000000,703.000000,49.000000,22.000000,0.000000,0.000000,0.954310,1.341641,0.435277,0.195430,0.435277,752.000000,703.000000,49.000000,22.000000,0.000000,0.000000:
0000
0000
0000
0000
,
0000
0000
0000
0000
,
0000
0000
0000
0000
,
0000
0000
0000
0000
,
2000
0000
3001
0000
2000
3000
0001
2000
,
0001
0000
0001
0000
3001
0100
0010
0000
,
2000
0000
3001
0000
2000
3000
0001
2000
,
3001
0100
0001
0100
0010
1000
0010
1000
0001
0010
0001
0010
0100
1000
0100
1000
,
0001
0100
0000
0001
0100
0000
0010
1000
,
0001
0010
0000
0001
0010
0000
0100
1000
,
0001
0100
0001
0100
0010
1000
0010
1000
,
0001
0010
0001
0010
0100
1000
0100
1000
,
0001
0000
0000
0101
0000
0000
1000
0000
0100
0000
0000
1100
0000
0000
0001
0000
,
0100
0000
0000
0101
0000
0000
0001
0000
1000
0000
0000
1100
0000
0000
0100
0000
,
0010
0001
0010
0001
1000
0010
1000
0010
0100
0001
0100
0001
1000
0100
1000
0100
,
0020
0000
0000
0001
0001
0001
0001
0001
,
0130
0000
0000
0000
1100
0000
0000
0000
1000
0001
0100
0000
0010
0000
1000
0000
,
0000
0000
2010
0010
0010
0010
0010
0010
,
3010
0000
0000
0000
0110
0000
0000
0000
0100
0001
1000
0000
0100
0000
0010
0000
,
0000
0000
0021
0001
0001
0001
0001
0001
,
0031
0000
0001
0000
1001
0000
0000
0000
1000
0010
0100
0000
0001
0000
1000
0000
,
0000
0100
2100
0100
0100
0100
0100
0100
,
3100
0100
0110
0100
1000
1000
1001
0001
,
0101
0000
0001
0000
0011
0000
0001
0000
0100
0001
0100
0001
1000
0010
1000
0010
,
0200
0000
0000
0000
0000
0000
0301
0010
0100
1000
0010
0100
0001
1000
0100
0010
,
0001
0000
0001
0000
1001
0000
1000
0010
0100
0000
0001
0000
1001
0000
1000
0100
,
0010
0000
0010
0000
0011
0000
0000
0000
0001
1000
0010
0000
1010
0000
1000
0000
,
0001
0001
0021
0001
0001
0001
0001
0001
,
0032
0000
0000
0000
0000
0000
0103
0010
0001
0010
0100
0010
1000
0001
0010
0100
,
1000
0000
1000
0000
0001
0100
0010
1000
0000
0000
0100
0010
0001
0100
0010
1000
,
0001
0010
0110
1000
0010
0110
0001
0010
,
0100
1000
0100
1000
0001
0100
0001
0100
0010
1000
0010
1000
0001
0010
0100
1000
,
0001
0100
0010
1000
,
0001
0010
0100
1000
,
0001
0100
0010
1000
,
0001
0000
0011
0000
0011
0000
0010
0100
1000
0001
0100
0010
1000
0001
0010
0100
,
1000
0000
0000
1100
0000
0000
0001
0000
0100
0000
0000
0110
0000
0000
1000
0000
,
0100
0000
0000
0110
0000
0000
0001
0000
1000
0000
0000
1010
0000
0000
0001
0000
,
0010
0100
0010
0100
1000
0001
1000
0001
0100
0010
0100
0010
1000
0001
1000
0001
,
0020
0000
0000
0000
0130
1000
0001
0000
,
0100
0000
0010
0000
1000
0001
0010
0000
,
0100
0000
1000
0000
0001
0100
0010
0000
,
1000
0000
0001
0000
0010
0100
1000
0000
,
0001
0000
0100
0000
0010
1000
0001
0000
,
0010
0000
0100
0000
1000
0010
0100
0000
,
0001
0000
1000
0000
0100
0010
0001
0000
,
0100
0000
0010
0000
1000
0001
0010
0000
,
0100
0000
1000
0000
0010
0100
0001
0000
,
1000
0000
0100
0000
0010
0001
1000
0000
,
0010
0000
0100
0000
0001
1000
0100
0000
,
0010
0000
0001
0000
1000
0010
0100
0000
,
0001
0000
0010
0000
0100
1000
0001
0000
,
1000
0010
0100
0010
1000
0010
0100
0010
,
1000
0001
0010
0001
1000
0001
0010
0100
,
1000
0100
1100
0100
,
0010
0001
0010
0100
1000
0001
0100
0010
,
1000
0010
0100
0000
0001
0000
1001
0000
,
1000
0100
0010
0000
0001
0000
1001
0000
,
1000
0010
0100
0000
0001
0000
1001
0000
,
1000
0100
0010
0001
1000
0001
0100
0000
,
0010
0100
1000
0100
0010
0100
0001
0000
,
1000
0100
0010
0100
0001
0100
0010
0000
,
0001
1000
0100
0001
0100
1000
0001
1000
,
0000
0001
1000
0010
0001
0010
1000
0001
,
0010
0100
0010
0001
0100
0010
1000
0100
,
1000
0001
1000
0100
0002
0000
0000
0000
,
0103
0010
0001
1000
0001
0000
1001
0000
,
1000
0010
0100
0001
0000
1000
0001
0100
,
2000
0000
0000
3100
0001
1000
0100
0010
,
0001
0100
0001
0010
2000
0000
0000
0000
,
3010
0000
0000
0000
,
0001
0010
0100
1000
0001
0100
0010
1000
,
0001
0001
0101
0000
,
0100
0010
1000
0000
0001
0000
0010
0100
,
1000
1000
1200
1000
,
1000
0000
1000
0000
1300
0001
0010
0001
,
0010
0010
0011
0010
,
0100
1000
0001
1000
0010
0000
0100
0000
,
0010
1000
0000
0100
1000
0000
0010
1000
,
0000
0000
0001
0000
1000
0100
0010
0001
,
1000
0000
1000
0000
1010
0000
1000
0100
,
0010
0001
0100
0000
0001
0100
1000
0100
,
0001
1000
0001
0000
1000
0100
0000
0000
,
0110
0000
0000
0110
0000
0000
0110
0000
,
0110
0001
1000
0110
,
0001
1000
0110
0001
,
1000
0110
0001
1000
,
0001
0010
0001
0010
0100
1000
0100
1000
,
0002
0000
0000
0000
,
0000
0000
0000
0000
,
0103
0000
0010
0000
1000
0000
0001
0000
0000
0000
0000
0000
,
1000
0000
0100
0000
0010
0000
0001
0000
0100
0000
1000
0000
,
0100
0000
0000
0000
0000
0000
0101
0000
0000
0000
0001
0000
,
1000
0000
0000
0000
1000
0000
0100
0000
0000
0000
0100
0000
,
0010
0000
0000
0000
0000
0000
0000
0001
0000
0000
0000
0000
1000
0000
0000
0010
0000
0000
1000
0000
0000
0100
0000
0000
,
0002
0000
0000
0000
0103
0010
0001
1000
,
0010
0100
0010
0100
0001
0100
0001
1000
,
0001
1000
0100
1000
0100
1000
0001
0100
,
0010
0000
1000
0000
0100
0000
0010
0000
0001
0000
0100
0000
,
0010
0000
1000
0000
0001
0000
0020
0000
0000
0000
0000
0000
,
0130
1000
0100
1000
0001
0100
0001
0100
,
0010
1000
0010
1000
0001
0010
0001
0010
,
0100
0000
0000
0000
1100
0000
1000
0100
,
0010
0001
0100
0010
1000
0001
0010
0100
,
1000
0001
0000
1000
0001
0000
0100
0010
,
1000
0001
0000
1000
0001
0000
0010
0100
,
1000
0010
0100
0001
0010
0100
1000
0001
,
0100
0010
1000
0100
0010
0001
1000
0010
,
0100
0000
0000
0101
0000
0000
0000
0000
1000
0000
0000
1100
0000
0000
0001
0000
,
0100
0000
0000
0101
0000
0000
1000
0000
0100
0000
0000
0110
0000
0000
0001
0000
,
1000
0010
1000
0010
0100
0001
0100
0001
1000
0100
1000
0100
0010
0001
0200
0010
,
0000
0000
0000
0010
0010
0010
0010
0310
;

//---------------dance-single - ----------------
#NOTES:
     dance-single:
     :
     Challenge:
     19:
     1.114208,1.490713,0.302029,0.177664,0.639591,878.000000,844.000000,34.000000,20.000000,0.000000,0.000000,1.114208,1.490713,0.302029,0.177664,0.639591,878.000000,844.000000,34.000000,20.000000,0.000000,0.000000:
0000
0000
0000
0000
,
0000
0000
0000
0000
,
0000
0000
0000
0000
,
0000
0000
0000
0000
,
2000
0000
3010
0000
0200
0300
0001
2000
,
0100
0000
0001
0000
3100
0010
0001
1000
,
0020
0000
0130
0000
0002
0003
1000
0200
,
0310
0001
0010
0001
1000
0010
1000
0010
0100
0001
0100
0001
0010
0100
1000
0010
,
0100
0100
0000
0001
0001
0000
0010
0010
,
0100
0100
0000
1000
1000
0000
0010
0010
,
0100
0100
0001
0001
0010
0010
0100
0100
,
0010
0010
0001
0001
0100
0010
1000
0001
,
0010
0000
0010
0100
1000
0000
0001
0000
0010
0000
0010
0001
1000
0000
0010
0000
,
0100
0000
0100
0001
1000
0000
0100
0000
0100
0000
0010
0001
1000
0000
0010
0000
,
0100
0001
0100
0001
1000
0100
1000
0100
0010
0001
0010
0001
0100
0010
1000
0100
,
0020
0000
0000
0001
0001
0001
0001
0001
,
0130
1000
0001
0000
0101
0000
0000
0000
0100
0001
1000
0000
0010
0000
0100
0001
,
0010
0000
0100
0000
1000
0000
0100
0010
0001
0000
0100
0010
1000
0000
0001
0000
,
0010
0100
1000
0000
1001
0000
0000
0000
1000
0100
0010
0000
0001
0000
0100
0010
,
1000
0000
0001
0000
0010
0000
0100
1000
0010
0000
0100
0001
0010
0000
0100
0000
,
1000
0001
0100
0000
0101
0000
0000
0000
0001
0010
0100
0000
1000
0000
0010
0100
,
0001
0000
1000
0000
0100
0000
0010
0001
0100
0000
0010
1000
0100
0000
0010
0000
,
0001
1000
0010
0000
1010
0000
1000
0000
0001
0010
0100
0000
1000
0000
0010
0100
,
0001
0000
1000
0000
0101
0000
1000
0000
0001
0010
0001
0100
0010
1000
0100
1000
,
0002
0000
0000
0000
0000
0000
0103
0010
1000
0010
1000
0001
0010
0100
1000
0100
,
0010
0000
0001
0000
1001
0000
1000
0010
0100
0000
0001
0010
0100
0000
1000
0010
,
0100
0001
1000
0000
1100
0000
0000
0000
0100
0010
0001
0000
1001
0000
1000
0010
,
0100
0000
0001
0000
1001
0000
1000
0100
0010
0000
0001
0100
0010
0000
1000
0001
,
0020
0000
0000
0000
0000
0000
0000
0000
0000
0000
0000
0000
0000
0000
0000
0000
0000
0000
0000
0000
0000
0000
0000
0000
0000
0000
0000
0000
0000
0000
0000
0000
0000
0000
0000
0000
0000
0000
0000
0000
0000
0000
0000
0000
0000
0000
0000
0000
0000
0000
0000
0000
0000
0000
0000
0000
0000
0000
0000
0000
0000
0000
0000
0000
0000
0000
0000
0000
0000
0000
0000
0000
0130
0000
0000
0000
0000
0000
0000
0000
1000
0000
0000
0000
0000
0000
0000
0000
0100
0000
0000
0000
0000
0000
0000
0000
1000
0000
0000
0000
0000
0000
0000
0000
0000
0000
0000
0000
0001
0000
0000
0000
0000
0000
0000
0000
0000
0000
0000
0000
0100
0000
0000
0000
0000
0000
0000
0000
0000
0000
0000
0000
0010
0000
0000
0000
0000
0000
0000
0000
0000
0000
0000
0000
0100
0000
0000
0000
0000
0000
0001
0000
0000
0000
0000
0000
0100
0000
0000
0000
0000
0000
0000
0000
0000
0000
0000
0000
0000
0000
0000
0000
0000
0000
0000
0000
0000
0000
0000
0000
0001
0000
0000
0000
0000
0000
1000
0000
0000
0000
0000
0000
,
0001
0000
1000
0000
0100
0010
0001
0100
0010
0000
1000
0001
0010
0001
0100
0010
,
1000
0001
0011
1000
0001
0101
1000
0100
,
0010
0001
0100
0010
1000
0001
0100
0001
0100
0010
1000
0100
0010
0001
1000
0010
,
0100
0001
0100
0001
0010
0100
1000
0001
,
0100
0001
1000
0100
0010
0001
0100
1000
,
0001
0010
0100
0001
0010
0100
0001
0100
,
1000
0000
0101
0000
1000
0010
0100
0001
1000
0100
0010
0001
0100
0010
1000
0001
,
0010
0000
0100
1000
0001
0000
0100
0000
0010
0000
1000
0001
0010
0000
0100
0000
,
1000
0000
0010
0100
0001
0000
1000
0000
0100
0000
0010
0001
1000
0000
0010
0000
,
1000
0010
0100
0001
0010
0100
1000
0010
1000
0100
1000
0010
0100
0001
1000
0100
,
0020
0000
0000
0000
0031
1000
0010
0000
,
1000
0001
0010
0001
1000
0010
0001
0010
,
0100
0001
0010
0100
1000
0100
0001
0100
,
1000
0001
0100
0001
0010
0100
0001
0100
,
1000
0010
0100
0001
0010
0100
0001
0100
,
1000
0010
0100
0001
1000
0100
0001
1000
,
0010
0001
1000
0010
0100
0001
1000
0010
,
0001
1000
0100
0001
0010
0100
1000
0001
,
0100
1000
0001
0010
1000
0001
0010
1000
,
0001
0100
0010
0001
0100
0010
1000
0100
,
1000
0010
0001
0010
1000
0100
0010
0001
,
1000
0010
0001
0010
0100
0001
0010
0100
,
1000
0010
0001
0010
1000
0100
0010
0001
,
0100
0010
0100
1000
0100
0001
1000
0100
,
0001
0100
0010
0001
0100
0010
1000
0001
,
1000
0100
0011
0001
,
0010
0010
1000
0001
0010
0100
1000
0001
,
1000
0100
0100
0000
0001
0000
1001
0000
,
1000
0010
0010
0000
0001
0000
1001
0000
,
1000
0100
0100
0000
0010
0000
0101
0000
,
0001
0010
0100
1000
0010
1000
0001
0100
,
0001
0100
0100
0010
0001
1000
0010
0000
,
1000
0100
0100
0010
1000
0001
0010
0000
,
0001
0010
1000
0010
0001
1000
0010
0100
,
0000
0001
0100
0001
0010
0100
1000
0001
,
1000
0100
0100
0001
0100
0010
1000
0001
,
0100
0000
0100
0000
1000
0000
0001
0000
1000
0010
1000
0010
1000
0000
0001
0000
,
1000
0100
0100
0001
0100
0000
0101
0000
,
0001
0010
0010
1000
0001
0100
0100
0100
,
0001
1000
0001
1000
0001
0000
0100
0000
0100
0000
1000
0000
0100
0000
0010
0000
,
0001
0000
0100
0000
0100
0000
0100
0000
0001
1000
0001
1000
0001
0000
1000
0000
,
0001
0000
0000
0000
,
1000
0010
0100
0001
0010
0100
1000
0001
,
0100
0010
1000
0000
1010
0000
0010
1000
,
0001
1000
0010
0000
1001
0000
0002
0000
,
0010
0000
0010
0000
1003
0000
0001
0100
,
0010
0000
1000
0100
0010
0001
1000
0010
,
0100
0001
1000
0000
1001
0000
0001
0010
,
0100
0010
0001
1000
0010
0000
0100
0000
,
0001
0010
0000
1000
0010
0000
0001
0100
,
0000
1000
0100
0000
0001
1000
0100
0010
,
0001
0000
0100
0000
0010
0000
0000
0000
1010
0000
0000
0000
1000
0001
1000
0000
,
0001
0000
0100
0000
0010
0000
0000
0000
1000
0010
1000
0000
0000
0000
0010
1000
,
0010
0100
0001
0000
0010
0100
0000
0000
,
1100
0000
0000
1010
0000
0000
0101
0000
,
0011
1000
0100
0011
,
1000
0010
0101
1000
,
0100
0011
1000
0010
,
0100
1000
0100
1000
0100
0001
0100
0001
,
0020
0000
0000
0000
,
0200
0300
0000
0001
,
0130
0000
1000
0000
0001
0000
0101
0000
0000
0000
0100
0000
,
1000
0000
0100
0000
0001
0000
1000
0000
0100
1000
0001
0000
,
0100
0000
0000
0000
0000
0000
0101
0000
0000
0000
0001
0000
,
0010
0000
0000
0000
0100
0000
1100
0000
0000
0000
1000
0000
,
1010
0000
0000
0000
0000
0000
0000
1000
0000
0000
0000
0000
0010
0000
0000
0100
0000
0000
0001
0000
0000
0010
0000
0000
,
0100
0000
0000
1000
0000
0000
0100
0000
0000
1000
0000
0000
0100
0000
0000
0000
0000
0000
0010
0000
0000
0000
0000
0000
0001
0000
0000
0000
1000
0000
0000
0000
0010
0000
0000
0000
0100
0000
0000
0000
0001
0000
0000
0000
1000
0000
0000
0000
,
0010
0100
0010
0100
1000
0100
1000
0100
,
0010
0100
0001
0010
0100
1000
0001
0100
,
0010
0000
1000
0000
0100
0000
0110
0000
0100
0000
1000
0000
,
0010
0000
0001
0000
0010
0000
0110
0000
0000
0000
0000
0000
,
0100
0001
0100
0001
0010
0100
0010
0100
,
1000
0100
0001
0100
0001
0100
0010
0001
,
1000
0010
0001
0010
0100
0001
0010
0100
,
0010
1000
0010
0001
0100
0010
1000
0100
,
1000
0001
0000
1000
0010
0000
0100
0001
,
0010
0100
0000
1000
1000
1000
1000
1000
,
0001
0100
0010
0001
0010
1000
0100
0010
,
0001
0100
0010
1000
1000
1000
1000
1000
,
0001
0000
0000
0000
0000
0000
0000
0000
0000
0000
0000
0000
0200
0300
0000
0000
0000
0000
0000
0000
0000
0000
0000
0000
0200
0300
0000
0000
0000
0000
0000
0000
1000
0000
0000
0000
0000
0000
0000
0000
0000
0000
0000
0000
0020
0030
0000
0000
0000
0000
0000
0000
0000
0000
0000
0000
0020
0030
0000
0000
0000
0000
0000
0000
,
0001
0000
0000
0000
0000
0000
0000
0000
0000
0000
0000
0000
0200
0300
0000
0000
0000
0000
0000
0000
0000
0000
0000
0000
0200
0300
0000
0000
0000
0000
0000
0000
1000
0000
0000
0000
0000
0000
0000
0000
1000
0000
0000
0000
0000
0000
0000
0000
1000
0000
0000
0000
0000
0000
0000
0000
1000
0000
0000
0000
0000
0000
0000
0000
,
1000
0100
1000
0010
0100
0001
0010
0001
0100
0010
1000
0100
1000
0001
0010
0200
,
0000
0000
0000
0010
0010
0010
0010
0310
;

//---------------dance-double - ----------------
#NOTES:
     dance-double:
     :
     Beginner:
     8:
     0.219542,0.447214,0.168781,0.026650,0.000000,173.000000,154.000000,19.000000,3.000000,0.000000,0.000000,0.219542,0.447214,0.168781,0.026650,0.000000,173.000000,154.000000,19.000000,3.000000,0.000000,0.000000:
// measure 0
00000000
00000000
00000000
00000000
,  // measure 1
00000000
00000000
00000000
00000000
,  // measure 2
00000000
00000000
00000000
00000000
,  // measure 3
00000000
00000000
00000000
00000000
,  // measure 4
00001000
00000000
00000000
00000000
00001000
00000000
00000000
00001000
,  // measure 5
00000000
00000000
00000000
00000000
,  // measure 6
00010000
00000000
00000000
00000000
00010000
00000000
00000000
00010000
,  // measure 7
00000000
00000000
00000000
00000000
,  // measure 8
00001000
00000000
00000000
00000000
00001000
00000000
00000000
00001000
,  // measure 9
00000000
00000000
00000000
00000000
,  // measure 10
01000000
00000000
00000000
00000000
01000000
00000000
00000000
01000000
,  // measure 11
00000000
00000000
00000000
00000000
,  // measure 12
00010000
00000000
00000000
00000000
00010000
00000000
00000000
00010000
,  // measure 13
00000000
00000000
00000000
00000000
,  // measure 14
10000000
00000000
00000000
00000000
01000000
00000000
00000000
00100000
,  // measure 15
00000000
00000000
00000000
00000000
,  // measure 16
00010000
00000000
00000000
00000000
01000000
00000000
00000000
00010000
,  // measure 17
00000000
00000000
00000000
00000000
,  // measure 18
10000000
00000000
00000000
00000000
00100000
00000000
00000000
10000000
,  // measure 19
00000000
00000000
00000000
00000000
,  // measure 20
00010000
00000000
00000000
00000000
01000000
00000000
00000000
00001000
,  // measure 21
00000000
00000000
00000000
00000000
,  // measure 22
00010000
00000000
00000000
00000000
00000100
00000000
00000000
00000010
,  // measure 23
00000000
00000000
00000000
00000000
,  // measure 24
00000001
00000000
00000000
00000000
00000100
00000000
00000000
00000010
,  // measure 25
00000000
00000000
00000000
00000000
,  // measure 26
00010000
00000000
00000000
00000000
00001000
00000000
00000000
00100000
,  // measure 27
00000000
00000000
00000000
00000000
,  // measure 28
01000000
00000000
00000000
00000000
10000000
00000000
00000000
00100000
,  // measure 29
00000000
00000000
00000000
00000000
,  // measure 30
01000000
00000000
00001000
00000000
,  // measure 31
00010000
00000000
00000100
00000000
,  // measure 32
00001000
00000000
00001000
00000000
,  // measure 33
00000010
00000000
00000010
00000000
,  // measure 34
00000100
00000000
00000100
00000000
,  // measure 35
00000001
00000000
00000001
00000000
,  // measure 36
00001000
00000000
00001000
00000000
,  // measure 37
00000100
00000000
00000100
00000000
,  // measure 38
00010000
00000000
00010000
00000000
,  // measure 39
00002000
00000000
00003000
00000000
,  // measure 40
00010000
00000000
00000000
00000000
,  // measure 41
00001000
00000000
00000000
00000000
,  // measure 42
01000000
00000000
00000000
00000000
,  // measure 43
00010000
00000000
00000000
00000000
,  // measure 44
10000000
00000000
00000000
00000000
,  // measure 45
01000000
00000000
00000000
00000000
,  // measure 46
00100000
00000000
00000000
00000000
,  // measure 47
00001000
00000000
00000000
00000000
,  // measure 48
00010000
00000000
00000000
00000000
,  // measure 49
00000010
00000000
00000000
00000000
,  // measure 50
00000100
00000000
00000000
00000000
,  // measure 51
00000001
00000000
00000000
00000000
,  // measure 52
00001000
00000000
00000000
00000000
,  // measure 53
00000100
00000000
00000000
00000000
,  // measure 54
00000010
00000000
00000000
00000000
,  // measure 55
00000010
00000000
00000000
00000000
,  // measure 56
00000110
00000000
00000000
00000000
,  // measure 57
00001000
00000000
00000000
00000000
,  // measure 58
00000001
00000000
00000000
00000000
,  // measure 59
00000100
00000000
00000000
00000000
,  // measure 60
00000010
00000000
00000000
00000000
,  // measure 61
00010000
00000000
00000000
00000000
,  // measure 62
00001000
00000000
00000000
00000000
,  // measure 63
00100000
00000000
00000000
00000000
,  // measure 64
01100000
00000000
00000000
00000000
,  // measure 65
10000000
00000000
00000000
00000000
,  // measure 66
00010000
00000000
00000000
00000000
,  // measure 67
01000000
00000000
00000000
00000000
,  // measure 68
00011000
00000000
00000000
00000000
,  // measure 69
00000100
00000000
00000000
00000000
,  // measure 70
00010000
00000000
00000000
00000000
,  // measure 71
00000000
00000000
00000000
00000000
,  // measure 72
00001000
00000000
00000000
00000000
,  // measure 73
00010000
00000000
00000000
00000100
,  // measure 74
00000000
00000000
00000000
00000000
,  // measure 75
00001000
00000000
00000000
00000000
,  // measure 76
00000100
00000000
00000000
00000000
,  // measure 77
00010000
00000000
00000000
00001000
,  // measure 78
00000000
01000000
00000000
00000000
01000000
00000000
00000000
00010000
,  // measure 79
00000000
00000000
10010000
00000000
,  // measure 80
00000000
00000000
10010000
00000000
,  // measure 81
00000000
00000000
00000000
00000000
10000000
00000000
00000000
00010000
,  // measure 82
00000000
00000000
01010000
00000000
,  // measure 83
00001000
00000000
00000000
00001000
00000000
00000000
00000000
00000000
,  // measure 84
00011000
00000000
00000000
00011000
,  // measure 85
00000000
00000000
00011000
00000000
,  // measure 86
00000000
00011000
00000000
00000000
,  // measure 87
00010000
00000000
00000010
00000000
,  // measure 88
00000100
00000000
00000000
00000000
,  // measure 89
00000001
00000000
00000000
00001000
,  // measure 90
00000000
00000000
00001100
00000000
,  // measure 91
00010000
00000000
00011000
00000000
,  // measure 92
01001000
00000000
01000000
00000000
,  // measure 93
01010000
00000000
10010000
00000000
,  // measure 94
01100000
00000000
10010000
00000000
,  // measure 95
20000000
00000000
30000000
00000000
,  // measure 96
00100000
00000000
00000000
00000000
,  // measure 97
01000000
00000000
00000000
00010000
,  // measure 98
00000000
00000000
01010000
00000000
,  // measure 99
00000000
00000000
00011000
00000000
,  // measure 100
00010000
00000000
00000000
00000000
,  // measure 101
00000100
00000000
00000000
00000010
,  // measure 102
00000000
00000000
00000001
00000000
,  // measure 103
00000100
00000000
00000010
00000000
,  // measure 104
00010000
00000000
00000000
00000000
00001000
00000000
00000000
00100000
,  // measure 105
00000000
00000000
00010000
00000000
,  // measure 106
10000000
00000000
00000000
00000000
01000000
00000000
00000000
00100000
,  // measure 107
00000000
00000000
00001000
00000000
,  // measure 108
00010000
00000000
00000000
00000000
00000010
00000000
00000000
00000100
,  // measure 109
00000000
00000000
00000001
00000000
,  // measure 110
00001000
00000000
00000000
00000000
00000100
00000000
00000000
00000020
,  // measure 111
00000000
00000000
00000000
00000001
00000000
00000001
00000000
00000031
;

//---------------dance-double - ----------------
#NOTES:
     dance-double:
     :
     Easy:
     12:
     0.392130,0.596285,0.310912,0.559642,0.004442,309.000000,274.000000,35.000000,63.000000,0.000000,0.000000,0.392130,0.596285,0.310912,0.559642,0.004442,309.000000,274.000000,35.000000,63.000000,0.000000,0.000000:
// measure 0
00000000
00000000
00000000
00000000
,  // measure 1
00000000
00000000
00000000
00000000
,  // measure 2
00000000
00000000
00000000
00000000
,  // measure 3
00000000
00000000
00000000
00000000
,  // measure 4
00020000
00000000
00030000
00000000
00020000
00030000
00000000
00020000
,  // measure 5
00000000
00000000
00000000
00000000
00000000
00000000
00000000
00030000
,  // measure 6
00002000
00000000
00003000
00000000
00002000
00003000
00000000
00002000
,  // measure 7
00000000
00000000
00000000
00000000
00000000
00000000
00000000
00003000
,  // measure 8
00000020
00000000
00000030
00000000
00000020
00000030
00000000
00000020
,  // measure 9
00000000
00000000
00000000
00000000
00000000
00000000
00000000
00000030
,  // measure 10
00000200
00000000
00000300
00000000
00000200
00000300
00000000
00000200
,  // measure 11
00000000
00000000
00000000
00000000
00000000
00000000
00000000
00000300
,  // measure 12
00002000
00000000
00003000
00000000
00002000
00003000
00000000
00002000
,  // measure 13
00000000
00000000
00000000
00000000
00000000
00000000
00000000
00003000
,  // measure 14
00000002
00000000
00000003
00000000
00000200
00000300
00000000
00000020
,  // measure 15
00000000
00000000
00000000
00001030
00000000
00000010
00000000
00010000
,  // measure 16
00002000
00000000
00003000
00000000
00200000
00300000
00000000
00020000
,  // measure 17
00000000
00000000
00000000
10030000
00000000
00100000
00000000
01000000
,  // measure 18
00020000
00000000
00030000
00000000
20000000
30000000
00000000
02000000
,  // measure 19
00000000
00000000
00000000
03100000
00000000
00001000
00000000
00010000
,  // measure 20
00000020
00000000
00000030
00000000
00000200
00000300
00000000
00000002
,  // measure 21
00000000
00000000
00000000
00001003
00000000
00000100
00000000
00000010
,  // measure 22
00000002
00000000
00000003
00000000
00000200
00000300
00000000
00000010
,  // measure 23
00001000
00001010
00000101
00001010
,  // measure 24
00002002
00000000
00000000
00000000
00000003
00000000
00000000
00003200
,  // measure 25
00000000
00000000
00000000
00010300
00000000
00001000
00000000
01000000
,  // measure 26
00010000
00000000
00000000
00000000
00100000
00000000
00000000
01000000
,  // measure 27
00000000
00000000
00000000
10000000
00000000
00100000
00000000
01000000
,  // measure 28
00020000
00000000
00000000
00000000
00000000
00000000
00000000
00000000
00000000
00000000
00000000
00000000
01030000
00000000
00000000
00001000
,  // measure 29
00000000
00001000
00010000
00000000
00000100
00000000
00000010
00000000
,  // measure 30
00000001
00000000
00000101
00000000
00000000
00001010
00000000
00000000
,  // measure 31
00000001
00000000
00000100
00000000
00000010
00001000
00000001
00000000
,  // measure 32
00001000
00000100
00000010
00000100
,  // measure 33
00010000
00001000
01000000
00010000
,  // measure 34
10000000
01000000
00100000
00010000
,  // measure 35
10000000
00100000
10000000
00000000
00100000
00000000
01000000
00000000
,  // measure 36
00001000
00010000
00000100
00001000
,  // measure 37
00000001
00000100
00000010
00001000
,  // measure 38
00000001
00000100
00000001
00000000
00001000
00000000
00000100
00000000
,  // measure 39
00000010
00000000
00000100
00010000
,  // measure 40
00001000
00100000
00000000
00011000
,  // measure 41
00000000
00000010
00000000
00011000
,  // measure 42
00000000
01000000
00000000
00011000
,  // measure 43
00000000
00000100
00000000
00011000
,  // measure 44
00000000
01000000
00000000
01010000
,  // measure 45
00000000
10000000
00000000
11000000
,  // measure 46
00000000
00010000
00000000
01010000
,  // measure 47
00000000
00001000
00000000
00011000
,  // measure 48
00000000
00000100
00000000
00001100
,  // measure 49
00000000
00000001
00000000
00000101
,  // measure 50
00000000
00001000
00000000
00001100
,  // measure 51
00000000
00000001
00000000
00000010
,  // measure 52
00000001
00001000
00000001
00000000
,  // measure 53
00001000
00000010
00001000
00000000
,  // measure 54
00001010
00000000
00000101
00000000
,  // measure 55
00001000
00000000
00000100
00000000
,  // measure 56
00010000
00001000
00000000
00001000
,  // measure 57
00100000
00001000
00000000
00001000
,  // measure 58
00010000
00001000
00000000
00001000
,  // measure 59
00020000
00000000
00030000
00000000
,  // measure 60
00001000
01000000
00000000
01000000
,  // measure 61
00100000
01000000
00000000
01000000
,  // measure 62
00010000
01000000
00000000
01000000
,  // measure 63
00100000
00000000
20000000
00000000
,  // measure 64
31000000
00100000
00000000
00010000
,  // measure 65
00000000
10000000
00200000
00300000
,  // measure 66
01000000
00010000
10000000
00000000
,  // measure 67
00010000
01000000
00001000
00000000
,  // measure 68
00020000
00030000
00000010
00001000
,  // measure 69
00000010
00001000
00000002
00000003
,  // measure 70
00000000
00000000
00000000
00000000
,  // measure 71
00002000
00000000
00000000
00003200
,  // measure 72
00000320
00000000
00000031
00000000
,  // measure 73
00002000
00000000
00003000
00000020
,  // measure 74
00000000
00000000
00000130
00000001
,  // measure 75
00000100
00000001
00000000
00001000
,  // measure 76
00000200
00000000
00010300
00000000
,  // measure 77
00002000
00000000
01003000
00010000
,  // measure 78
00000000
10010000
00000000
00000000
10010000
00000000
00000000
10010000
,  // measure 79
00000000
00000000
10010000
00000000
,  // measure 80
20000000
00000000
31000000
00000000
,  // measure 81
00200000
00000000
00000000
00000000
00301000
00000000
00000000
00001000
,  // measure 82
00000000
00001000
00010000
00000000
,  // measure 83
00010100
00000000
00000000
00010100
00000000
00000000
00010100
00000000
,  // measure 84
00010000
00000000
00000000
00010010
,  // measure 85
00000000
00000000
00001001
00000000
,  // measure 86
00000000
00000011
00000000
00000000
,  // measure 87
00000001
00001000
00000001
00001000
,  // measure 88
00000002
00000000
00000003
00000000
,  // measure 89
00000200
00000000
00000300
00000010
,  // measure 90
00001000
00000000
00001010
00000000
,  // measure 91
00010000
00000000
00011000
00000000
,  // measure 92
00100000
00000000
01100000
00000000
,  // measure 93
10000000
00000000
10010000
00000000
,  // measure 94
00010000
01000000
00001000
00000000
,  // measure 95
00020000
00000000
00030200
00000000
,  // measure 96
00001300
00000000
00000001
00000000
,  // measure 97
00000100
00000000
00000010
00000000
,  // measure 98
00001000
00000000
00000011
00000000
,  // measure 99
00001000
00000000
00000101
00000000
,  // measure 100
00001000
00000000
00000100
00000000
,  // measure 101
00010000
00001000
01000000
00000000
,  // measure 102
00010000
00000000
10000000
00000000
,  // measure 103
00100000
00000000
01000000
00010000
,  // measure 104
20000000
00000000
30000000
00000000
02000000
00000000
03000000
00200000
,  // measure 105
00000000
00000000
00000000
00301000
00000000
00010000
00000000
00000010
,  // measure 106
00002000
00000000
00003000
00000000
00000002
00000000
00000003
00000200
,  // measure 107
00000000
00000000
00000000
00000310
00000000
00001000
00000000
00000100
,  // measure 108
00000020
00000000
00000030
00000000
00000002
00000000
00000003
00000200
,  // measure 109
00000000
00000000
00000000
00000301
00000000
00001000
00000000
00000100
,  // measure 110
00020000
00000000
00030000
00000000
00002000
00000000
00003000
02000000
,  // measure 111
00000000
00000000
00000000
03100000
00000000
10000000
00000000
00010000
;

//---------------dance-double - ----------------
#NOTES:
     dance-double:
     :
     Medium:
     16:
     0.784260,1.142880,0.177664,0.168781,0.195430,618.000000,598.000000,20.000000,19.000000,0.000000,0.000000,0.784260,1.142880,0.177664,0.168781,0.195430,618.000000,598.000000,20.000000,19.000000,0.000000,0.000000:
// measure 0
00000000
00000000
00000000
00000000
,  // measure 1
00000000
00000000
00000000
00000000
,  // measure 2
00000000
00000000
00000000
00000000
,  // measure 3
00000000
00000000
00000000
00000000
,  // measure 4
00010000
00001000
00100000
00001000
,  // measure 5
01000000
00000000
00100000
00000000
10000000
00010000
00100000
01000000
,  // measure 6
10000000
00010000
01000000
00001000
,  // measure 7
00010000
00000100
00010000
00000000
00000010
00000000
00001000
00000010
00001000
00000010
00001000
00000000
00000001
00000000
00000010
00000000
,  // measure 8
00000100
00001000
00000000
00000100
00001000
00000000
00000001
00000100
,  // measure 9
00000010
00001000
00000000
00000010
00001000
00000000
00000010
00010000
,  // measure 10
00001000
00100000
00010000
10000000
00100000
01000000
00010000
00100000
,  // measure 11
01000000
10000000
00010000
01000000
00001000
00010000
00000100
00001000
,  // measure 12
00000001
00000000
00000000
00000001
00000000
00000000
00000001
00000000
00000010
00000000
00000000
00000010
00000000
00000000
00000010
00000000
,  // measure 13
00000100
00000000
00000000
00000100
00000000
00000000
00000100
00000000
00001000
00000000
00000000
00001000
00000000
00000000
00001000
00000000
,  // measure 14
00000010
00001000
00000010
00000000
00010000
00000000
00001000
00000000
00100000
01000000
00100000
00000000
00010000
00000000
02000000
00000000
,  // measure 15
00000000
00000000
00000000
00100000
00100000
00100000
00100000
00100000
,  // measure 16
03010000
00000000
01010000
00000000
10000000
00000000
01000000
00200000
,  // measure 17
00010000
00000000
00001000
00010000
00010000
00010000
00010000
00010000
,  // measure 18
00301000
00000000
00011000
00000000
00010000
00000010
00001000
00000002
,  // measure 19
00000100
00000000
00001000
00000100
00000100
00000100
00000100
00000100
,  // measure 20
00001003
00001000
00000100
00000000
00000010
00000001
00000100
00000020
,  // measure 21
00001000
00000000
00010000
00001000
00001000
00001000
00001000
00001000
,  // measure 22
00010030
00010000
00001000
00010000
00010000
00010000
00001000
00100000
,  // measure 23
01100000
00000000
00000000
00000000
10010000
00000000
00000000
00000000
10000000
01000000
10000000
00000000
00010000
01000000
00010000
00000000
,  // measure 24
20000000
00000000
00000000
30100000
00010000
00001000
00000100
00000020
,  // measure 25
00001000
00001000
00000100
00001000
00001000
00001000
00001000
00001000
,  // measure 26
00010030
00010000
00001000
00000000
00100000
01000000
10000000
00020000
,  // measure 27
01000000
01000000
10000000
01000000
01000000
01000000
01000000
01000000
,  // measure 28
20030000
00000000
00000000
00000000
00000000
00000000
31000000
00100000
01000000
00000000
10000000
00000000
00010000
00000000
01000000
00001000
,  // measure 29
00010000
00000000
00010000
00000000
00001000
00010000
00001000
00010000
00000000
00000000
00010000
00000100
00001000
00000001
00001000
00000001
,  // measure 30
00001000
00000010
00000100
00000001
00000010
00000100
00001000
00000010
,  // measure 31
00000100
00000001
00000100
00000000
00000010
00001000
00000010
00000000
00000100
00000001
00000100
00000000
00000010
00000000
00001000
00000000
,  // measure 32
00000100
00000010
00000001
00000100
,  // measure 33
00000010
00001000
00000100
00010000
,  // measure 34
00001000
01000000
00100000
10000000
,  // measure 35
00010000
00000000
00100000
00000000
01000000
00000000
10000000
00010000
10000000
00000000
00010000
00000000
01000000
00000000
00100000
00000000
,  // measure 36
10000000
00000000
00000000
10000000
00000000
00000000
10000000
00000000
00100000
00000000
00000000
00100000
00000000
00000000
00100000
00000000
,  // measure 37
00010000
00000000
00000000
00010000
00000000
00000000
00010000
00000000
00001000
00000000
00000000
00001000
00000000
00000000
00001000
00000000
,  // measure 38
00000010
00000001
00000100
00001000
00010000
00001000
00000010
00000001
,  // measure 39
00000200
00000000
00000000
00000000
00000310
00001000
00000100
00000000
,  // measure 40
00010000
00001000
01000000
00010000
,  // measure 41
10000000
01000000
00100000
00001000
,  // measure 42
00010000
00000010
00001000
00000001
,  // measure 43
00000010
00000000
00000100
00000000
00000010
00000001
00000100
00000000
,  // measure 44
00000010
00001000
00000100
00010000
,  // measure 45
00001000
00100000
00010000
10000000
,  // measure 46
00100000
00000000
01000000
00000000
00010000
00100000
01000000
00000000
,  // measure 47
10000000
00100000
01000000
00000000
00010000
00100000
01000000
00000000
,  // measure 48
10000000
00010000
01000000
00001000
,  // measure 49
00010000
00000100
00000010
00000001
,  // measure 50
00000100
00000010
00001000
00000001
,  // measure 51
00000010
00000000
00000100
00000000
00001000
00000010
00000100
00000000
,  // measure 52
00000001
00000010
00000100
00000000
00001000
00000001
00000100
00000000
,  // measure 53
00000010
00001000
00000001
00000000
00000010
00000100
00001000
00000000
,  // measure 54
00001100
00000000
00011000
00000000
,  // measure 55
01000000
00001000
01000000
00001000
00010000
00000000
01000000
00000000
,  // measure 56
10000000
00010000
01000000
00000000
00100000
00000000
10000000
00000000
,  // measure 57
00010000
00100000
01000000
00000000
00100000
00000000
00001000
00000000
,  // measure 58
00010000
00000010
00001000
00000000
00000010
00000000
00000100
00000000
,  // measure 59
00000001
00001000
00000001
00001000
00000100
00000000
00000010
00000000
,  // measure 60
00000001
00000010
00000100
00000010
00000001
00000000
00001000
00000000
,  // measure 61
00000001
00000100
00000010
00000100
00000001
00000000
00001000
00000000
,  // measure 62
00000100
00000000
00010000
00000000
00001000
01000000
00000000
00010000
,  // measure 63
00000000
01000000
00010000
00100000
02000000
00000000
00000000
00000000
,  // measure 64
13000000
00010000
01000000
00000000
00100000
10000000
00010000
00000000
,  // measure 65
00100000
01000000
10000000
00000000
00200000
00000000
00000000
00000000
,  // measure 66
01300000
00001000
00010000
00001000
01000000
00000000
00001000
00000000
,  // measure 67
00010000
00000100
00000010
00000100
00000000
00000100
00001000
00000100
,  // measure 68
00000020
00000000
00000000
00000031
00000100
00000010
00001000
00000000
,  // measure 69
00000001
00000010
00000100
00000000
00002000
00000000
00000000
00000000
,  // measure 70
00003001
00000000
00000000
00000000
,  // measure 71
00000100
00000010
00010000
00001000
,  // measure 72
00010000
00100000
01100000
00000000
,  // measure 73
01000000
00010000
10010000
10000000
,  // measure 74
01000000
00100000
00210000
00010000
,  // measure 75
00010000
00000000
00010000
00000000
00301000
00010000
00001000
00010000
,  // measure 76
00001000
00010000
00010100
00000100
,  // measure 77
00000000
00000000
00001000
00000001
00000100
00000000
00000000
00000000
,  // measure 78
00000010
00001000
00000000
00000010
00001000
00000000
00000010
00001000
,  // measure 79
00000000
00000000
00000010
00000000
00001000
00000010
00000100
00000001
,  // measure 80
00001000
00000000
00000100
00000000
00001100
00000000
00001000
00000100
,  // measure 81
00010000
00001000
00010000
00000000
00001000
00000000
00001000
01000000
,  // measure 82
00000000
01000000
00010000
00000000
00010000
10000000
00000000
00000000
,  // measure 83
10010000
00000000
00000000
10010000
00000000
00000000
10010000
00000000
,  // measure 84
10010000
00010000
01000000
01001000
,  // measure 85
00001000
00010000
00010100
00000100
,  // measure 86
00001000
00001001
00000001
00000100
,  // measure 87
00000010
00001000
00000010
00001000
00000010
00001000
00000010
00001000
,  // measure 88
00000020
00000000
00000030
00000000
,  // measure 89
00000200
00000000
00000300
00000001
,  // measure 90
00001000
00000000
00000100
00000000
00000010
00000000
00000001
00000000
00000000
00000000
00000000
00000000
,  // measure 91
00001000
00000000
00000010
00000000
00000100
00000000
00000001
00000000
00000000
00000000
00000000
00000000
,  // measure 92
00001000
00000000
00000000
00000000
00000000
00000000
00001100
00000000
00000000
00000000
00000100
00000000
,  // measure 93
00010000
00000000
00000000
00000000
00010000
00000000
00001000
00000000
00000000
00000000
01000000
00000000
,  // measure 94
00010000
00000000
00000000
00000000
00000000
00000000
00000000
00100000
00000000
00000000
00000000
00000000
01000000
00000000
00000000
10000000
00000000
00000000
01000000
00000000
00000000
00000000
00000000
00000000
,  // measure 95
00200000
00000000
00000000
00000000
00310000
10000000
00010000
10000000
,  // measure 96
00020000
00000000
00000000
00000000
01030000
00001000
01000000
00001000
,  // measure 97
00010000
00000100
00010000
00000100
00001000
00000000
00000000
00000000
,  // measure 98
00000001
00000000
00000100
00000000
00000001
00000000
00000010
00000000
00000001
00000000
00000010
00000000
,  // measure 99
00000100
00000000
00001000
00000000
00000010
00000000
00001000
00000000
00000000
00000000
00000000
00000000
,  // measure 100
00000001
00000100
00000001
00000100
00000001
00000000
00000000
00000000
,  // measure 101
00001000
00000100
00001000
00000100
00010000
00001000
00010000
00001000
,  // measure 102
00010000
00001000
00000000
00000000
00011000
00000000
00000000
00000000
,  // measure 103
00010000
00001000
00010000
00001000
00100000
00010000
00100000
00010000
,  // measure 104
10000000
00100000
00000000
10000000
00100000
00000000
10000000
00100000
,  // measure 105
01000000
00010000
00000000
01000000
00010000
00000000
01000000
00001000
,  // measure 106
00010000
00000100
00001000
00000001
00000100
00000010
00001000
00000100
,  // measure 107
00000010
00000001
00001000
00000010
00010000
00001000
00100000
00010000
,  // measure 108
10000000
00000000
00000000
10000000
00000000
00000000
10000000
00000000
00100000
00000000
00000000
00100000
00000000
00000000
00100000
00000000
,  // measure 109
01000000
00000000
00000000
01000000
00000000
00000000
01000000
00000000
00001000
00000000
00000000
00001000
00000000
00000000
00001000
00000000
,  // measure 110
00010000
00100000
10000000
01000000
00010000
00001000
00000100
00000002
,  // measure 111
00000000
00000000
00000000
00000010
00000010
00000010
00000010
00000013
;

//---------------dance-double - ----------------
#NOTES:
     dance-double:
     :
     Hard:
     18:
     0.950503,1.341641,0.408627,0.159898,0.417511,749.000000,703.000000,46.000000,18.000000,0.000000,0.000000,0.950503,1.341641,0.408627,0.159898,0.417511,749.000000,703.000000,46.000000,18.000000,0.000000,0.000000:
// measure 0
00000000
00000000
00000000
00000000
,  // measure 1
00000000
00000000
00000000
00000000
,  // measure 2
00000000
00000000
00000000
00000000
,  // measure 3
00000000
00000000
00000000
00000000
,  // measure 4
00001000
00000000
00010000
00000000
00001000
00000000
00010000
00001000
,  // measure 5
01000000
00000000
00001000
00000000
00010000
00001000
01000000
00000000
,  // measure 6
00100000
00000000
10000000
00000000
00100000
00000000
10000000
00100000
,  // measure 7
10000000
00010000
10000000
00010000
00100000
01000000
00100000
01000000
10000000
00010000
01000000
00001000
00010000
00001000
00010000
00000100
,  // measure 8
00001000
00000001
00000000
00001000
00000001
00000000
00000100
00000010
,  // measure 9
00001000
00000001
00000000
00001000
00000001
00000000
00000010
00000100
,  // measure 10
00010000
00001000
00100000
00010000
01000000
00100000
10000000
00010000
,  // measure 11
01000000
00100000
00010000
00001000
00010000
00000100
00000010
00000100
,  // measure 12
00001000
00000000
00000000
00001100
00000000
00000000
00000001
00000000
00000100
00000000
00000000
00000101
00000000
00000000
00001000
00000000
,  // measure 13
00000100
00000000
00000000
00001100
00000000
00000000
00010000
00000000
00001000
00000000
00000000
00011000
00000000
00000000
00100000
00000000
,  // measure 14
00001000
00010000
00001000
00010000
00001000
01000000
00001000
01000000
00010000
10000000
00010000
10000000
01000000
00100000
00020000
00000000
,  // measure 15
00000000
00000000
00000000
01000000
01000000
01000000
01000000
01000000
,  // measure 16
10030000
00000000
00000000
00000000
10100000
00000000
00000000
00000000
00010000
00100000
01000000
00000000
00100000
00000000
00001000
00000000
,  // measure 17
00010000
00000000
00020010
00000010
00000010
00000010
00000010
00000010
,  // measure 18
00031000
00000000
00000000
00000000
00010100
00000000
00000000
00000000
00010000
00000100
00000010
00000000
00000100
00000000
00001000
00000000
,  // measure 19
00000001
00000000
00000102
00000100
00000100
00000100
00000100
00000100
,  // measure 20
00001003
00000000
00001000
00000000
00001100
00000000
00000000
00000000
00010000
00001000
01000000
00000000
00010000
00000000
10000000
00000000
,  // measure 21
00000000
10000000
21000000
01000000
01000000
01000000
01000000
01000000
,  // measure 22
30010000
01000000
01010000
10000000
01000000
00100000
00101000
00001000
,  // measure 23
00011000
00000000
00100000
00000000
00011000
00000000
00000010
00000000
00010000
00000010
00010000
00000010
00001000
00000001
00001000
00000001
,  // measure 24
00000020
00000000
00000000
00000000
00000000
00000000
00000130
00001000
00000010
00000100
00000001
00000010
00000100
00010000
00001000
01000000
,  // measure 25
00010000
00010000
10020000
10000000
10000000
10000000
10000000
10000000
,  // measure 26
01030000
00000000
01000000
00000000
01001000
00000000
00000000
00000000
00001000
00010000
00000100
00000000
00000010
00000000
00000100
00000000
,  // measure 27
00001000
00000001
00001002
00001000
00001000
00001000
00001000
00001000
,  // measure 28
00020003
00000000
00000000
00000000
00000000
00000000
00031000
00100000
01000000
00100000
00010000
10000000
00100000
01000000
10000000
01000000
,  // measure 29
00100000
00000000
00100000
00000000
10000000
01000000
00100000
00010000
00000000
00000000
01000000
00001000
00010000
00000100
00001000
00000010
,  // measure 30
00000100
00000001
00000101
00001000
00000100
00001100
00010000
00001000
,  // measure 31
00100000
00010000
00100000
00010000
10000000
00100000
10000000
00100000
01000000
00010000
01000000
00010000
01000000
00010000
01000000
00010000
,  // measure 32
10000000
01000000
00100000
00010000
,  // measure 33
01000000
00100000
00010000
00001000
,  // measure 34
00000100
00010000
00000100
00000010
,  // measure 35
00001000
00000000
00000001
00000000
00001001
00000000
00001000
00000100
00000010
00000001
00000010
00000001
00001000
00000010
00001000
00000010
,  // measure 36
00000100
00000000
00000000
00000101
00000000
00000000
00001000
00000000
00000100
00000000
00000000
00001100
00000000
00000000
00010000
00000000
,  // measure 37
00001000
00000000
00000000
00101000
00000000
00000000
00001000
00000000
01000000
00000000
00000000
01010000
00000000
00000000
10000000
00000000
,  // measure 38
01000000
00100000
01000000
00100000
00010000
10000000
00010000
10000000
00100000
01000000
00100000
01000000
00010000
01000000
00010000
01000000
,  // measure 39
00002000
00000000
00000000
00000000
00013000
00000010
00000100
00001000
,  // measure 40
00010000
00000000
00001000
00000000
01000000
00010000
10000000
00000000
,  // measure 41
01000000
00000000
00100000
00000000
01000000
10000000
00010000
00000000
,  // measure 42
01000000
00000000
00001000
00000000
00010000
00000100
00000010
00000000
,  // measure 43
00000001
00000000
00000100
00000000
00000010
00001000
00000001
00000000
,  // measure 44
00000010
00000000
00000100
00000000
00000010
00001000
00010000
00000000
,  // measure 45
00100000
00000000
01000000
00000000
00100000
00010000
00001000
00000000
,  // measure 46
00010000
00000000
00100000
00000000
01000000
00010000
10000000
00000000
,  // measure 47
01000000
00100000
00010000
00000000
01000000
00100000
00010000
00000000
,  // measure 48
00001000
00000000
00010000
00000000
00000100
00001000
00000001
00000000
,  // measure 49
00000100
00000000
00000010
00000000
00001000
00000001
00000010
00000000
,  // measure 50
00000100
00000000
00010000
00000000
00001000
01000000
00100000
00000000
,  // measure 51
10000000
00000000
00010000
00000000
00100000
01000000
10000000
00000000
,  // measure 52
00010000
01000000
00100000
01000000
00010000
01000000
00100000
01000000
,  // measure 53
00010000
01000000
00001000
01000000
00010000
01000000
00001000
00010000
,  // measure 54
00000100
00001001
00000010
00001001
,  // measure 55
00001000
00000010
00001000
00000100
00000010
00000001
00001000
00000010
,  // measure 56
00000100
00000010
00010000
00000000
00001000
00000000
00011000
00000000
,  // measure 57
00100000
00010000
10000000
00000000
00100000
00000000
10100000
00000000
,  // measure 58
00010000
00100000
00001000
00000000
00010000
00000000
00010010
00000000
,  // measure 59
00000010
00001000
00000001
00000010
00000100
00001000
00000001
00000100
,  // measure 60
00000010
00000100
00001000
00010000
00001000
00000100
00000010
00000000
,  // measure 61
00000100
00001000
00010000
01000000
00100000
00010000
10000000
00000000
,  // measure 62
00100000
00010000
00001000
00010000
01000000
10000000
00100000
00010000
,  // measure 63
00000000
00001000
00000010
00000001
00000200
00000000
00000000
00000000
,  // measure 64
00000301
00000010
00000100
00001000
00000010
00000100
00001000
00010000
,  // measure 65
00001000
01000000
00010000
01000000
20000000
00000000
00000000
00000000
,  // measure 66
31000000
00010000
10000000
01000000
00100000
00000000
00101000
00000000
,  // measure 67
00001000
00010000
00000010
00001000
00000000
00000001
00001000
00000100
,  // measure 68
00000002
00000000
00000000
00000103
00010000
00001000
01000000
00100000
,  // measure 69
00010000
00001000
00000010
00000001
00000200
00000000
00000000
00000000
,  // measure 70
00000310
00000000
00000000
00000000
,  // measure 71
00001000
00000100
00000010
00000001
00000100
00000010
00001000
00000100
,  // measure 72
00010000
00001000
00101000
00000000
,  // measure 73
00100000
00010000
10000000
00000000
00100000
00000000
01000000
00000000
,  // measure 74
00001000
00001000
00012000
00010000
,  // measure 75
00010000
00000000
00010000
00000000
00013000
00000010
00001000
00000010
,  // measure 76
00001000
00001000
00001001
00000001
,  // measure 77
00000000
00000000
00000010
00000100
00010000
00000000
00001000
00000000
,  // measure 78
01000000
00001000
00000000
01000000
00001000
00000000
01000000
00010000
,  // measure 79
00000000
00000000
01000000
00000000
00010000
00100000
01000000
10000000
,  // measure 80
00010000
00000000
00010000
00000000
01010000
00000000
01000000
00100000
,  // measure 81
00010000
00001000
00000100
00000010
00001000
00000000
00001000
00000001
,  // measure 82
00000000
00000001
00000010
00000000
00000100
00001000
00000000
00000000
,  // measure 83
00011000
00000000
00000000
01100000
00000000
00000000
10010000
00000000
,  // measure 84
10100000
00010000
01000000
01010000
,  // measure 85
00001000
00010000
00011000
00000100
,  // measure 86
00001000
00001100
00000001
00000100
,  // measure 87
00001000
00000100
00001000
00000100
00000001
00000100
00000001
00000100
,  // measure 88
00000020
00000000
00000030
00000000
,  // measure 89
00002000
00000000
00003000
00000001
,  // measure 90
00000010
00000000
00001000
00000000
00010000
00000000
00100000
00000000
00000000
00000000
00000000
00000000
,  // measure 91
01000000
00000000
00010000
00000000
00100000
00000000
01000000
00000000
10000000
00010000
10000000
00000000
,  // measure 92
00100000
00000000
00000000
00000000
00000000
00000000
01100000
00000000
00000000
00000000
01000000
00000000
,  // measure 93
00001000
00000000
00000000
00000000
00001000
00000000
00010000
00000000
00000000
00000000
00010000
00000000
,  // measure 94
00000100
00000000
00000000
00000000
00000000
00000000
00000000
00000010
00000000
00000000
00000000
00000000
00000001
00000000
00000000
00000100
00000000
00000000
00000001
00000000
00000000
00000010
00000000
00000000
,  // measure 95
00002000
00000000
00000000
00000000
00013000
00100000
10000000
00010000
,  // measure 96
00100000
01000000
00100000
01000000
10000000
00010000
10000000
00010000
,  // measure 97
01000000
00100000
01000000
00100000
01000000
00100000
01000000
00100000
,  // measure 98
10000000
00000000
00100000
00000000
01000000
00000000
00010000
00000000
00100000
00000000
01000000
00000000
,  // measure 99
00010000
00000000
00001000
00000000
00000100
00000000
00000001
00000000
00000000
00000000
00000000
00000000
,  // measure 100
00000100
00000001
00000100
00000001
00001000
00000100
00001000
00000100
,  // measure 101
00010000
00001000
00010000
00001000
01000000
00010000
01000000
00010000
,  // measure 102
10000000
00100000
00000000
00000000
01100000
00000000
01000000
00010000
,  // measure 103
00100000
01000000
10000000
00010000
01000000
00001000
00010000
00000100
,  // measure 104
00000010
00000001
00000000
00000010
00000001
00000000
00001000
00000010
,  // measure 105
00000100
00000001
00000000
00000100
00000001
00000000
00001000
00000100
,  // measure 106
00010000
00001000
00010000
00100000
01000000
00010000
00100000
01000000
,  // measure 107
10000000
00100000
01000000
00010000
10000000
01000000
00010000
00001000
,  // measure 108
00000100
00000000
00000000
00000110
00000000
00000000
00000001
00000000
00001000
00000000
00000000
00001100
00000000
00000000
00000001
00000000
,  // measure 109
00000100
00000000
00000000
00000110
00000000
00000000
00001000
00000000
00001000
00000000
00001000
00000000
00001000
00000000
00001000
00000000
,  // measure 110
00000010
00000100
00000010
00000100
00001000
00010000
00001000
00010000
00001000
01000000
00001000
01000000
00010000
01000000
00200000
10000000
,  // measure 111
00000000
00000000
00000000
01000000
01000000
01000000
01000000
01300000
;

//---------------dance-double - ----------------
#NOTES:
     dance-double:
     :
     Challenge:
     19:
     1.082482,1.341641,0.248730,0.071066,0.546317,853.000000,825.000000,28.000000,8.000000,0.000000,0.000000,1.082482,1.341641,0.248730,0.071066,0.546317,853.000000,825.000000,28.000000,8.000000,0.000000,0.000000:
// measure 0
00000000
00000000
00000000
00000000
,  // measure 1
00000000
00000000
00000000
00000000
,  // measure 2
00000000
00000000
00000000
00000000
,  // measure 3
00000000
00000000
00000000
00000000
,  // measure 4
00010000
00000000
00001000
00000000
00000010
00000000
00000100
00001000
,  // measure 5
00000001
00000000
00000100
00000000
00001000
00010000
01000000
10000000
,  // measure 6
00100000
00000000
01000000
00000000
00010000
00000000
00100000
01000000
,  // measure 7
10000000
00100000
10000000
00100000
01000000
00010000
01000000
00010000
00100000
00001000
00100000
00001000
00010000
00000100
00010000
00000100
,  // measure 8
00000010
00000010
00000000
00000001
00000001
00000000
00000100
00000100
,  // measure 9
00000010
00000010
00000000
00010000
00010000
00000000
00001000
00001000
,  // measure 10
00100000
00100000
01000000
01000000
10000000
10000000
00100000
00100000
,  // measure 11
00010000
00010000
00001000
00001000
00000010
00000010
00000100
00000100
,  // measure 12
00001000
00000000
00000100
00001000
00000001
00000000
00000100
00000000
00000010
00000000
00001000
00000100
00000010
00000000
00000100
00000000
,  // measure 13
00010000
00000000
00001000
01000000
00100000
00000000
00010000
00000000
00001000
00000000
00100000
01000000
10000000
00000000
00100000
00000000
,  // measure 14
01000000
00100000
01000000
00100000
00010000
00001000
00010000
00001000
00000010
00000100
00000010
00000100
00001000
00000001
00001000
00000001
,  // measure 15
00000200
00000000
00000000
00000010
00000010
00000010
00000010
00000010
,  // measure 16
00000301
00001000
00000100
00000000
00000110
00000000
00000000
00000000
00000010
00000001
00001000
00000000
00000010
00000000
00000100
00001000
,  // measure 17
00010000
00000000
00001000
00000000
01000000
00000000
00010000
00100000
01000000
00000000
10000000
00010000
01000000
00000000
00100000
00000000
,  // measure 18
10000000
00010000
00100000
00000000
01100000
00000000
00000000
00000000
01000000
00010000
00001000
00000000
00010000
00000000
00001000
00000100
,  // measure 19
00000010
00000000
00000100
00000000
00000001
00000000
00000010
00000100
00001000
00000000
00000010
00000100
00000001
00000000
00000100
00000000
,  // measure 20
00000010
00010000
00001000
00000000
00011000
00000000
00000000
00000000
00010000
00001000
01000000
00000000
00100000
00000000
10000000
01000000
,  // measure 21
00100000
00000000
00001000
00000000
00010000
00000000
00100000
00010000
00001000
00000000
00010000
00001000
00000010
00000000
00000100
00000000
,  // measure 22
00001000
00000001
00000100
00000000
00000101
00000000
00000001
00000000
00000010
00000100
00010000
00000000
00001000
00000000
00010000
00100000
,  // measure 23
01000000
00000000
00100000
00000000
10010000
00000000
10000000
00000000
01000000
00100000
01000000
00100000
00001000
00010000
00001000
00010000
,  // measure 24
00000020
00000000
00000000
00000000
00000000
00000000
00001030
00000001
00000010
00000100
00000010
00000001
00001000
00000010
00000100
00000010
,  // measure 25
00010000
00000000
00001000
00000000
00101000
00000000
00100000
00001000
01000000
00000000
00100000
10000000
01000000
00000000
00100000
00001000
,  // measure 26
00010000
00000010
00000100
00000000
00000101
00000000
00000000
00000000
00000001
00000010
00000100
00000000
00001100
00000000
00010000
00001000
,  // measure 27
01000000
00000000
00100000
00000000
10100000
00000000
10000000
01000000
00100000
00000000
00001000
01000000
00010000
00000000
00100000
01000000
,  // measure 28
20000000
00000000
00000000
00000000
00000000
00000000
31000000
00010000
00001000
00010000
01000000
00000000
10000000
00100000
00010000
00001000
,  // measure 29
00000010
00000000
00000001
00000000
00000001
00000100
00000010
00000100
00001000
00000000
00010000
00001000
00100000
01000000
10000000
00010000
,  // measure 30
01000000
00100000
10100000
00010000
00100000
01100000
00001000
00010000
,  // measure 31
00001000
00010000
00001000
00010000
00000010
00000100
00000010
00000100
00001000
00010000
00001000
00010000
00100000
01000000
00100000
01000000
,  // measure 32
00010000
10000000
00010000
10000000
01000000
10000000
01000000
10000000
,  // measure 33
00010000
00100000
00010000
00100000
00001000
00010000
00001000
00010000
,  // measure 34
00000010
00001000
00000010
00001000
00000001
00000010
00000001
00000010
,  // measure 35
00000100
00000000
00011000
00000000
01000000
00001000
10000000
01000000
00100000
00001000
00010000
00000010
00000100
00000001
00000010
00000100
,  // measure 36
00001000
00000000
00000010
00000100
00000001
00000000
00000010
00000000
00000100
00000000
00010000
00001000
01000000
00000000
00100000
00000000
,  // measure 37
10000000
00000000
00010000
00100000
01000000
00000000
10000000
00000000
00010000
00000000
01000000
00001000
00010000
00000000
00000100
00000000
,  // measure 38
00000010
00000001
00000100
00000010
00000100
00001000
00010000
01000000
00100000
00010000
00100000
01000000
10000000
00100000
01000000
00001000
,  // measure 39
00020000
00000000
00000000
00000000
00031000
00000010
00000100
00000000
,  // measure 40
00010000
00001000
00100000
00010000
01000000
00100000
10000000
00010000
,  // measure 41
10000000
01000000
00100000
00001000
00010000
00000010
00000100
00000001
,  // measure 42
00001000
00000100
00000010
00000001
00000100
00000010
00010000
00001000
,  // measure 43
00100000
01000000
10000000
00100000
01000000
00001000
00010000
00000100
,  // measure 44
00000010
00000001
00000100
00000010
00001000
00000001
00000100
00001000
,  // measure 45
00010000
00001000
00000100
00000001
00000010
00001000
00010000
00001000
,  // measure 46
00000010
00000001
00000100
00001000
00010000
01000000
10000000
00100000
,  // measure 47
00010000
00001000
00010000
00100000
10000000
01000000
00010000
00001000
,  // measure 48
00010000
01000000
10000000
00100000
00010000
00001000
01000000
00100000
,  // measure 49
00010000
00001000
00100000
01000000
00010000
00001000
00100000
01000000
,  // measure 50
00010000
00001000
00000010
00000100
00001000
00000010
00000100
00001000
,  // measure 51
00010000
00000010
00000100
00001000
00010000
00000010
00000100
00001000
,  // measure 52
00010000
00000100
00000010
00000001
00000100
00000010
00000100
00001000
,  // measure 53
00010000
00100000
01000000
00010000
10000000
01000000
00100000
01000000
,  // measure 54
00010000
00001000
00000010
00000100
,  // measure 55
00001000
00000100
00000010
00000001
00000100
00000010
00010000
00001000
,  // measure 56
01000000
00100000
10000000
00010000
10000000
01000000
00100000
00001000
,  // measure 57
00010000
00000010
00001000
00000001
00000100
00000010
00010000
00001000
,  // measure 58
00100000
01000000
10000000
00010000
10000000
01000000
00100000
00001000
,  // measure 59
00010000
00000100
00000010
00000100
00001000
00000001
00000100
00000010
,  // measure 60
00010000
00001000
00000010
00000001
00000010
00001000
00010000
00100000
,  // measure 61
10000000
00100000
00010000
00001000
00000100
00000001
00000100
00001000
,  // measure 62
00010000
01000000
10000000
01000000
00010000
00001000
00000010
00000001
,  // measure 63
00000010
00001000
00010000
00100000
20000000
00000000
00000000
00000000
,  // measure 64
31000000
00010000
00001000
00000100
00000001
00000010
00001000
00010000
,  // measure 65
00001000
00000010
00000001
00000100
00000040
00000000
00000000
00000000
,  // measure 66
00001030
00000001
00000100
00001000
00010000
01000000
10000000
00100000
,  // measure 67
00010000
00100000
10000000
01000000
00100000
00001000
00010000
00000010
,  // measure 68
00000400
00000000
00000301
00000010
00001000
00010000
00100000
10000000
,  // measure 69
01000000
00010000
00001000
00000100
00000004
00000000
00000000
00000000
,  // measure 70
00000013
00000000
00000000
00000000
,  // measure 71
00001000
00010000
01000000
10000000
00100000
01000000
00010000
10000000
,  // measure 72
01000000
00100000
00001000
00000000
00011000
00000000
00000000
00000000
,  // measure 73
00010000
00000010
00000100
00000000
00000101
00000000
00000001
00000010
,  // measure 74
00000100
00000000
00010000
00000000
00011000
00000000
00001000
01000000
,  // measure 75
00100000
00000000
10000000
01000000
00100000
00001000
00010000
00000010
,  // measure 76
00000100
00000001
00001000
00000000
00001100
00000000
00000100
00000000
,  // measure 77
00000010
00000001
00000100
00001000
00010000
00000000
00001000
00100000
,  // measure 78
01000000
10000000
00000000
00100000
00010000
00000000
00100000
10000000
,  // measure 79
00000000
00001000
00010000
00000000
00000100
00001000
00000001
00000100
,  // measure 80
00000010
00010000
00001000
00000000
00011000
00000000
00010000
00100000
,  // measure 81
10000000
01000000
00010000
00001000
00000010
00000000
00000100
00001000
,  // measure 82
00000000
00000001
00000100
00000000
00001000
00010000
00000000
00000000
,  // measure 83
10100000
00000000
00000000
00011000
00000000
00000000
00000011
00000000
,  // measure 84
00001100
00010000
00001000
01010000
,  // measure 85
00001000
00010000
00001010
00010000
,  // measure 86
00001000
00110000
00001000
01000000
,  // measure 87
00100000
00010000
00001000
00010000
00001000
00000010
00001000
00000010
,  // measure 88
00000002
00000000
00000100
00000000
,  // measure 89
00001000
00000000
00000000
00000103
,  // measure 90
00000001
00000000
00000010
00000000
00001000
00000000
00010000
00000000
00000000
00000000
00000000
00000000
,  // measure 91
00001000
00000000
00010000
00000000
00100000
00000000
10000000
00000000
01000000
00000000
00010000
00000000
,  // measure 92
00001000
00000000
00000000
00000000
00000000
00000000
00000011
00000000
00000000
00000000
00001000
00000000
,  // measure 93
00001100
00000000
00000000
00000000
01000000
00000000
01001000
00000000
00000000
00000000
00010000
00000000
,  // measure 94
10010000
00000000
00000000
00000000
00000000
00000000
00000000
10000000
00000000
00000000
00000000
00000000
01000000
00000000
00000000
00010000
00000000
00000000
00001000
00000000
00000000
00000100
00000000
00000000
,  // measure 95
00000004
00000000
00000000
00000000
00000000
00000000
00001003
00000100
00001000
00000100
00001000
00000100
,  // measure 96
00002000
00000000
00000000
00000000
00003001
00000100
00000010
00000100
,  // measure 97
00001000
00010000
00100000
01000000
00010000
10000000
01000000
00100000
,  // measure 98
01000000
00000000
00010000
00000000
00001000
00000000
00000100
00000000
00000001
00000000
00000010
00000000
,  // measure 99
00001000
00000000
00010000
00000000
00100000
00000000
10000000
00000000
00000000
00000000
00000000
00000000
,  // measure 100
01000000
00100000
01000000
00100000
00001000
00010000
00001000
00010000
,  // measure 101
00000010
00000100
00000010
00000100
00001000
00010000
00001000
00010000
,  // measure 102
00100000
01000000
00100000
01000000
00010000
10000000
00010000
10000000
,  // measure 103
01000000
00010000
00001000
00000100
00000001
00000010
00001000
00010000
,  // measure 104
00100000
01000000
00000000
00010000
10000000
00000000
01000000
00100000
,  // measure 105
00001000
00010000
00000000
00000010
00000010
00000010
00000010
00000010
,  // measure 106
00001000
00000100
00000010
00000001
00000100
00001000
00010000
01000000
,  // measure 107
00100000
00001000
01000000
00100000
00100000
00100000
00100000
00100000
,  // measure 108
10000000
00000000
00000000
01000000
00000000
00000000
00010000
00000000
00001000
00000000
00000000
00000100
00000000
00000000
00000001
00000000
,  // measure 109
00000010
00000000
00000000
00001000
00000000
00000000
00010000
00000000
00100000
00000000
00000000
10000000
00000000
00000000
01000000
00000000
,  // measure 110
00100000
01000000
00100000
01000000
10000000
00100000
10000000
00100000
00010000
00001000
00010000
00001000
00000010
00000001
00000010
00000002
,  // measure 111
00000000
00000000
00000000
00000100
00000100
00000100
00000100
00000103
;
