#VERSION:0.83;
#TITLE:Freezing atmosphere;
#SUBTITLE:;
#ARTIST:Twin AmadeuS;
#TITLETRANSLIT:;
#SUBTITLETRANSLIT:;
#ARTISTTRANSLIT:;
#GENRE:NATURAL SOUND;
#CREDIT:;
#MUSIC:Freezing atmosphere.ogg;
#BANNER:Freezing atmosphere.png;
#BACKGROUND:Freezing atmosphere-bg.png;
#JACKET:Freezing atmosphere-jacket.png;
#DISCIMAGE:;
#CDIMAGE:;
#SELECTABLE:YES;
#LYRICSPATH:;
#CDTITLE:../_YSD cdtitles/ysd xmas2023 cdtitle.png;
#SAMPLESTART:16.662001;
#SAMPLELENGTH:26.667000;
#OFFSET:0.675;
#BPMS:0.000=135.000;
#STOPS:;
#WARPS:;
#DELAYS:;
#SPEEDS:0.000=1.000=0.000=0;
#SCROLLS:0.000=1.000;
#TICKCOUNTS:0.000=4;
#TIMESIGNATURES:0.000=4=4,
140.000=2=4,
142.000=4=4
;
#LABELS:0.000=Song Start;
#COMBOS:0.000=1;
#FAKES:;
#BGCHANGES:0=Freezing atmosphere.mp4=1.000=0=0=0=StretchNoLoop====,
99999=-nosongbg-=1.000=0=0=0=====
;
#FGCHANGES:;
#ATTACKS:;
#TAGS:;
#PREVIEWVID:;
#DISPLAYBPM:135.000000;
#KEYSOUNDS:;

//---------------dance-single - ---------------
#NOTEDATA:;
#CHARTNAME:;
#CHARTSTYLE:;
#CREDIT:YOSEFU;
#STEPSTYPE:dance-single;
#DESCRIPTION:;
#DIFFICULTY:Beginner;
#METER:1;
#METERF:0;
#RADARVALUES:0.082604,0.154337,0.110544,0.000000,0.000000,68.000000,55.000000,13.000000,0.000000,0.000000,0.000000,0.000000,0.000000,0.000000,0.082604,0.154337,0.110544,0.000000,0.000000,68.000000,55.000000,13.000000,0.000000,0.000000,0.000000,0.000000,0.000000,0.000000;
#CHARTHASH:2771076972;
#BANNER:;
#LASTSECONDHINT:106.884560;
#DISPLAYBPM:135.000000;
#NOTES:
// measure 0
0000
0000
0000
0000
,  // measure 1
0000
0000
0000
0000
,  // measure 2
0000
0000
0000
0000
,  // measure 3
0000
0000
0000
0000
,  // measure 4
0000
0000
0000
0000
,  // measure 5
0000
0000
0000
0000
,  // measure 6
1000
0000
0000
0000
,  // measure 7
0001
0000
0000
0000
,  // measure 8
0100
0000
0000
0000
,  // measure 9
0010
0000
0000
0000
,  // measure 10
1001
0000
0000
0000
,  // measure 11
1000
0000
0000
0000
,  // measure 12
0100
0000
0000
0000
,  // measure 13
0010
0000
0000
0000
,  // measure 14
0001
0000
0000
0000
,  // measure 15
0100
0000
0000
0000
,  // measure 16
0010
0000
0000
0000
,  // measure 17
1000
0000
0000
0000
,  // measure 18
1001
0000
0000
0000
,  // measure 19
0001
0000
0000
0000
,  // measure 20
0010
0000
0000
0000
,  // measure 21
0100
0000
0000
0000
,  // measure 22
1001
0000
0000
0000
,  // measure 23
0100
0000
0000
0000
,  // measure 24
0110
0000
0000
0000
,  // measure 25
1001
0000
0000
0000
,  // measure 26
0110
0000
0000
0000
,  // measure 27
1000
0000
0000
0000
,  // measure 28
0100
0000
0000
0000
,  // measure 29
0010
0000
0000
0000
,  // measure 30
0001
0000
0000
0000
,  // measure 31
0100
0000
0000
0000
,  // measure 32
0010
0000
0000
0000
,  // measure 33
1000
0000
0000
0000
,  // measure 34
0001
0000
0000
0000
,  // measure 35
0000
0000
1001
0000
,  // measure 36
0000
0000
1000
0000
,  // measure 37
0000
0000
0100
0000
,  // measure 38
0000
0000
0010
0000
,  // measure 39
0000
0000
1001
0000
,  // measure 40
0000
0000
0001
0000
,  // measure 41
0000
0000
0100
0000
,  // measure 42
0000
0000
0010
0000
,  // measure 43
0000
0000
1001
0000
,  // measure 44
0000
0000
1000
0000
,  // measure 45
0000
0000
0100
0000
,  // measure 46
0000
0000
0010
0000
,  // measure 47
0000
0000
1001
0000
,  // measure 48
0000
0000
0001
0000
,  // measure 49
0000
0000
0110
0000
,  // measure 50
0000
0000
1001
0000
,  // measure 51
0000
0000
0110
0000
,  // measure 52
0000
0000
1000
0000
,  // measure 53
0000
0000
0010
0000
,  // measure 54
0000
0000
0100
0000
,  // measure 55
0000
0000
0001
0000
,  // measure 56
0000
0000
0010
0000
,  // measure 57
0000
0000
0100
0000
,  // measure 58
0000
0000
1000
0000
,  // measure 59
0000
0000
0001
0000
,  // measure 60
0000
0000
1000
0000
;

//---------------dance-single - ---------------
#NOTEDATA:;
#CHARTNAME:;
#CHARTSTYLE:;
#CREDIT:YOSEFU;
#STEPSTYPE:dance-single;
#DESCRIPTION:;
#DIFFICULTY:Easy;
#METER:3;
#METERF:0;
#RADARVALUES:0.185860,0.274235,0.119048,0.034014,0.000000,153.000000,139.000000,14.000000,4.000000,0.000000,0.000000,0.000000,0.000000,0.000000,0.185860,0.274235,0.119048,0.034014,0.000000,153.000000,139.000000,14.000000,4.000000,0.000000,0.000000,0.000000,0.000000,0.000000;
#CHARTHASH:888635317;
#BANNER:;
#LASTSECONDHINT:113.995667;
#DISPLAYBPM:135.000000;
#NOTES:
// measure 0
0000
0000
0000
0000
,  // measure 1
0000
0000
0000
0000
,  // measure 2
0000
0000
0000
0000
,  // measure 3
0000
0000
0000
0000
,  // measure 4
0000
0000
0000
0000
,  // measure 5
0000
0000
0000
0000
,  // measure 6
1000
0000
0001
0000
,  // measure 7
0100
0000
0001
0000
,  // measure 8
0010
0000
0100
0000
,  // measure 9
1000
0000
0001
0000
,  // measure 10
1001
0000
1000
0000
,  // measure 11
0010
0000
0100
0000
,  // measure 12
0001
0000
0010
0000
,  // measure 13
0100
0000
0010
0000
,  // measure 14
0110
0000
0100
0000
,  // measure 15
1000
0000
0001
0000
,  // measure 16
0100
0000
0010
0000
,  // measure 17
1000
0000
0100
0000
,  // measure 18
0110
0010
0001
0000
,  // measure 19
1000
0010
0100
0000
,  // measure 20
0001
1000
0100
0000
,  // measure 21
0010
0100
1000
0000
,  // measure 22
0101
0100
0010
0000
,  // measure 23
1000
0001
0010
0000
,  // measure 24
0110
0100
1000
0000
,  // measure 25
1001
0001
0100
0000
,  // measure 26
1010
1000
0001
0000
,  // measure 27
1000
0000
0001
0000
,  // measure 28
0100
0000
0010
1000
,  // measure 29
0010
0000
0100
0000
,  // measure 30
0001
0000
1000
0100
,  // measure 31
1000
0000
0001
0000
,  // measure 32
0100
0000
0010
1000
,  // measure 33
0010
0000
0100
0000
,  // measure 34
0002
0003
0020
0030
,  // measure 35
0200
0300
1001
0001
,  // measure 36
1000
0000
0100
0010
,  // measure 37
0001
0000
1000
0010
,  // measure 38
0100
0000
0001
1000
,  // measure 39
0100
0000
0110
0100
,  // measure 40
1000
0000
0001
0100
,  // measure 41
0010
0000
1000
0001
,  // measure 42
0010
0000
0100
1000
,  // measure 43
0001
0000
0101
0100
,  // measure 44
0001
0000
1000
0100
,  // measure 45
0010
0000
0100
1000
,  // measure 46
0001
0000
0100
0010
,  // measure 47
1000
0000
1001
0001
,  // measure 48
0010
0000
0100
1000
,  // measure 49
0001
0000
1010
0010
,  // measure 50
1000
0000
0101
0001
,  // measure 51
1000
0000
1100
1000
,  // measure 52
0001
0000
0100
0000
,  // measure 53
0001
0000
1000
0000
,  // measure 54
0100
0000
0010
0000
,  // measure 55
0001
0000
1000
0000
,  // measure 56
0010
0000
0100
0000
,  // measure 57
0001
0000
1000
0000
,  // measure 58
0100
0000
0010
0000
,  // measure 59
0001
0000
0100
0000
,  // measure 60
0010
0000
2000
0000
,  // measure 61
0000
0000
0000
0000
,  // measure 62
0000
0000
0000
0000
,  // measure 63
0000
0000
0000
0000
,  // measure 64
0000
0000
3000
0000
;

//---------------dance-single - ---------------
#NOTEDATA:;
#CHARTNAME:;
#CHARTSTYLE:;
#CREDIT:YOSEFU;
#STEPSTYPE:dance-single;
#DESCRIPTION:;
#DIFFICULTY:Medium;
#METER:7;
#METERF:0;
#RADARVALUES:0.343780,0.411352,0.051020,0.399660,0.000000,283.000000,277.000000,6.000000,47.000000,0.000000,0.000000,0.000000,0.000000,0.000000,0.343780,0.411352,0.051020,0.399660,0.000000,283.000000,277.000000,6.000000,47.000000,0.000000,0.000000,0.000000,0.000000,0.000000;
#CHARTHASH:1088024634;
#BANNER:;
#LASTSECONDHINT:113.995667;
#DISPLAYBPM:135.000000;
#NOTES:
// measure 0
0000
0000
0000
0000
,  // measure 1
0000
0000
0000
0000
,  // measure 2
0000
0000
0000
0000
,  // measure 3
0000
0000
0000
0000
,  // measure 4
0000
0000
0000
0000
,  // measure 5
0000
0000
0000
0000
,  // measure 6
0000
0000
0000
0000
,  // measure 7
0000
0000
0000
0000
,  // measure 8
1000
0010
1010
1000
,  // measure 9
0001
1000
0100
1000
0020
0000
1030
0001
,  // measure 10
2000
0000
0100
0000
0010
0000
3100
1000
,  // measure 11
0001
0100
0001
0010
,  // measure 12
0100
0000
1000
0001
0200
0000
0010
0000
,  // measure 13
0302
0000
0100
0000
1003
0000
0100
0010
,  // measure 14
0002
0100
0010
2003
,  // measure 15
3100
0000
0010
0100
1000
0000
0001
0100
,  // measure 16
0010
0000
1000
0001
0010
0000
0100
1000
,  // measure 17
0001
0000
0100
0010
1000
0000
0001
0010
,  // measure 18
0200
1000
0010
1000
,  // measure 19
0310
0000
0001
1000
0010
0000
0100
0001
,  // measure 20
2000
0000
0100
0000
0010
0000
3100
1000
,  // measure 21
0001
0000
0100
0010
1000
0000
0001
0010
,  // measure 22
0200
0000
0010
0000
1000
0000
0310
1000
,  // measure 23
0001
0000
0100
0010
0001
0000
0010
1000
,  // measure 24
0002
0010
0100
1000
,  // measure 25
0103
0000
0010
1000
0100
0000
0001
0100
,  // measure 26
2000
0000
0100
0000
3001
0010
0100
1000
,  // measure 27
0010
0100
0002
0000
1003
0100
2000
0000
,  // measure 28
3001
0100
0002
0000
2003
0000
3200
0000
,  // measure 29
0310
0001
0020
0000
0130
1000
0200
0000
,  // measure 30
1300
0001
2000
0000
3020
0000
0032
0000
,  // measure 31
0013
0100
0020
0000
1030
0001
2000
0000
,  // measure 32
3100
0010
0200
0000
2300
0000
3002
0000
,  // measure 33
0103
0010
0200
0000
0301
1000
0002
0000
,  // measure 34
0023
0230
2300
3002
,  // measure 35
0203
0300
0120
1000
,  // measure 36
0100
0000
1030
0001
0010
0000
0100
1000
,  // measure 37
0010
0000
0100
0001
0020
0000
0100
0000
,  // measure 38
1000
0001
0230
0001
,  // measure 39
1000
0000
0310
0001
0200
0000
1300
0002
,  // measure 40
0000
0103
0001
0010
0200
0000
1300
0010
,  // measure 41
0000
0100
0001
0010
0100
0000
1000
0001
,  // measure 42
0100
0000
0010
0001
0020
0000
0100
0000
,  // measure 43
1030
0100
0010
0001
0100
0001
1000
0001
,  // measure 44
0100
0001
1000
0100
0020
0000
1000
0000
,  // measure 45
0031
1000
0010
1000
0002
0000
0100
0000
,  // measure 46
0010
0000
1003
0100
0010
0001
2000
0000
,  // measure 47
0010
0000
3100
0010
0001
0000
1000
0010
,  // measure 48
0000
1000
0100
0000
0001
0000
0100
0010
,  // measure 49
0001
0000
1000
0010
0100
0000
0001
1000
,  // measure 50
0100
0000
0010
0001
0200
0000
0010
0000
,  // measure 51
1000
0010
0001
1000
,  // measure 52
0310
1000
0001
0010
0100
0000
1000
0000
,  // measure 53
1100
0000
0100
0000
1000
0001
0100
0001
,  // measure 54
0010
0000
0001
1000
,  // measure 55
1010
0000
0010
0000
0100
0001
0010
1000
,  // measure 56
0020
0000
0031
0100
,  // measure 57
0110
0000
0010
0000
1000
0100
0010
0001
,  // measure 58
0100
0000
0001
0100
,  // measure 59
0110
0000
0010
0000
1000
0100
0010
0001
,  // measure 60
2000
0000
3020
0000
,  // measure 61
0000
0000
0000
0000
,  // measure 62
0000
0000
0000
0000
,  // measure 63
0000
0000
0000
0000
,  // measure 64
0000
0000
0030
0000
;

//---------------dance-single - ---------------
#NOTEDATA:;
#CHARTNAME:;
#CHARTSTYLE:;
#CREDIT:YOSEFU;
#STEPSTYPE:dance-single;
#DESCRIPTION:;
#DIFFICULTY:Hard;
#METER:12;
#METERF:0;
#RADARVALUES:0.464043,0.603316,0.059524,0.263605,0.374150,382.000000,375.000000,7.000000,31.000000,0.000000,0.000000,0.000000,0.000000,0.000000,0.464043,0.603316,0.059524,0.263605,0.374150,382.000000,375.000000,7.000000,31.000000,0.000000,0.000000,0.000000,0.000000,0.000000;
#CHARTHASH:2723663253;
#BANNER:;
#LASTSECONDHINT:113.995667;
#DISPLAYBPM:135.000000;
#NOTES:
// measure 0
0000
0000
0000
0000
,  // measure 1
0000
0000
0000
0000
,  // measure 2
0000
0000
0000
0000
,  // measure 3
0000
0000
0000
0000
,  // measure 4
0000
0000
0000
0000
,  // measure 5
0000
0000
0000
0000
,  // measure 6
1000
0000
0001
0000
0100
0000
0000
0000
0001
0000
0000
1000
0100
0000
0010
0000
,  // measure 7
0001
0100
0010
0001
0010
0000
1000
0000
,  // measure 8
0010
0000
0100
0000
0001
0000
0000
0000
1000
0000
0000
0100
0010
0000
0001
0000
,  // measure 9
1000
0000
0010
0000
0100
0000
1000
0000
0100
0000
0000
0000
0010
1000
0010
1000
,  // measure 10
0002
0000
0000
0000
0000
0000
0100
0000
0100
0000
0000
0000
0000
0000
1003
0010
,  // measure 11
0100
0000
0000
0010
0000
0000
1000
0000
0100
0000
0000
0010
0000
0000
0001
0000
,  // measure 12
0200
0000
0000
0301
2000
0000
0000
0000
,  // measure 13
0010
0000
0000
0000
0000
0000
0001
0000
3001
0000
0000
0000
0100
0001
0100
0001
,  // measure 14
2000
0000
0000
0100
0100
0000
3020
0000
,  // measure 15
0130
0000
0000
0000
1000
0000
0100
0000
0010
0000
0000
1000
0000
0000
0001
0000
,  // measure 16
0020
0000
0000
0000
0000
0000
0130
0000
0200
0000
0000
0000
0000
0000
1300
0001
,  // measure 17
2000
0000
0000
0000
0000
0000
3010
0000
0010
1000
0000
0010
1000
0000
0001
1000
,  // measure 18
0002
0100
0010
1003
,  // measure 19
0100
0000
0000
0010
0000
0000
1000
0000
0010
0000
0000
0100
0000
0000
1000
0000
,  // measure 20
0002
0000
0000
0000
0010
0000
0000
0000
0100
0000
0000
0000
1003
0000
0001
0100
,  // measure 21
0001
0000
0000
0010
0000
0000
1000
0000
0010
0000
0000
0100
0000
0000
1000
0000
,  // measure 22
0002
0000
0000
0000
0100
0000
0000
0000
0010
0000
0000
0000
1003
0000
0001
0010
,  // measure 23
0001
0000
0000
1000
0000
0000
0010
0000
1000
0000
0000
0100
0000
0000
0001
0000
,  // measure 24
0200
0010
1000
0310
,  // measure 25
0001
0000
0000
0100
0000
0000
1000
0000
0100
0000
0000
0010
0000
0000
1000
0000
,  // measure 26
0002
0000
0000
0000
0100
0000
0000
0000
1003
0100
0000
1000
0001
0100
0001
1000
,  // measure 27
0001
0100
0020
0000
1030
0100
0020
0000
,  // measure 28
0031
0100
0001
0010
2000
0000
3020
0000
,  // measure 29
0031
0100
0020
0000
1030
0100
0020
0000
,  // measure 30
0130
0000
1000
0000
0001
0000
0100
0000
1000
0000
0000
0100
0010
0000
1000
0000
,  // measure 31
0001
0100
0010
0100
0001
1000
0100
1000
,  // measure 32
0010
0000
0100
0000
0001
0000
0010
0000
1000
0000
0000
0010
0100
0000
1000
0000
,  // measure 33
0001
0100
0102
0000
1003
0010
2010
0000
,  // measure 34
3001
0100
1000
0100
0010
1000
0100
0001
,  // measure 35
0100
0000
0000
0000
0000
0000
0000
0000
0000
0000
0000
0000
0010
0000
0000
0000
0000
0000
0000
0000
0000
0000
0000
0000
0000
0000
0000
0001
0000
0000
0000
0000
1000
0000
0000
0000
0000
0001
0000
0000
0000
0000
1000
0000
0000
0000
0000
0000
0010
0000
0000
0000
0000
0000
0000
0000
0000
0000
0000
0000
0000
0000
0000
0000
0000
0000
0100
0000
0000
0000
0000
0000
0001
0000
0000
0000
0000
0000
0000
0000
0000
0000
0000
0000
1000
0000
0000
0000
0000
0000
0000
0000
0000
0000
0000
0000
,  // measure 36
0100
0000
0010
0000
0001
0000
0100
0001
1000
0000
0000
0010
0000
0000
0100
0000
,  // measure 37
0001
0000
0000
0000
0000
0000
0000
0000
0000
0010
0000
0000
0000
0000
0000
0000
0000
0000
1000
0000
0000
0000
0000
0000
0010
0000
0000
0000
0000
0000
0100
0000
0000
1000
0000
0000
0000
0000
0000
0000
0001
0000
0000
0000
1000
0000
0000
0000
,  // measure 38
0000
0000
0000
0000
0010
0000
0000
0000
0000
0000
0000
0000
0100
0000
0000
0000
0000
0000
0001
0000
0000
0000
0000
0000
0001
0000
0000
0000
0000
0000
0000
0000
0000
0100
0000
0000
0001
0000
0000
0000
0000
0000
0010
0000
0000
0000
0000
0000
,  // measure 39
0010
0000
0000
0100
1000
0001
0100
0001
2000
0000
0000
0000
3010
0000
1000
0000
,  // measure 40
0001
0000
0000
0000
0010
0000
0100
1000
0001
0000
0000
0000
0100
0000
2000
0000
,  // measure 41
0000
0000
0000
0000
3100
0010
0100
0001
1000
0000
0000
0100
0000
0000
0001
0000
,  // measure 42
0100
0000
0000
0010
0001
0000
1000
0000
0010
0000
0000
0001
0000
0000
0010
0000
,  // measure 43
1000
0000
0000
0001
0000
0000
0000
0000
0000
0100
0000
0000
0001
0000
0000
1000
0000
0000
0100
0000
0000
1000
0000
0000
0001
0000
0000
0100
0000
0000
0000
0000
0000
0001
0000
0000
0100
0000
0000
0000
0000
0000
0001
0000
1000
0000
0000
0000
,  // measure 44
0000
0000
0000
0001
0000
1000
0000
0000
0000
0000
0000
0000
0100
0000
0000
0000
0000
0000
0010
0000
0000
0000
0000
0000
0001
0000
0000
0000
0000
0000
0000
0000
0000
1000
0000
0000
0010
0000
0000
0000
0000
0000
0100
0000
0000
0000
0000
0000
,  // measure 45
0001
1000
0000
0100
1000
0000
0001
0000
0100
0000
0000
0010
0000
0000
1000
0000
,  // measure 46
0001
0000
0000
0000
0000
0000
0000
0000
0000
0010
0000
0000
0200
0000
0000
0000
0000
0000
0000
0000
0000
0000
0000
0000
1300
0000
0000
0001
0000
0000
0100
0000
0000
0000
0000
0000
0010
0000
0000
0000
1000
0000
0000
0000
0000
0000
0100
0000
,  // measure 47
0000
0000
0010
0000
0000
0000
0001
1000
0010
0000
0100
0000
0100
0000
2000
0000
,  // measure 48
0000
3100
0001
0010
2000
0000
3010
0100
,  // measure 49
1000
0001
0000
0100
0001
1000
0100
0010
0001
0000
0000
0100
0000
0000
1000
0000
,  // measure 50
0100
0000
0000
0010
0000
0000
1000
0000
0100
0000
0000
0010
0000
0000
0000
0000
,  // measure 51
0001
0000
0000
1000
0010
0000
0100
0001
2000
0000
0000
0000
0100
0000
0000
0000
,  // measure 52
3001
0100
0000
0001
0100
0010
1000
0001
1000
0000
0100
0000
0010
0000
0000
0000
,  // measure 53
0011
0001
1000
0010
0100
0001
0010
0100
,  // measure 54
1100
0000
0000
0000
1000
0001
0100
0000
,  // measure 55
0101
0001
0010
0100
1000
0010
0100
0001
,  // measure 56
0101
0000
0000
0000
1000
0100
0010
0001
,  // measure 57
0201
0000
0000
0000
0000
0000
0310
1000
0002
0000
0000
0000
0010
0000
0000
0000
,  // measure 58
1003
0000
0000
0000
0000
0000
0000
0000
0000
0000
0000
0000
0100
0000
0000
0000
0000
0000
0010
0000
0000
0001
0000
0000
1000
0000
0000
0000
0000
0000
0010
0000
0000
0000
0000
0000
0100
0000
0000
0000
0001
0000
0000
0000
0010
0000
0000
0000
,  // measure 59
0100
0000
1000
0000
0010
0000
0000
0020
0000
0000
0001
0000
0000
0000
0100
0000
,  // measure 60
1030
0000
0002
0000
,  // measure 61
0000
0000
0000
0000
,  // measure 62
0000
0000
0000
0000
,  // measure 63
0000
0000
0000
0000
,  // measure 64
0000
0000
0003
0000
;
