#VERSION:0.83;
#TITLE:Fascinate Stomp;
#SUBTITLE:;
#ARTIST:Srav3R feat. aran;
#TITLETRANSLIT:;
#SUBTITLETRANSLIT:;
#ARTISTTRANSLIT:;
#GENRE:Hardcore;
#ORIGIN:N3XTAGE [DR-0002];
#TAGS:;
#CREDIT:skeleton made by DJEmbrace;
#BANNER:Fascinate Stomp.png;
#BACKGROUND:Fascinate Stomp-bg.png;
#PREVIEWVID:;
#JACKET:Fascinate Stomp-jacket.png;
#CDIMAGE:;
#DISCIMAGE:;
#LYRICSPATH:;
#CDTITLE:../_YSD cdtitles/ysd sale3 cdtitle.png;
#MUSIC:Fascinate Stomp.ogg;
#OFFSET:0.000000;
#SAMPLESTART:43.882999;
#SAMPLELENGTH:21.943001;
#SELECTABLE:YES;
#BPMS:0.000000=175.000000
;
#STOPS:;
#DELAYS:;
#WARPS:;
#TIMESIGNATURES:0.000000=4=4
;
#TICKCOUNTS:0.000000=4
;
#COMBOS:0.000000=1
;
#SPEEDS:0.000000=1.000000=0.000000=0
;
#SCROLLS:0.000000=1.000000
;
#FAKES:;
#LABELS:0.000000=Song Start
;
#BGCHANGES:;
#KEYSOUNDS:;
#ATTACKS:
;

//---------------dance-single - ----------------
#NOTEDATA:;
#CHARTNAME:;
#CHARTHASH:1582541504;
#STEPSTYPE:dance-single;
#BANNER:;
#DESCRIPTION:;
#CHARTSTYLE:;
#DIFFICULTY:Hard;
#METER:13;
#METERF:0.000000;
#LASTSECONDHINT:109.542854;
#RADARVALUES:0.656732,0.683991,0.054084,0.243377,0.027042,510.000000,504.000000,6.000000,27.000000,0.000000,0.000000,0.000000,0.000000,0.000000,0.656732,0.683991,0.054084,0.243377,0.027042,510.000000,504.000000,6.000000,27.000000,0.000000,0.000000,0.000000,0.000000,0.000000;
#CREDIT:Yosefu Stomps;
#NOTES:
// measure 0
0000
0000
0000
0000
,  // measure 1
0000
0000
0000
0000
,  // measure 2
0000
0000
0000
0000
,  // measure 3
0000
0000
0000
0000
,  // measure 4
1000
0010
1000
0010
0000
0100
0001
0100
,  // measure 5
0001
1000
0001
1000
0000
0100
0010
0000
,  // measure 6
0001
0100
0001
0100
0000
0010
1000
0010
,  // measure 7
1000
0001
1000
0001
1000
0100
0010
0000
,  // measure 8
0001
0100
0010
0100
0000
0001
1000
0100
,  // measure 9
1000
0001
1000
0010
0000
0100
0001
0000
,  // measure 10
1000
0100
0010
0100
0000
1000
0001
0100
,  // measure 11
0010
0100
0001
1000
0000
0100
0010
0000
,  // measure 12
0001
0100
0010
0100
0000
0001
1000
0100
,  // measure 13
0010
0100
1000
0001
0000
0100
0010
0000
,  // measure 14
1000
0100
0010
0001
0100
0010
1000
0001
,  // measure 15
0010
0000
0000
0100
1000
0000
0001
0000
0000
0100
0010
0000
1000
0000
0000
0000
,  // measure 16
2001
0000
0000
3020
0000
0000
0230
0000
,  // measure 17
0000
0000
0000
0000
,  // measure 18
0302
0000
0000
0000
,  // measure 19
0023
0000
0230
0000
,  // measure 20
1300
1000
0010
0010
,  // measure 21
0100
0100
0001
0001
,  // measure 22
1000
0001
0000
0200
0000
0310
1000
0001
,  // measure 23
2000
0000
3000
1001
,  // measure 24
0001
0100
0010
2000
0000
3200
0000
0320
,  // measure 25
0000
0031
1000
0020
0000
0000
0130
0010
,  // measure 26
1000
0001
0000
0020
0030
0100
1000
0200
,  // measure 27
0000
0310
0001
1000
0000
0001
0100
0001
,  // measure 28
1000
0100
0010
2000
0000
3020
0000
0032
,  // measure 29
0000
1003
0010
0100
0000
0001
1000
0100
,  // measure 30
0010
0001
0000
2000
3000
0010
0100
0001
,  // measure 31
2000
0000
0001
0000
3001
0010
0100
0000
,  // measure 32
1000
0010
0100
0001
0010
0001
0100
0001
,  // measure 33
1000
0001
0100
0010
1000
0000
0100
0010
,  // measure 34
0001
0100
0001
2000
3000
0010
0100
0002
,  // measure 35
0000
1003
0100
0010
0000
0001
0100
0010
,  // measure 36
1000
0100
0010
1000
0010
0100
1000
0010
,  // measure 37
1000
0001
0100
0010
1000
0100
0010
0001
,  // measure 38
1000
0010
0100
0002
0003
0010
0100
2000
,  // measure 39
0000
3010
0100
0001
0000
1000
0100
0010
,  // measure 40
0001
0100
0010
1000
0001
0100
0001
0010
,  // measure 41
0001
1000
0100
0010
0001
0000
0100
0010
,  // measure 42
1000
0001
0010
0200
0300
1000
0001
0200
,  // measure 43
0000
0310
1000
0001
0000
0010
0100
1000
,  // measure 44
0001
0100
0010
0001
0010
0100
0001
0010
,  // measure 45
0100
1000
0010
0100
0001
1000
0100
0010
,  // measure 46
0001
1000
0000
0010
0000
0100
0001
0100
,  // measure 47
0020
0000
0030
1010
,  // measure 48
1000
0010
0100
0010
1000
0001
0010
0001
,  // measure 49
1000
0100
0010
0100
1000
0001
0100
0010
,  // measure 50
1000
0001
0010
0100
0010
0001
1000
0010
,  // measure 51
0100
0001
0010
0100
1000
0001
0100
0010
,  // measure 52
0100
0001
1000
0100
0010
0001
0100
0010
,  // measure 53
1000
0001
0010
0100
0010
0001
1000
0010
,  // measure 54
0100
0001
0010
0100
1000
0001
0100
0010
,  // measure 55
1000
0001
0010
0100
0010
0001
1000
0000
,  // measure 56
0001
0100
0010
0100
0001
1000
0100
0010
,  // measure 57
0001
0100
0010
1000
0001
0010
0100
0010
,  // measure 58
0001
1000
0010
0001
0010
0100
0001
0010
,  // measure 59
0100
1000
0010
0100
0001
1000
0100
0010
,  // measure 60
0001
1000
0010
0100
0010
0001
0010
1000
,  // measure 61
0100
0010
0001
0100
0010
1000
0001
0000
,  // measure 62
0011
0000
0010
0001
0000
1000
0010
0100
,  // measure 63
0001
0000
1000
0100
0000
1000
0001
0000
0010
0000
0100
0000
1100
0000
0000
0000
,  // measure 64
1000
0100
0010
0100
1000
0010
0100
0001
,  // measure 65
1000
0001
0010
0100
1000
0100
0010
0100
,  // measure 66
1000
0001
0100
0001
1000
0100
1000
0010
,  // measure 67
0001
0010
0100
0010
1000
0010
0100
0010
,  // measure 68
1000
0100
0010
0100
1000
0010
0100
0001
,  // measure 69
0100
0001
0010
0100
1000
0100
0010
0100
,  // measure 70
1000
0001
0100
0001
0010
0100
1000
0010
,  // measure 71
0100
0000
0001
1000
0000
0001
0100
0000
0010
0000
1000
0000
1100
0000
0000
0000
,  // measure 72
0100
1000
0001
1000
0100
0010
0001
0100
,  // measure 73
0010
0100
0001
1000
0100
1000
0010
1000
,  // measure 74
0001
0100
0010
0100
0001
1000
0100
0010
,  // measure 75
1000
0010
0100
0010
0001
0010
0100
0010
,  // measure 76
0001
0100
0010
0100
0001
0010
0100
1000
,  // measure 77
0010
1000
0001
0100
0010
0100
0001
1000
,  // measure 78
0100
1000
0010
0010
0000
1000
0001
2000
,  // measure 79
0100
0000
0100
0000
0100
0000
0000
3000
;

//---------------dance-single - ----------------
#NOTEDATA:;
#CHARTNAME:;
#CHARTHASH:87326649;
#STEPSTYPE:dance-single;
#BANNER:;
#DESCRIPTION:;
#CHARTSTYLE:;
#DIFFICULTY:Beginner;
#METER:3;
#METERF:0.000000;
#LASTSECONDHINT:108.342857;
#RADARVALUES:0.150662,0.213631,0.090140,0.000000,0.000000,117.000000,107.000000,10.000000,0.000000,0.000000,0.000000,0.000000,0.000000,0.000000,0.150662,0.213631,0.090140,0.000000,0.000000,117.000000,107.000000,10.000000,0.000000,0.000000,0.000000,0.000000,0.000000,0.000000;
#CREDIT:YOSEFU;
#NOTES:
// measure 0
0000
0000
0000
0000
,  // measure 1
0000
0000
0000
0000
,  // measure 2
0000
0000
0000
0000
,  // measure 3
0000
0000
0000
0000
,  // measure 4
1001
0000
0000
0000
,  // measure 5
0001
0000
0000
0000
,  // measure 6
0100
0000
0000
0000
,  // measure 7
0010
0000
0000
0000
,  // measure 8
1000
0000
0000
0000
,  // measure 9
0001
0000
0000
0000
,  // measure 10
1000
0000
0000
0000
,  // measure 11
0100
0000
0000
0000
,  // measure 12
0010
0000
0000
0000
,  // measure 13
0001
0000
0000
0000
,  // measure 14
1000
0000
0000
0000
,  // measure 15
0010
0000
0000
0000
,  // measure 16
1001
0000
0000
0000
,  // measure 17
0000
0000
0000
0000
,  // measure 18
0001
0000
0000
0000
,  // measure 19
0000
0000
0000
0000
,  // measure 20
1000
0000
0000
0000
,  // measure 21
0100
0000
0000
0000
,  // measure 22
0010
0000
0000
0000
,  // measure 23
1001
0000
0000
0000
,  // measure 24
1001
0000
0000
0000
,  // measure 25
0001
0000
0000
0000
,  // measure 26
0100
0000
0000
0000
,  // measure 27
0010
0000
0000
0000
,  // measure 28
1001
0000
0000
0000
,  // measure 29
1000
0000
0000
0000
,  // measure 30
0110
0000
0000
0000
,  // measure 31
0000
0000
0000
0000
,  // measure 32
1001
0000
0001
0000
,  // measure 33
0001
0000
0100
0000
,  // measure 34
0100
0000
0010
0000
,  // measure 35
0010
0000
1000
0000
,  // measure 36
1000
0000
0001
0000
,  // measure 37
0001
0000
1000
0000
,  // measure 38
1000
0000
0100
0000
,  // measure 39
0100
0000
0010
0000
,  // measure 40
0010
0000
0001
0000
,  // measure 41
0001
0000
1000
0000
,  // measure 42
1000
0000
0010
0000
,  // measure 43
0010
0000
0100
0000
,  // measure 44
0100
0000
0001
0000
,  // measure 45
0001
0000
0010
0000
,  // measure 46
0010
0000
0000
0000
,  // measure 47
0100
0000
0000
0000
,  // measure 48
1001
0000
1000
0000
,  // measure 49
0010
0000
0010
0000
,  // measure 50
0100
0000
0100
0000
,  // measure 51
0001
0000
0001
0000
,  // measure 52
1000
0000
1000
0000
,  // measure 53
0001
0000
0001
0000
,  // measure 54
0010
0000
0010
0000
,  // measure 55
0100
0000
0100
0000
,  // measure 56
1000
0000
1000
0000
,  // measure 57
0001
0000
0001
0000
,  // measure 58
0100
0000
0100
0000
,  // measure 59
0010
0000
0010
0000
,  // measure 60
1000
0000
1000
0000
,  // measure 61
0001
0000
0001
0000
,  // measure 62
0010
0000
0000
0000
,  // measure 63
0100
0000
0000
0000
,  // measure 64
1001
0000
0000
0000
,  // measure 65
1000
0000
0000
0000
,  // measure 66
0001
0000
0000
0000
,  // measure 67
0100
0000
0000
0000
,  // measure 68
0010
0000
0000
0000
,  // measure 69
1000
0000
0000
0000
,  // measure 70
0001
0000
0000
0000
,  // measure 71
0010
0000
0000
0000
,  // measure 72
1001
0000
1000
0000
,  // measure 73
0001
0000
0001
0000
,  // measure 74
0100
0000
0100
0000
,  // measure 75
0010
0000
0010
0000
,  // measure 76
1000
0000
1000
0000
,  // measure 77
0100
0000
0100
0000
,  // measure 78
0010
0000
0000
0000
,  // measure 79
0001
0000
0000
0000
;

//---------------dance-single - ----------------
#NOTEDATA:;
#CHARTNAME:;
#CHARTHASH:2565202974;
#STEPSTYPE:dance-single;
#BANNER:;
#DESCRIPTION:;
#CHARTSTYLE:;
#DIFFICULTY:Easy;
#METER:7;
#METERF:0.000000;
#LASTSECONDHINT:109.714279;
#RADARVALUES:0.339955,0.360559,0.054084,0.162251,0.000000,264.000000,258.000000,6.000000,18.000000,0.000000,0.000000,0.000000,0.000000,0.000000,0.339955,0.360559,0.054084,0.162251,0.000000,264.000000,258.000000,6.000000,18.000000,0.000000,0.000000,0.000000,0.000000,0.000000;
#CREDIT:YOSEFU;
#NOTES:
// measure 0
0000
0000
0000
0000
,  // measure 1
0000
0000
0000
0000
,  // measure 2
0000
0000
0000
0000
,  // measure 3
0000
0000
0000
0000
,  // measure 4
1000
0010
1000
0010
,  // measure 5
0100
0001
0100
0001
,  // measure 6
1000
0100
1000
0100
,  // measure 7
0010
0001
0010
0001
,  // measure 8
1000
0010
0100
0010
,  // measure 9
1000
0001
0010
0001
,  // measure 10
1000
0100
0010
0001
,  // measure 11
1000
0010
0100
0001
,  // measure 12
1000
0100
1000
0010
,  // measure 13
0100
0001
0010
0001
,  // measure 14
0100
0010
1000
0100
,  // measure 15
0010
0000
0000
0010
0000
0000
0011
0000
,  // measure 16
0001
0000
0000
0001
0000
0000
0200
0000
,  // measure 17
0000
0000
0000
0000
,  // measure 18
0000
0000
0000
0000
,  // measure 19
0000
0000
0000
0000
,  // measure 20
0302
0000
0000
0000
,  // measure 21
0023
0000
0000
0000
,  // measure 22
0230
0000
0000
0000
,  // measure 23
2300
0000
0000
0000
,  // measure 24
3001
0001
0100
0100
,  // measure 25
0010
0010
1000
1000
,  // measure 26
0100
0100
0010
0010
,  // measure 27
0001
0001
1000
1000
,  // measure 28
0010
0100
0001
1000
,  // measure 29
0100
0010
0001
1000
,  // measure 30
0020
0000
0230
0000
,  // measure 31
0302
0000
0000
1003
,  // measure 32
1010
0010
0100
0010
,  // measure 33
1000
0001
0010
0100
,  // measure 34
1000
0010
0100
0001
,  // measure 35
1000
0100
0010
0001
,  // measure 36
0100
0010
0001
0010
,  // measure 37
0100
0001
1000
0100
,  // measure 38
0010
0001
1000
0010
,  // measure 39
0100
0001
1000
0100
,  // measure 40
0110
0010
0001
1000
,  // measure 41
0010
0100
0010
1000
,  // measure 42
0001
0010
0100
1000
,  // measure 43
0001
0100
0010
0100
,  // measure 44
0001
1000
0100
0010
,  // measure 45
0001
0100
0010
1000
,  // measure 46
0002
0000
0023
0000
,  // measure 47
0230
0000
0000
1300
,  // measure 48
1001
0001
0100
0010
,  // measure 49
0100
0001
1000
0100
,  // measure 50
0010
0001
0100
0010
,  // measure 51
1000
0001
0010
0100
,  // measure 52
1000
0001
0100
0010
,  // measure 53
1000
0100
0010
0001
,  // measure 54
1000
0010
0100
0010
,  // measure 55
1000
0001
0010
0100
,  // measure 56
1100
1000
0001
0100
,  // measure 57
0010
0100
0001
1000
,  // measure 58
0100
0010
1000
0010
,  // measure 59
0001
1000
0010
0100
,  // measure 60
0001
0010
0100
1000
,  // measure 61
0100
0001
0100
1000
,  // measure 62
0002
0000
0203
0000
,  // measure 63
0320
0000
0000
0000
,  // measure 64
1030
1000
0010
0010
,  // measure 65
0100
0100
0001
0001
,  // measure 66
1000
1000
0100
0100
,  // measure 67
0010
0010
0001
0001
,  // measure 68
0100
0100
0001
0001
,  // measure 69
0010
0010
0100
0100
,  // measure 70
1000
1000
0001
0001
,  // measure 71
0200
0000
0000
0301
,  // measure 72
1001
1000
0100
0001
,  // measure 73
0100
1000
0001
0100
,  // measure 74
1000
0100
0001
0010
,  // measure 75
0100
0010
0001
1000
,  // measure 76
0010
0001
0010
1000
,  // measure 77
0001
0010
1000
0010
,  // measure 78
0002
0000
0203
0000
,  // measure 79
0320
0000
0000
0000
,  // measure 80
0030
0000
0000
0000
;

//---------------dance-single - ----------------
#NOTEDATA:;
#CHARTNAME:;
#CHARTHASH:3774925783;
#STEPSTYPE:dance-single;
#BANNER:;
#DESCRIPTION:;
#CHARTSTYLE:;
#DIFFICULTY:Medium;
#METER:9;
#METERF:0.000000;
#LASTSECONDHINT:109.542854;
#RADARVALUES:0.418505,0.467994,0.036056,0.369572,0.000000,325.000000,321.000000,4.000000,41.000000,0.000000,0.000000,0.000000,0.000000,0.000000,0.418505,0.467994,0.036056,0.369572,0.000000,325.000000,321.000000,4.000000,41.000000,0.000000,0.000000,0.000000,0.000000,0.000000;
#CREDIT:YOSEFU;
#NOTES:
// measure 0
0000
0000
0000
0000
,  // measure 1
0000
0000
0000
0000
,  // measure 2
0000
0000
0000
0000
,  // measure 3
0000
0000
0000
0000
,  // measure 4
1000
0000
0001
0100
0000
0001
0100
0000
,  // measure 5
0001
0000
1000
0100
0000
1000
0100
0000
,  // measure 6
0010
0000
0001
1000
0000
0001
1000
0000
,  // measure 7
0010
0000
0100
0001
0100
0001
0100
0000
,  // measure 8
0001
0000
1000
0100
0000
1000
0100
0000
,  // measure 9
0010
0000
0001
1000
0000
0001
1000
0000
,  // measure 10
0010
0000
0100
0001
0000
0100
0001
0000
,  // measure 11
1000
0000
0100
0010
0000
0100
0010
0000
,  // measure 12
0001
0000
1000
0010
0000
1000
0010
0000
,  // measure 13
0100
0000
0001
1000
0000
0001
1000
0000
,  // measure 14
0100
0000
0010
0001
0000
0010
0001
0000
,  // measure 15
1000
0000
0010
0100
0000
0001
1000
0000
,  // measure 16
0200
0000
0000
0320
0000
0000
0032
0000
,  // measure 17
0000
0000
0000
0000
,  // measure 18
0000
0000
0000
0000
,  // measure 19
0000
0000
0000
0000
,  // measure 20
2003
0000
3020
0000
,  // measure 21
0230
0000
0302
0000
,  // measure 22
0023
0000
0230
0000
,  // measure 23
2300
0000
3002
0000
,  // measure 24
0103
0100
0010
0010
,  // measure 25
1000
1000
0001
0001
,  // measure 26
0010
0010
0100
0100
,  // measure 27
1000
1000
0001
0001
,  // measure 28
0101
0100
0010
1000
,  // measure 29
0100
0010
0001
1000
,  // measure 30
2010
0000
3200
0000
,  // measure 31
0320
0001
0001
0000
,  // measure 32
0130
0000
1000
0002
0000
0203
0000
0320
,  // measure 33
0000
0130
0000
0002
0000
0000
1003
0000
,  // measure 34
0100
0010
0000
0002
0000
1003
0000
0020
,  // measure 35
0000
0130
0001
1000
0000
0100
0010
0000
,  // measure 36
0001
0000
1000
0020
0000
0032
0000
0023
,  // measure 37
0000
0130
0000
0001
0000
1000
0000
0100
,  // measure 38
0010
0001
0000
2000
0000
3010
0000
0200
,  // measure 39
0000
0301
1000
0100
0000
0010
0001
0000
,  // measure 40
1001
0000
1000
0020
0000
0230
0000
0302
,  // measure 41
0000
0013
0000
0200
0000
0000
1300
0000
,  // measure 42
0001
0100
0000
0020
0000
0130
0000
0002
,  // measure 43
0000
1003
0100
0010
0000
0001
0100
0000
,  // measure 44
0001
0000
0010
2000
0000
3020
0000
0032
,  // measure 45
0000
1003
0000
0010
0000
0100
0000
0001
,  // measure 46
2000
0000
3020
0000
,  // measure 47
0130
0000
0001
1000
0000
0010
0100
0000
,  // measure 48
1001
0000
0001
0000
0010
0001
0010
0000
,  // measure 49
0100
0000
1000
0000
0001
1000
0001
0000
,  // measure 50
0100
0000
0010
0000
1000
0001
1000
0000
,  // measure 51
0100
0000
0010
0000
0001
1000
0001
0000
,  // measure 52
0100
0000
0010
0000
0100
0001
0100
0000
,  // measure 53
0001
0000
1000
0000
0100
0010
0100
0000
,  // measure 54
1000
0000
0001
0000
0100
0010
0100
0000
,  // measure 55
0001
0000
1000
0000
0100
0010
0100
0000
,  // measure 56
1000
0000
0001
0000
0100
0010
1000
0010
,  // measure 57
1000
0000
0100
0000
0010
0001
1000
0001
,  // measure 58
1000
0000
0010
0100
0000
0001
0000
1000
,  // measure 59
0100
0000
0010
0000
0001
0000
0100
0010
,  // measure 60
1000
0001
1000
0001
0000
0010
0000
0100
,  // measure 61
0000
1000
0001
0100
0000
0010
1000
0000
,  // measure 62
0002
0000
0203
0000
,  // measure 63
0310
0000
1000
0001
0000
0100
0010
0000
,  // measure 64
0000
1000
0000
1000
0000
0010
0000
0100
,  // measure 65
0000
0100
0000
0001
0000
0001
0000
0001
,  // measure 66
0000
0010
0000
0010
0000
0100
0000
1000
,  // measure 67
0000
1000
0000
1000
0000
1000
0000
1000
,  // measure 68
0000
0010
0000
0010
0000
0100
0000
0001
,  // measure 69
0000
0001
0000
0010
0000
0010
0000
0010
,  // measure 70
0000
0100
0000
0100
0000
1000
0000
1000
,  // measure 71
0001
0000
0100
0010
0000
1000
0001
0000
,  // measure 72
0010
0100
1000
0100
0000
0010
0000
0001
,  // measure 73
0000
0100
0010
1000
0000
0001
0000
1000
,  // measure 74
0000
0100
0010
0001
0000
0100
0000
0010
,  // measure 75
0000
0001
0010
1000
0000
0001
0000
0010
,  // measure 76
0000
0100
1000
0001
0000
0100
0000
0010
,  // measure 77
0000
1000
0100
0010
0000
0001
0000
1000
,  // measure 78
0200
0000
0320
0000
,  // measure 79
0032
0000
1000
0000
1000
0000
0000
0003
;
