#TITLE:駅猫のワルツ;
#SUBTITLE:;
#ARTIST:ミニョンヌ鉄道兄弟;
#MUSIC:Ekineko No Waltz.ogg;
#BANNER:にゃんコア;
#BACKGROUND:Ekineko No Waltz-bg.png;
#LYRICSPATH:;
#CDTITLE:../_YSD cdtitles/ysd hypo-scvip cdtitle.png;
#SAMPLESTART:72.083000;
#SAMPLELENGTH:18.723000;
#OFFSET:0.041;
#BPMS:0.000=141.001;
#STOPS:;
#TIMESIGNATURES:0.000=2=4,
2.000=4=4,
22.000=2=5,
24.500=4=4,
48.500=3=4,
147.500=4=4,
149.500=3=4,
152.500=2=5,
155.000=3=4,
170.000=4=4,
194.000=3=4,
212.000=2=3,
213.500=3=4
;
#BGCHANGES:0.5=Ekineko No Waltz.avi=1.000=0=0=1=StretchNoLoop==CrossFade==,
99999=-nosongbg-=1.000=0=0=0=====
;
#FGCHANGES:;
#ATTACKS:;
#TAGS:;
#PREVIEWVID:;
#KEYSOUNDS:;

//---------------dance-single - ---------------
#NOTES:
     dance-single:
     :
     Beginner:
     3:
     0.146941,0.163344,0.348825,0.053665,0.000000,115.000000,76.000000,39.000000,6.000000,0.000000,0.000000,0.000000,0.000000,0.000000,0.146941,0.163344,0.348825,0.053665,0.000000,115.000000,76.000000,39.000000,6.000000,0.000000,0.000000,0.000000,0.000000,0.000000:
// measure 0
0000
0000
0000
0000
,  // measure 1
0000
0000
0000
0000
,  // measure 2
0000
0000
0000
0000
,  // measure 3
0000
0000
1001
0000
,  // measure 4
0000
0000
0000
0000
,  // measure 5
0000
0000
0000
0000
,  // measure 6
0000
1001
0000
0000
0000
0001
0000
0000
,  // measure 7
0000
1000
0000
0000
0000
0100
0000
0000
,  // measure 8
0000
0010
0000
0000
0000
0100
0000
0000
,  // measure 9
0000
1001
0000
0000
0000
0001
0000
0000
,  // measure 10
0000
0100
0000
0000
0000
0010
0000
0000
,  // measure 11
0000
0100
0000
0000
0000
0001
0000
0000
,  // measure 12
0000
1001
0000
0000
0000
0000
0000
0001
,  // measure 13
0000
0000
0000
0000
0000
1000
0000
0000
,  // measure 14
0000
0000
0000
0100
0000
0000
0000
0000
,  // measure 15
0000
0110
0000
0000
0000
0000
0000
0010
,  // measure 16
0000
0000
0000
0000
0000
0001
0000
0000
,  // measure 17
0000
0000
0000
1000
0000
0000
0000
0000
,  // measure 18
0000
1001
0000
0000
0000
0000
0000
0001
,  // measure 19
0000
0000
0000
0000
0000
1001
0000
0000
,  // measure 20
0000
0000
0000
1000
0000
0000
0000
0000
,  // measure 21
0000
1001
0000
0000
0000
0000
0000
0110
,  // measure 22
0000
0000
0000
0000
0000
1001
0000
0000
,  // measure 23
0000
0000
0000
0001
0000
0000
0000
0000
,  // measure 24
0000
1001
0000
0000
0000
0000
0000
0110
,  // measure 25
0000
0000
0000
0000
0000
1001
0000
0000
,  // measure 26
0000
0000
0000
0110
0000
0000
0000
0000
,  // measure 27
0000
1001
0000
0000
0000
0000
0000
0110
,  // measure 28
0000
0000
0000
0000
0000
2000
0000
0000
,  // measure 29
3000
0000
0000
0002
0000
0000
0003
0000
,  // measure 30
0000
1001
0000
0000
0000
0000
0000
0110
,  // measure 31
0000
0000
0000
0000
0000
1001
0000
0000
,  // measure 32
0000
0000
0000
0110
0000
0000
0000
0000
,  // measure 33
0000
1001
0000
0000
0000
0000
0000
0001
,  // measure 34
0000
0000
0000
0000
0000
2000
0000
0000
,  // measure 35
3000
0000
0000
0002
0000
0000
0003
0000
,  // measure 36
0000
0110
0000
0000
0000
0000
0000
0000
,  // measure 37
0000
0000
0000
1001
0000
0000
0000
0000
,  // measure 38
0000
0000
0000
0110
,  // measure 39
0000
0000
1001
0000
,  // measure 40
0000
0000
0002
0000
0000
0003
0000
0000
,  // measure 41
0010
0000
0000
0010
0000
0000
0020
0000
,  // measure 42
0000
0030
0000
0000
0000
0000
0000
0000
,  // measure 43
0100
0000
1000
0000
,  // measure 44
0001
0000
0000
1001
,  // measure 45
0000
0000
1001
0000
,  // measure 46
1000
0000
0100
0000
,  // measure 47
0010
0000
0000
0001
,  // measure 48
0000
1000
1000
0000
,  // measure 49
0000
1001
0000
0000
,  // measure 50
0110
0000
0000
0110
,  // measure 51
0000
0000
1001
0000
,  // measure 52
0000
0110
0000
0000
,  // measure 53
0000
0000
0000
1001
0000
0000
0000
0000
,  // measure 54
0000
0000
0000
0000
,  // measure 55
0000
0000
0000
0000
,  // measure 56
0000
0000
0000
0000
,  // measure 57
0000
0110
0000
0000
0000
0000
0000
1001
,  // measure 58
0000
0000
0000
0000
0000
1001
0000
0000
,  // measure 59
0000
0000
0000
0110
0000
0000
0000
0000
,  // measure 60
0000
1001
0000
0000
0000
0000
0000
1001
;

//---------------dance-single - ---------------
#NOTES:
     dance-single:
     :
     Easy:
     8:
     0.330936,0.446317,0.509821,0.527709,0.084970,259.000000,202.000000,57.000000,59.000000,0.000000,0.000000,0.000000,0.000000,0.000000,0.330936,0.446317,0.509821,0.527709,0.084970,259.000000,202.000000,57.000000,59.000000,0.000000,0.000000,0.000000,0.000000,0.000000:
// measure 0
0000
0000
0000
0000
,  // measure 1
0000
0000
0000
0000
,  // measure 2
0000
0000
0000
0000
,  // measure 3
0000
0000
2002
0000
,  // measure 4
0000
0000
0000
0000
,  // measure 5
0000
0000
3003
0000
,  // measure 6
0000
1000
0000
0100
0000
0010
0000
0100
,  // measure 7
0000
1000
0000
0010
0000
0001
0000
0010
,  // measure 8
0000
1000
0000
0100
0000
0010
0000
0001
,  // measure 9
0000
1001
0000
1000
0000
0010
0000
0100
,  // measure 10
0000
0001
0000
0010
0000
0100
0000
0001
,  // measure 11
0000
0100
0000
1000
0000
0001
0001
0000
,  // measure 12
0000
2000
0000
3010
0000
1000
0000
0002
,  // measure 13
0000
0013
0000
0001
0000
2000
0000
3100
,  // measure 14
0000
0010
0000
1000
0000
0010
0000
0001
,  // measure 15
0000
1002
0000
0013
0000
0001
0000
0200
,  // measure 16
0000
0310
0000
0100
0000
0001
0001
0000
,  // measure 17
0000
1000
0000
0100
0000
0001
0000
0100
,  // measure 18
0000
1200
0000
0310
0000
0100
0000
2000
,  // measure 19
0000
3001
0000
0100
0000
0010
0010
0000
,  // measure 20
0000
1000
0000
0100
0000
0001
0000
0100
,  // measure 21
0000
1000
0001
1000
0000
0001
0000
1000
,  // measure 22
0010
1000
0000
0001
0000
1000
0100
1000
,  // measure 23
0000
0001
0100
0001
0000
1000
1000
0000
,  // measure 24
0000
0000
0220
0000
0000
0330
0000
0000
2002
0000
0000
3003
0000
0000
1010
0000
,  // measure 25
0000
0000
0011
0000
0000
0000
0101
0000
0000
0000
2002
0000
0000
3003
0000
0000
,  // measure 26
0220
0000
0000
0330
0000
0000
1001
0000
0000
0000
0011
0000
0000
0000
1100
0000
,  // measure 27
0000
0000
2002
0000
0000
3003
0000
0000
0220
0000
0000
0330
0000
0000
1001
0000
,  // measure 28
0000
1010
0000
0110
0000
0001
1000
0001
,  // measure 29
1000
0000
0000
0001
1000
0001
1000
0000
,  // measure 30
0000
0000
0220
0000
0000
0330
0000
0000
2002
0000
0000
3003
0000
0000
0110
0000
,  // measure 31
0000
0000
0000
0000
0000
0000
0000
0000
0000
0000
2002
0000
0000
3003
0000
0000
,  // measure 32
0220
0000
0000
0330
0000
0000
1001
0000
0000
0000
0000
0000
0000
0000
0000
0000
,  // measure 33
0000
0000
0220
0000
0000
0330
0000
0000
2002
0000
0000
3003
0000
0000
1010
0000
,  // measure 34
0000
1100
0000
0011
0000
0001
1000
0001
,  // measure 35
1000
0000
0000
0001
1000
0001
1000
0000
,  // measure 36
0000
0000
2020
0000
0000
3030
0000
0000
2200
0000
0000
3300
0000
0000
1001
0000
,  // measure 37
0000
0000
0000
0000
0000
0000
0202
0000
0000
0303
0000
0000
2002
0000
0000
3003
,  // measure 38
0000
0000
1100
0000
0000
0000
1010
0000
0000
0000
0000
0000
0022
0000
0000
0033
,  // measure 39
0000
0000
0202
0000
0000
0303
0000
0000
0101
0000
0000
0000
1010
0000
0000
0000
,  // measure 40
1001
0000
0001
1000
0001
1000
0000
0000
,  // measure 41
0010
0100
0010
1000
0001
1000
0010
0100
,  // measure 42
0010
0100
0010
0100
0000
0000
0001
0000
,  // measure 43
0010
0100
1000
0010
,  // measure 44
0100
0001
0100
1000
,  // measure 45
0100
0010
1001
1000
,  // measure 46
0100
0001
0100
0010
,  // measure 47
0001
1000
0010
0100
,  // measure 48
0001
0010
2002
3003
,  // measure 49
0001
0202
0303
1000
,  // measure 50
2200
3300
0010
1001
,  // measure 51
0001
0010
0220
0330
,  // measure 52
1000
0000
0000
0000
2002
0000
0000
3003
0000
0000
0101
0000
0000
0000
0000
0000
,  // measure 53
1010
0000
0000
2002
0000
0000
0000
0000
,  // measure 54
0000
0000
0000
0000
,  // measure 55
0000
0000
0000
0000
,  // measure 56
0000
0000
0000
3003
,  // measure 57
0000
0110
0000
0000
1001
0000
0000
1000
,  // measure 58
0000
0100
0000
0010
0001
1000
0000
0010
,  // measure 59
0100
0001
0000
1000
0100
1000
0000
0001
,  // measure 60
0000
0110
0000
0000
1001
0000
0000
0220
,  // measure 61
0000
0000
0000
0000
,  // measure 62
0000
0000
0000
0330
0000
0000
0000
0000
;

//---------------dance-single - ---------------
#NOTES:
     dance-single:
     :
     Medium:
     12:
     0.502154,0.585791,0.348825,0.563486,0.160996,393.000000,354.000000,39.000000,63.000000,0.000000,0.000000,0.000000,0.000000,0.000000,0.502154,0.585791,0.348825,0.563486,0.160996,393.000000,354.000000,39.000000,63.000000,0.000000,0.000000,0.000000,0.000000,0.000000:
// measure 0
0000
0000
0000
0000
,  // measure 1
0000
0000
0000
0000
,  // measure 2
0000
0000
0000
0000
,  // measure 3
0000
0000
2002
0000
,  // measure 4
0000
0000
0000
0000
,  // measure 5
0000
0000
0000
0000
3003
0000
0000
0000
1000
0001
0000
0001
0000
0001
0000
0000
,  // measure 6
0200
0301
0010
0100
1000
0001
0100
0010
,  // measure 7
1000
0001
0010
0100
1000
0001
0100
0010
,  // measure 8
0100
0001
1000
0100
1000
0001
0100
1000
,  // measure 9
0100
0010
1000
0100
0010
0001
0100
0010
,  // measure 10
1000
0001
0010
0100
1000
0001
0100
0010
,  // measure 11
1000
0100
0010
0001
0010
1000
0020
0000
,  // measure 12
0001
0032
0000
1003
0000
0001
0001
0200
,  // measure 13
0000
0310
0000
0100
0100
0002
1000
1003
,  // measure 14
0000
0001
0100
1000
0100
0010
1000
0100
,  // measure 15
0010
0002
0000
0103
0000
0001
0001
2000
,  // measure 16
0000
3100
0000
1000
1000
0002
0103
0000
,  // measure 17
0000
0001
0010
1000
0010
0100
1000
0010
,  // measure 18
0100
0002
0000
1003
0000
0001
0100
0020
,  // measure 19
0000
1030
0000
0010
0100
1000
0100
0000
,  // measure 20
0000
0001
0010
0100
1000
0010
0001
0010
,  // measure 21
1000
0000
0001
1000
0001
0000
0010
0000
0000
0000
0100
0000
0010
0000
0001
1000
,  // measure 22
0001
0100
0000
0010
1000
0100
0010
0010
,  // measure 23
0000
0000
0100
1000
0100
0000
0010
0000
0001
0000
1000
0001
1000
0000
0000
0000
,  // measure 24
0000
2020
0000
3030
2200
0000
3300
1100
,  // measure 25
1000
0001
0100
0001
0010
0220
0000
0330
,  // measure 26
2200
0000
3300
1100
0100
0010
0001
0100
,  // measure 27
0010
2020
0000
3030
2002
0000
3003
0011
,  // measure 28
0010
0000
0100
0000
1000
0000
0100
0000
0010
0000
0001
1000
0001
0000
0100
0000
,  // measure 29
0010
0000
0000
0000
1000
0000
0100
0010
0100
0000
1000
0000
0001
0000
0000
0000
,  // measure 30
0100
0220
0000
0330
2020
0000
3030
1001
,  // measure 31
0001
0000
1000
0000
0001
0000
1000
0000
0100
0000
0010
0000
0000
0000
0000
0022
0000
0000
0000
0000
0000
0033
0000
0000
,  // measure 32
0220
0000
0000
0000
0000
0000
0330
0000
0000
1001
0000
0000
1000
0000
0001
0000
1000
0000
0001
0000
0010
0000
0100
0000
,  // measure 33
0000
2200
0000
3300
2002
0000
3003
0101
,  // measure 34
0100
0000
0010
0000
1000
0000
0100
0000
0100
0000
0010
0001
0010
0000
0100
0000
,  // measure 35
1000
0000
0001
0000
0100
0000
0010
1000
0010
0000
0100
0000
0001
0000
0000
0000
,  // measure 36
1000
2020
0000
3030
2002
0000
3003
0011
,  // measure 37
0001
0000
1000
2020
0000
3030
2200
0000
,  // measure 38
0000
3300
0000
0000
0000
0000
1100
0000
0000
0000
1000
0000
2020
0000
0000
0000
,  // measure 39
3030
0202
0000
0303
0011
0010
0100
1000
,  // measure 40
0010
0000
0100
0000
0001
1000
0001
0000
0010
0000
0100
0000
0000
0000
1000
0000
,  // measure 41
0001
0010
0001
0000
1000
0000
0001
0100
0001
0000
1000
0000
0001
0010
0001
0000
,  // measure 42
1000
0000
0001
1000
0000
0000
0001
0000
1000
0000
0100
0000
0010
0000
0001
0000
,  // measure 43
1000
0010
0100
0001
1000
0100
0010
0001
,  // measure 44
1000
0000
0010
0000
0001
0000
0010
0000
0100
0000
0001
0000
1000
0001
0000
0001
,  // measure 45
0000
0001
0000
0000
1000
0000
0100
0000
0010
0000
0100
0000
1000
0000
0010
0000
,  // measure 46
0100
0001
0010
0001
1000
0100
0010
0001
,  // measure 47
0100
0010
1000
0010
0001
0010
0100
0001
,  // measure 48
0010
0100
1000
0100
0210
0000
1300
0000
,  // measure 49
0001
0100
0210
0000
0301
1000
0100
0010
,  // measure 50
0021
0000
0130
0000
1000
0010
0100
0001
,  // measure 51
0100
1000
0100
0010
1020
0000
0130
0001
,  // measure 52
0010
0100
1200
0000
0000
0010
0000
0000
,  // measure 53
1300
0010
0100
0202
0000
0000
0000
0000
,  // measure 54
0000
0000
0000
0000
,  // measure 55
0000
0000
0000
0000
,  // measure 56
0000
0000
0000
0000
0000
0000
0000
0000
0303
0000
0000
0000
0001
1000
0000
1000
,  // measure 57
0001
0202
0000
0303
2200
0000
3300
1000
,  // measure 58
0100
0000
0001
0000
0100
0000
0010
0000
0001
1000
0001
0000
0100
0000
1000
0000
,  // measure 59
0100
0000
0010
0000
1000
0000
0001
0010
0001
0000
1000
0000
0001
0100
0001
0000
,  // measure 60
1000
0000
0000
0000
1001
0000
0000
0000
0000
0000
0200
0300
0000
0000
0000
0000
1001
0000
0000
0000
0000
0000
0020
0000
0030
0000
0000
0000
2002
0000
0000
0000
,  // measure 61
0000
0000
0000
0000
,  // measure 62
0000
0000
0000
3003
0000
0000
0000
0000
;

//---------------dance-single - ---------------
#NOTES:
     dance-single:
     :
     Hard:
     16:
     0.753870,0.864739,0.375657,0.760259,0.858645,590.000000,548.000000,42.000000,85.000000,0.000000,0.000000,0.000000,0.000000,0.000000,0.753870,0.864739,0.375657,0.760259,0.858645,590.000000,548.000000,42.000000,85.000000,0.000000,0.000000,0.000000,0.000000,0.000000:
// measure 0
0000
0000
0000
0000
,  // measure 1
0000
0000
0000
0000
,  // measure 2
0000
0000
0000
0000
,  // measure 3
0000
0000
2002
0000
,  // measure 4
0000
0000
0000
0000
,  // measure 5
0000
0000
0000
0000
3003
0000
0000
0000
1000
0001
0000
0001
0000
0001
0010
0000
,  // measure 6
0200
0000
1300
0001
0100
0000
0001
1000
0100
0000
1000
0001
0010
0000
0001
1000
,  // measure 7
0010
0000
1000
0001
0100
0000
0001
1000
0100
0000
0010
0001
1000
0000
0010
1000
,  // measure 8
0001
0000
0010
0100
1000
0000
0001
0100
0010
0100
0001
0000
1000
0100
0010
0001
,  // measure 9
0010
0100
1000
0001
0100
0000
0010
1000
0001
0000
0010
0100
1000
0000
0001
0100
,  // measure 10
0010
0000
1000
0001
0010
0000
0100
1000
0001
0000
0100
0010
1000
0000
0001
0010
,  // measure 11
0100
0000
0010
0001
1000
0000
0010
0100
0001
0100
0010
1000
0200
0000
0000
0000
,  // measure 12
0310
0000
0020
0000
0000
0000
0031
0000
0000
0000
0010
0100
0010
0100
2000
0000
,  // measure 13
0000
0000
3001
0000
0000
0000
1000
0010
1000
0010
0200
0000
0001
0000
0301
0000
,  // measure 14
0000
0000
0100
0010
1000
0001
0010
0000
0100
1000
0010
1000
0000
0000
0001
0010
,  // measure 15
0100
0001
0200
0000
0000
0000
1300
0000
0000
0000
0100
0010
0100
0010
0002
0000
,  // measure 16
0000
0000
0103
0000
0000
0000
0001
1000
0001
1000
0200
0000
0310
0000
0001
0000
,  // measure 17
0000
0000
1000
0010
0100
0001
1000
0000
0100
0010
0001
1000
0000
0000
0010
0100
,  // measure 18
1000
0100
0002
0000
0000
0000
1003
0000
0000
0000
0001
0010
0001
0010
0200
0000
,  // measure 19
0000
0000
1300
0000
0000
0000
0001
0100
0001
0100
0010
0000
1000
0000
0100
0000
,  // measure 20
0000
0000
0010
0001
1000
0010
0100
0000
0001
1000
0100
0010
0000
0000
0100
0010
,  // measure 21
1000
0010
0001
1000
0001
1000
0010
0000
0000
0000
0100
0010
0100
0001
1000
0100
,  // measure 22
1000
0100
0010
0000
0000
0000
0001
0010
0100
1000
0010
0000
0100
0000
0100
0000
,  // measure 23
0000
0000
0001
0010
0100
1000
0100
0010
0001
1000
0010
0100
0001
0000
0100
0000
,  // measure 24
0010
2020
0000
3030
2002
0000
3003
1001
,  // measure 25
0001
0101
0100
0110
0010
2020
0000
3030
,  // measure 26
2002
0000
3003
0011
0010
0110
0100
1100
,  // measure 27
1000
2020
0000
3030
2002
0000
3003
0011
,  // measure 28
0001
0000
0101
0000
0100
0000
0110
0000
0010
0000
1000
0001
1000
0001
0100
0001
,  // measure 29
0010
0000
0100
1000
0001
0000
1000
0001
1000
0001
0100
0001
0010
0000
0100
1000
,  // measure 30
0010
0220
0000
0330
0202
0000
0303
1001
,  // measure 31
1000
0000
0100
0000
0010
0000
0001
0000
0100
0000
0010
0000
0000
0000
0000
0220
0000
0000
0000
0000
0000
0330
0000
0000
,  // measure 32
2020
0000
0000
0000
0000
0000
3030
0000
0000
1001
0000
0000
0001
0000
0010
0000
0100
0000
1000
0000
0010
0000
0100
0000
,  // measure 33
0000
0220
0000
0330
0202
0000
0303
1001
,  // measure 34
0010
0000
0101
0000
0010
0000
1001
0000
1000
0000
0001
0100
0001
1000
0010
1000
,  // measure 35
0100
0000
0010
0001
1000
0000
0001
0010
0001
0100
0010
1000
0100
0000
0010
0001
,  // measure 36
0100
2020
0000
3030
0202
0000
0303
1001
,  // measure 37
1000
0010
1000
0100
0010
0001
2000
0000
0000
0000
3000
0000
0022
0000
0000
0000
,  // measure 38
0033
0000
1001
0000
1000
0100
0010
0001
0100
0001
1000
0000
2020
0000
0000
0000
,  // measure 39
3030
0022
0000
0033
1001
1010
0110
0101
,  // measure 40
1001
0000
1100
0000
1000
0100
1000
0010
0100
0001
0010
0000
0001
1000
0100
0000
,  // measure 41
0010
0001
0100
0010
1000
0100
1000
0010
0100
0001
0010
0001
0100
0010
0001
0010
,  // measure 42
0100
0001
1000
0100
0010
0001
0100
0000
0010
0000
1000
0001
0100
0001
1000
0000
,  // measure 43
0100
0010
0001
0000
1000
0010
0100
0000
0001
1000
0100
0000
0010
0100
1000
0000
,  // measure 44
0010
0100
1000
0000
0100
0010
1000
0000
0100
0010
0001
0000
1000
0010
0000
0010
,  // measure 45
0000
0010
0100
0010
1000
0100
0010
0001
1000
0010
0100
0000
0001
0010
0100
0000
,  // measure 46
0010
0001
1000
0000
0010
0100
0001
0000
0010
0100
1000
0000
0001
0100
0010
0000
,  // measure 47
1000
0100
0010
0000
1000
0010
0001
0000
0100
0010
0001
0000
0010
0100
0001
1000
,  // measure 48
0100
0000
0010
0100
1000
0010
0100
0001
0020
0000
0000
0000
0130
0000
0000
1000
,  // measure 49
0010
0100
0001
0010
0200
0000
0000
0000
1300
0000
0001
0100
0010
0100
0001
1000
,  // measure 50
0200
0000
0000
0000
0310
0000
0000
0001
1000
0100
0010
0001
0100
0001
1000
0100
,  // measure 51
0010
0000
0100
1000
0001
0100
0010
1000
0200
0000
0000
0000
0310
0000
0000
0001
,  // measure 52
1000
0010
0100
1000
0200
0000
0000
0000
0310
0000
0100
0010
1000
0001
1000
0000
,  // measure 53
0100
0010
0001
1000
0010
0000
0200
0000
0000
0000
0320
0000
0000
0000
2030
0000
,  // measure 54
0000
3200
0000
0000
0000
0320
0000
0000
0000
0032
0000
0000
0203
0000
0000
2300
0000
0000
3200
0000
0000
0302
0000
0000
,  // measure 55
0023
0230
0302
0203
2300
3020
0032
2003
,  // measure 56
3200
0000
0000
0000
0000
0000
0302
0000
0000
0000
0000
0000
2003
0000
0000
0000
3200
0000
0000
0000
0302
0000
0000
0000
0203
0000
0000
0000
0320
0000
0000
0000
0032
0000
0000
0000
1003
0000
0000
0010
0000
0000
0000
0000
0000
0010
0000
0000
,  // measure 57
0200
0000
0302
0000
0000
0000
0100
0000
1003
0100
0010
0001
1000
0000
0002
0000
,  // measure 58
0203
0000
2300
0000
3200
0000
0301
0000
1000
0100
0001
0000
0100
0010
0001
1000
,  // measure 59
0010
0100
0001
0010
0100
0000
1000
0100
0010
0001
0100
0000
0001
0010
0100
1000
,  // measure 60
0010
0000
0000
0000
0000
0000
0110
0000
0000
0000
0000
0000
0000
0000
0000
1000
0000
0001
0000
0000
0000
0000
0000
0000
0110
0000
0000
0000
0000
0000
0000
0000
0000
1000
0000
0001
0000
1000
0000
0001
0000
0000
0200
0000
0000
0000
0000
0000
,  // measure 61
0000
0000
0000
0000
,  // measure 62
0000
0000
0000
0300
0000
0000
0000
0000
;

//---------------dance-single - ---------------
#NOTES:
     dance-single:
     :
     Challenge:
     18:
     0.985142,1.227371,0.438267,0.733426,1.444492,771.000000,722.000000,49.000000,82.000000,0.000000,0.000000,0.000000,0.000000,0.000000,0.985142,1.227371,0.438267,0.733426,1.444492,771.000000,722.000000,49.000000,82.000000,0.000000,0.000000,0.000000,0.000000,0.000000:
// measure 0
0000
0000
0000
0000
,  // measure 1
0000
0000
0000
0000
,  // measure 2
0000
0000
0000
0000
,  // measure 3
0000
0000
0000
0000
2001
3002
0203
2300
,  // measure 4
3200
0320
2030
3200
0302
0203
0320
0032
,  // measure 5
2003
0000
3020
0000
0230
0000
0302
0000
1003
0010
0000
0010
0000
0010
1000
0010
,  // measure 6
0200
0000
0301
0010
0100
1000
0001
0100
0010
1000
0001
0010
0100
1000
0001
0100
,  // measure 7
0010
1000
0001
0010
0100
1000
0001
0100
0010
1000
0001
0100
0010
1000
0001
0100
,  // measure 8
0010
0000
0000
1000
0000
0000
0001
0000
0000
0100
0000
0000
0010
0000
0000
1000
0000
0000
0001
0000
0010
0000
0001
0000
0010
0000
0000
0100
0000
0000
1000
0000
0000
0010
0000
0000
1000
0000
0000
0001
0000
0000
0010
0000
0000
0100
0000
0000
,  // measure 9
0001
0100
1000
0010
0100
0001
1000
0100
0010
0001
1000
0010
0100
0001
1000
0100
,  // measure 10
0010
0001
1000
0010
0100
0001
1000
0100
0010
0001
1000
0100
0010
0001
1000
0100
,  // measure 11
0010
0000
0000
0001
0000
0000
1000
0000
0000
0100
0000
0000
0010
0000
0000
0001
0000
0000
1000
0000
0010
0000
1000
0000
0010
0000
0000
0100
0000
0000
1000
0000
0000
0100
0000
0000
0002
0000
0000
0000
0000
0000
0100
0000
0000
0000
0000
0000
,  // measure 12
1000
0000
2003
0000
0100
0000
3001
0000
0000
0000
1000
0010
1000
0001
2000
0000
,  // measure 13
0010
0000
3001
0000
0000
0000
1000
0100
0010
0001
0200
0000
0001
0000
0301
0000
,  // measure 14
0000
0000
0100
0001
1000
0100
0010
0001
0010
0100
1000
0010
1000
0001
0010
0100
,  // measure 15
0001
0100
2000
0000
0010
0000
3001
0000
0000
0000
1000
0001
1000
0001
0020
0000
,  // measure 16
0100
0000
0031
0000
0000
0000
0010
0100
0010
0001
2000
0000
3001
0000
1000
0000
,  // measure 17
0010
0100
0010
1000
0100
0010
0001
0100
0001
1000
0100
0010
0001
0000
0100
0010
,  // measure 18
0001
0010
2000
0000
0010
0000
3001
0000
0000
0000
1000
0100
1000
0010
0200
0000
,  // measure 19
0010
0000
0301
0000
0000
0000
0100
0010
0100
0001
0010
0000
0100
0000
1000
0000
,  // measure 20
0010
0100
0001
1000
0100
0010
0001
0100
0001
1000
0010
1000
0100
0010
0001
0010
,  // measure 21
1000
0000
0000
0010
0000
0000
0100
0000
1000
0000
0100
0000
1000
0000
0001
0000
0100
0000
0010
0000
0000
0000
0000
0000
0000
0000
0000
0000
0000
0000
0001
0000
0000
0010
0000
0000
0100
0000
0000
0001
0000
0000
1000
0000
0100
0000
1000
0000
,  // measure 22
0100
0000
0010
0000
0001
0000
1000
0000
0000
0000
0000
0000
0000
0000
0000
0000
0000
0000
0100
0000
0000
0010
0000
0000
1000
0000
0000
0010
0000
0000
0001
0000
0000
0000
0000
0000
1000
0000
0000
0000
0000
0000
1000
0000
0000
0000
0000
0000
,  // measure 23
0010
0100
0001
0010
0100
1000
0010
0100
0001
1000
0100
0010
1000
0010
0001
1000
,  // measure 24
0010
2020
0000
3030
2200
0000
3300
1001
,  // measure 25
1100
0110
0011
1001
1010
2200
0000
3300
,  // measure 26
2020
0000
3030
1100
1010
1001
0011
0110
,  // measure 27
1100
2002
0000
3003
0202
0000
0303
0011
,  // measure 28
0110
0000
0000
1100
0000
0000
1010
0000
0000
0110
0000
0000
0101
0000
0000
0001
0100
0001
0100
0001
0100
0001
1000
0100
,  // measure 29
0010
0000
0000
0000
0000
0000
0001
0000
0000
1000
0000
0000
0010
0000
0000
0000
0000
0000
1000
0000
0100
0000
1000
0000
0100
0000
1000
0000
0100
0000
1000
0000
0001
0000
0100
0000
0010
0000
0000
0000
0000
0000
0001
0000
0000
0010
0000
0000
,  // measure 30
0100
0202
0000
0303
2002
0000
3003
1100
,  // measure 31
0100
0000
0000
0000
0001
0000
0000
0000
0100
0000
0000
0000
1000
0000
0000
0000
0010
0000
0000
0000
0100
0000
0000
0000
0002
0000
0000
0003
0000
0000
0202
0000
0000
0000
0000
0000
0000
0000
0000
0000
0000
0000
0303
0000
0000
0000
0000
0000
,  // measure 32
2002
0000
0000
0000
0000
0000
3003
0000
0000
1010
0000
0000
0010
0000
0001
0000
0010
0000
1000
0000
0100
0000
0010
0000
,  // measure 33
0002
0003
0022
0000
0000
0000
0033
0000
2200
0000
0000
0000
3300
0000
1010
0000
,  // measure 34
1000
0000
0000
1001
0000
0000
0001
0000
0000
0011
0000
0000
0010
0000
0000
0001
1000
0001
1000
0001
1000
0001
0010
0100
,  // measure 35
1000
0000
0000
0000
0000
0000
0100
0000
0000
1000
0000
0000
0001
0000
0000
0000
0000
0000
0100
0000
0001
0000
0100
0000
0001
0000
0100
0000
0001
0000
0100
0000
0001
0000
0010
0000
0100
0000
0000
0000
0000
0000
0001
0000
0000
0100
0000
0000
,  // measure 36
1000
0000
2020
0000
0000
0000
3030
0000
0202
0000
0000
0000
0303
0000
1000
0001
,  // measure 37
1000
0010
0100
0010
0001
0010
2000
0000
0000
0000
3000
0000
0202
0000
0000
0000
,  // measure 38
0303
0000
1000
0100
0001
0100
0010
0100
1000
0001
0100
0000
0202
0000
0000
0000
,  // measure 39
0303
2200
0000
3300
1010
0011
0101
1100
,  // measure 40
1010
0000
0000
0000
0000
0000
0101
0000
0000
0000
0000
0000
0001
0000
0100
0000
0001
0000
0100
0000
0001
0000
0100
0000
0001
0000
1000
0000
0100
0000
0010
0000
0000
0000
0000
0000
0001
0000
0000
1000
0000
0000
0010
0000
0000
0000
0000
0000
,  // measure 41
0100
0001
0100
0001
0100
0001
1000
0100
0010
0001
1000
0001
1000
0001
1000
0010
0100
0001
1000
0100
1000
0100
1000
0100
,  // measure 42
1000
0000
0001
0000
0100
0000
0010
0000
1000
0000
0001
0000
0010
0000
0100
0000
0010
0000
0001
0000
0000
0000
0000
0000
1000
0000
0000
0000
0000
0000
0010
0000
0000
1000
0000
0000
0001
0000
0000
0010
0000
0000
0100
0000
0000
1000
0000
0000
,  // measure 43
0001
0100
0010
1000
0001
0010
0100
1000
0001
0100
0010
1000
0001
0010
0100
1000
,  // measure 44
0001
0010
0100
0001
0100
1000
0001
0010
0100
0001
0100
1000
0001
0100
0010
0100
,  // measure 45
1000
0100
0010
0100
0001
1000
0100
0010
0001
1000
0010
0100
0001
1000
0100
0010
,  // measure 46
0001
1000
0010
0100
0001
1000
0100
0010
0001
1000
0010
0100
0001
1000
0100
0010
,  // measure 47
0001
1000
0010
0100
1000
0100
0010
1000
0001
1000
0100
0010
1000
0010
0100
1000
,  // measure 48
0001
0000
0000
0100
0000
0000
0001
0000
0000
0010
0000
0000
0100
0000
0000
1000
0000
0000
0001
0000
0000
0100
0000
0000
0010
0000
1000
0000
0010
0000
1000
0000
0000
0000
0000
0000
0100
0000
0000
0000
0000
0000
0000
0000
0000
0001
0000
0000
,  // measure 49
0100
0000
0000
1000
0000
0000
0001
0000
0000
0100
0000
0000
0010
0000
1000
0000
0001
0000
0010
0000
0000
0000
0000
0000
0100
0000
0000
0000
0000
0000
0010
0000
0000
0010
0000
0000
0001
0000
0000
1000
0000
0000
0010
0000
0000
0001
0000
0000
,  // measure 50
0010
0000
0100
0000
0001
0000
0100
0000
0000
0000
0000
0000
0001
0000
0000
0000
0000
0000
0000
0000
0000
0010
0000
0000
0100
0000
0000
0001
0000
0000
0100
0000
0000
1000
0000
0000
0001
0000
0000
1000
0000
0000
0010
0000
0000
1000
0000
0000
,  // measure 51
0100
0000
0000
0010
0000
0000
0001
0000
0000
0100
0000
0000
0010
0000
0000
1000
0000
0000
0100
0000
0000
0010
0000
0000
1000
0000
0010
0000
0100
0000
1000
0000
0000
0000
0000
0000
0100
0000
0000
0000
0000
0000
0000
0000
0000
0010
0000
0000
,  // measure 52
1000
0010
0001
1000
0020
0000
0100
0000
1030
0000
0001
0010
0100
1000
0010
1000
,  // measure 53
0001
0000
0000
0100
0000
0000
0001
0000
0000
0010
0000
0000
0100
0000
0000
0000
0000
0000
1000
0000
0000
0010
0000
0000
0100
0000
0000
0000
0000
0000
0001
0000
0000
0010
0000
0000
0100
0000
0000
0000
0000
0000
1000
0000
0001
0000
0100
0000
,  // measure 54
0000
0001
1000
0100
0000
1000
0001
0100
0000
0001
0010
0100
1000
0001
0100
0020
0000
0000
1030
0001
0100
0001
1000
0100
,  // measure 55
0020
0000
0000
0031
0010
0001
1000
0010
0100
0002
0000
0000
1003
0010
1000
0100
0010
0001
2000
0000
0000
3001
0100
0010
,  // measure 56
1000
0000
0100
0000
0010
0000
0002
0000
0000
0000
0000
0000
2003
0000
0000
0000
3200
0000
0000
0000
0302
0000
0000
0000
2003
0000
0000
0000
3020
0000
0000
0000
0032
0000
0000
0000
1003
0000
0000
0010
0000
0000
0100
0000
0000
0010
0000
0000
,  // measure 57
2000
0000
0000
3002
0000
0000
0010
0000
0000
1000
0000
0000
0103
0001
0100
0001
1000
0100
0010
0000
0000
2000
0000
0000
,  // measure 58
3020
0000
0000
0000
0000
0000
0000
0000
0000
0000
0000
0000
0032
0000
0000
0000
0000
0000
0000
0000
0000
0000
0000
0000
2003
0000
0000
0000
0000
0000
0000
0000
0000
0000
0000
0000
3010
0000
0000
0000
0000
0000
0100
0000
0000
0000
0000
0000
0001
0000
0000
0000
0010
0000
0000
0000
0100
0000
0000
0000
1000
0000
0000
0000
0000
0000
0001
0000
0000
0100
0000
0000
0001
0000
0000
0000
0000
0000
1000
0000
0000
0000
0000
0000
0100
0000
0000
0000
0000
0000
0010
0000
0000
0000
0000
0000
,  // measure 59
0001
0000
0000
0100
0000
0000
0001
0000
0000
0000
0000
0000
0100
0000
0000
0000
0000
0000
0010
0000
0000
0000
0000
0000
1000
0000
0000
0000
0000
0000
0000
0000
0000
0000
0000
0000
0100
0000
0000
0000
0000
0000
0001
0000
0000
0000
0000
0000
0100
0000
0000
0000
0000
0000
1000
0000
0000
0000
0000
0000
0010
0000
0000
0000
0000
0000
0100
0000
0000
0000
0000
0000
0001
0000
0000
0000
0010
0000
0000
0000
0100
0000
0000
0000
1000
0000
0000
0000
0010
0000
0000
0000
1000
0000
0000
0000
,  // measure 60
0001
0000
0000
0000
1001
0000
0000
0000
0000
0000
1000
0100
1000
0000
0000
0000
1001
0000
0000
0000
0000
0000
0001
1000
0001
1000
0001
1000
0200
0000
0000
0000
,  // measure 61
0000
0000
0000
0000
,  // measure 62 000
