#TITLE:Drive in Sunday;
#SUBTITLE:;
#ARTIST:Tomoyuki Uchida;
#TITLETRANSLIT:;
#SUBTITLETRANSLIT:;
#ARTISTTRANSLIT:;
#GENRE:Tropic Mega Drive;
#CREDIT:skeleton made by Pandemonium X;
#BANNER:Drive in Sunday.png;
#BACKGROUND:Drive in Sunday-bg.png;
#LYRICSPATH:;
#CDTITLE:../_YSD cdtitles/ysd sale5 cdtitle.png;
#MUSIC:Drive in Sunday.ogg;
#OFFSET:-0.125000;
#SAMPLESTART:74.759003;
#SAMPLELENGTH:15.610000;
#SELECTABLE:YES;
#BPMS:0.000000=123.000000
;
#STOPS:
;
#BGCHANGES:;
#KEYSOUNDS:;
#ATTACKS:;

//---------------dance-single - ----------------
#NOTES:
     dance-single:
     :
     Beginner:
     2:
     0.102704,0.152354,0.142113,0.000000,0.000000,86.000000,69.000000,17.000000,0.000000,0.000000,0.000000,0.102704,0.152354,0.142113,0.000000,0.000000,86.000000,69.000000,17.000000,0.000000,0.000000,0.000000:
// measure 0
0000
0000
0000
0000
,  // measure 1
0000
0000
0000
0000
,  // measure 2
1001
0000
0000
0000
,  // measure 3
0110
0000
0000
0000
,  // measure 4
1000
0000
0000
0000
,  // measure 5
0001
0000
0000
0000
,  // measure 6
0100
0000
0000
0000
,  // measure 7
0010
0000
0000
0000
,  // measure 8
1000
0000
0000
0000
,  // measure 9
0001
0000
0000
0000
,  // measure 10
0010
0000
0000
0000
,  // measure 11
0110
0000
0000
0000
,  // measure 12
1000
0000
0000
0000
,  // measure 13
0001
0000
0000
0000
,  // measure 14
0100
0000
0000
0000
,  // measure 15
0110
0000
0000
0000
,  // measure 16
0001
0000
0000
0000
,  // measure 17
1000
0000
0000
0000
,  // measure 18
0110
0000
0000
0000
,  // measure 19
0001
0000
0000
0000
,  // measure 20
0100
0000
0000
0000
,  // measure 21
0010
0000
0000
0000
,  // measure 22
1001
0000
0000
0000
,  // measure 23
1001
0000
0000
0000
,  // measure 24
0001
0000
0000
0000
,  // measure 25
0100
0000
0000
0000
,  // measure 26
0010
0000
0000
0000
,  // measure 27
0110
0000
0000
0000
,  // measure 28
0100
0000
0000
0000
,  // measure 29
0010
0000
0000
0000
,  // measure 30
1000
0000
0000
0000
,  // measure 31
1001
0000
0000
0000
,  // measure 32
0001
0000
0000
0000
,  // measure 33
0010
0000
0000
0000
,  // measure 34
0110
0000
0000
0000
,  // measure 35
1001
0000
0000
0000
,  // measure 36
1000
0000
0000
0000
,  // measure 37
0010
0000
0000
0000
,  // measure 38
0110
0000
0000
0000
,  // measure 39
1001
0000
1000
0000
,  // measure 40
1000
0000
0000
0000
,  // measure 41
0001
0000
0001
0000
,  // measure 42
0001
0000
0000
0000
,  // measure 43
0010
0000
0010
0000
,  // measure 44
0010
0000
0000
0000
,  // measure 45
0100
0000
0100
0000
,  // measure 46
0100
0000
0000
0000
,  // measure 47
1001
0000
1000
0000
,  // measure 48
1000
0000
0000
0000
,  // measure 49
0001
0000
0001
0000
,  // measure 50
0001
0000
0000
0000
,  // measure 51
0100
0000
0100
0000
,  // measure 52
0100
0000
0000
0000
,  // measure 53
0110
0000
0000
0000
,  // measure 54
0010
0000
0010
0000
,  // measure 55
0010
0000
0000
0000
,  // measure 56
0000
0000
0000
0000
,  // measure 57
1001
0000
1000
0000
,  // measure 58
1000
0000
0000
0000
,  // measure 59
0001
0000
0001
0000
,  // measure 60
0001
0000
0000
1001
;

//---------------dance-single - ----------------
#NOTES:
     dance-single:
     :
     Easy:
     6:
     0.304528,0.355492,0.158832,0.167192,0.104495,255.000000,236.000000,19.000000,20.000000,0.000000,0.000000,0.304528,0.355492,0.158832,0.167192,0.104495,255.000000,236.000000,19.000000,20.000000,0.000000,0.000000:
0000
0000
0000
0000
,
0000
0000
0000
0000
,
1001
0000
0000
0000
0000
1000
0000
0010
0000
0000
0000
0000
0000
0101
0000
0000
,
1001
0000
0000
0000
0000
1000
0000
0100
0000
0000
0010
0000
0001
0000
0000
0000
,
2001
0100
0001
0100
,
3020
0100
1000
0130
,
0001
0000
0000
0001
0000
0000
1000
0000
0000
0000
0000
0000
0000
0000
0100
0000
,
0020
0000
0000
0000
0000
0031
1000
0000
,
0020
0000
0000
0030
0000
0000
0200
0000
0000
0300
0000
0000
0001
0000
0000
0000
,
1000
0000
0100
0000
0000
0100
0000
0000
0100
0000
0000
0000
0010
0000
0000
0000
,
0000
0001
0001
0000
1000
0000
0010
0000
,
0120
0000
0000
0000
0000
1030
0001
0000
,
0020
0000
0000
0030
0000
0000
0200
0000
0000
0300
0000
0000
1000
0000
0000
0000
,
0001
0000
0100
0000
0000
0100
0000
0000
0100
0000
0000
0000
0010
0000
0000
0000
,
0000
1000
1000
0000
0001
0000
0010
0000
,
0100
1000
0010
0100
,
0001
1000
0100
0010
,
0001
0100
0010
1000
,
1001
0000
0000
0110
0000
0000
1001
0000
,
0101
0100
0010
1000
,
0001
0010
0100
0010
,
0002
0000
0000
0000
0000
0103
0020
0000
,
1030
0000
1000
0000
0010
0000
0100
0000
0000
0000
0000
0000
,
0002
0000
0000
0000
0000
0013
0100
0000
,
1000
0000
0000
0010
0000
0000
0100
0000
,
0001
0000
1000
0000
0000
1000
0000
0000
1000
0000
0000
0000
0100
0000
0000
0000
,
0000
0010
0010
0000
0001
0000
0100
0000
,
0210
0000
0000
0000
0000
0301
1000
0000
,
0100
0000
0000
0010
0000
0000
0001
0000
,
0100
0000
0010
0000
0000
0010
0000
0000
0010
0000
0000
0000
1000
0000
0000
0000
,
0000
0100
0100
0000
0010
0000
0001
0000
,
0100
0010
1000
0100
,
0010
0001
0100
0001
,
1000
0100
0010
0001
,
1001
0000
0000
0110
0000
0000
1001
0000
,
1100
0100
0010
0100
,
1000
0001
0100
0010
,
1000
0000
0100
0000
0010
0000
0001
1000
,
0010
0000
0000
0110
,
1001
0000
1000
0000
0100
0000
0010
0001
,
0001
0000
0100
0000
0010
0000
1000
0001
,
0001
0000
1000
0000
0100
0000
0010
0001
,
0001
0100
0010
1000
,
0001
0000
0000
0001
0000
0000
0000
0000
0100
0000
0000
0100
0000
0000
0000
0000
,
0010
0000
0000
0010
0000
0000
0000
0000
1001
0000
0000
0000
0100
0000
0000
0000
,
1001
0001
0100
0010
,
1001
2000
3200
0320
,
0031
0000
0100
0000
0010
0000
1000
0001
,
0001
0000
0010
0000
0100
0000
0010
0001
,
0001
0000
0100
0000
0010
0000
1000
0100
,
0100
0010
0100
1000
,
0001
0000
0000
0100
0000
0000
0000
0000
0010
0000
0000
1000
0000
0000
0000
0000
,
0100
0000
0000
0010
0000
0000
0000
0000
0001
0000
0000
0000
1000
0000
0000
0000
,
0010
0000
0000
1000
0000
0000
0000
0000
0001
0000
0000
1000
0000
0000
0000
0000
,
0200
0320
0032
2003
,
3020
0030
0000
0000
,
0000
0000
0000
0000
0100
0000
0001
1000
,
0100
0000
0010
0000
0001
0000
1000
0010
,
0100
0000
0001
0000
1000
0000
0100
0010
,
0001
0000
0100
0000
0010
1000
0001
1000
,
0010
0000
0000
0010
0000
0000
0010
0000
0000
0000
0100
0000
0010
0000
0000
0000
;

//---------------dance-single - ----------------
#NOTES:
     dance-single:
     :
     Medium:
     10:
     0.407232,0.431669,0.041798,0.576812,0.405440,341.000000,336.000000,5.000000,69.000000,0.000000,0.000000,0.407232,0.431669,0.041798,0.576812,0.405440,341.000000,336.000000,5.000000,69.000000,0.000000,0.000000:
0000
0000
0000
0000
,
0000
0000
0000
0000
,
1000
0000
0000
0001
0000
0100
0000
0210
0000
0000
0000
0000
0310
1000
0000
0000
,
1001
0000
0000
0001
0000
0010
0000
0210
0000
0000
1300
0000
0001
0000
0100
0000
,
0010
0000
1000
0000
0100
0000
0010
0001
,
0200
0000
0000
0000
0320
0000
0000
0000
2030
0000
0000
3001
0010
0000
0100
0000
,
1000
0000
0000
1000
0000
0000
0001
0000
0000
0000
0000
0000
0000
0000
0100
0000
,
0020
0000
0000
0000
0000
1030
0100
0010
,
2000
0000
0000
3020
0000
0000
0230
0000
0000
2300
0000
0000
3001
0000
0100
0000
,
0010
0000
1000
0000
0000
1000
0000
0000
1000
0000
0001
1000
0000
0000
0000
0000
,
0000
0000
0100
0000
0100
0010
0000
0200
0000
0000
1300
0000
0001
0000
0100
0000
,
0020
0000
0000
0000
0000
1030
0100
0010
,
2000
0000
0000
3020
0000
0000
0032
0000
0000
0000
1003
0000
0010
0000
0100
0000
,
0001
0000
1000
0000
0000
1000
0000
0000
1000
0000
0001
1000
0000
0000
0000
0000
,
0000
0000
0100
0000
0100
0010
0000
0200
0000
0000
1300
0000
0010
0000
0100
0000
,
0001
0000
0000
1000
0000
0010
0000
0010
0000
1000
0000
0000
0001
0000
0010
0000
,
0200
0000
0000
0320
0000
0000
2030
0000
0000
3020
0000
0000
0130
0000
1000
0000
,
0001
0000
0000
0100
0000
0010
0000
0010
0000
0100
0000
0000
0001
0000
1000
0000
,
0100
0000
0000
0001
0000
0000
0100
0000
0000
0010
0000
0000
0001
0000
0100
0000
,
0010
0000
0000
1000
0000
0000
0010
0000
0000
0000
0100
0000
0001
0000
0000
0000
,
1000
0000
0000
0100
0000
0000
1000
0000
0000
0000
0001
0000
0010
0000
0000
0000
,
0200
0000
1000
0000
0310
0001
0100
0000
,
0010
0000
1000
0000
0010
0000
0000
0000
0100
0000
0001
0000
1000
0000
0000
0000
0000
0000
0100
0000
0000
0010
0000
0000
,
0002
0000
0000
0000
0000
0103
0010
0000
,
2000
0000
0000
3200
0000
0000
0302
0000
0000
0203
0000
0000
0310
0000
0001
0000
,
1000
0000
0010
0000
0000
0010
0000
0000
0010
0000
1000
0010
0000
0000
0000
0000
,
0000
0000
0100
0000
0100
0001
0000
0200
0000
0000
0301
0000
0010
0000
0100
0000
,
2000
0000
0000
0000
0000
3001
0100
0010
,
0002
0000
0000
0023
0000
0000
2030
0000
0000
0000
3100
0000
0010
0000
0001
0000
,
0100
0000
0010
0000
0000
0010
0000
0000
0010
0000
1000
0010
0000
0000
0000
0000
,
0000
0000
0100
0000
0100
0001
0000
0100
0000
0000
0001
0000
0010
0000
0100
0000
,
1000
0000
0000
0001
0000
0100
0000
0100
0000
0001
0000
0000
1000
0000
0100
0000
,
0010
0000
0000
1000
0000
0000
0010
0000
0000
0100
0000
0000
1000
0000
0001
0000
,
0100
0000
0000
0010
0000
1000
0000
1000
0000
0010
0000
0000
0100
0000
0001
0000
,
0010
0000
0000
1000
0000
0000
0010
0000
0000
0001
0000
0000
1000
0000
0010
0000
,
0200
0000
0000
0302
0000
0000
0203
0000
0000
0000
0310
0000
1000
0000
0000
0000
,
0200
0000
0000
0320
0000
0030
0200
0000
0000
0000
1300
0000
0001
0000
0000
0000
,
0200
0000
0010
0000
0301
1000
0100
0000
,
0011
0002
0203
0320
,
1030
0000
0001
0000
0001
0000
0000
0100
0000
0010
0000
0000
1000
0000
0100
0000
,
0020
0000
0000
2030
0000
0000
3020
0000
0000
0000
0000
0000
0130
0000
0000
0000
,
1000
0000
0001
0000
0001
0000
0000
0100
0000
0010
0000
0000
1000
0000
0100
0000
,
0020
0000
0000
2030
0000
0000
3020
0000
0000
0000
0000
0000
0130
0000
1000
0000
,
0001
0000
0000
0200
0000
0000
0310
0000
1000
0000
0000
0200
0000
0000
0310
0000
,
0001
0000
0000
0100
0000
0020
0000
0000
0032
0000
0000
0000
0013
0000
0100
0000
,
0000
0000
0001
0000
0001
0000
0000
1000
0000
0000
0100
0000
0010
0000
0000
0000
,
0001
0200
0320
2030
,
3100
0000
0010
0000
0010
0000
0000
0001
0000
1000
0000
0000
0001
0000
0100
0000
,
0020
0000
0000
0032
0000
0000
0023
0000
0000
0000
0000
0000
0130
0000
0000
0000
,
0001
0000
0010
0000
0010
0000
0000
0100
0000
1000
0000
0000
0001
0000
0100
0000
,
0020
0000
0000
0032
0000
0000
0023
0000
0000
0000
0000
0000
0130
0000
0001
0000
,
1000
0000
0000
0200
0000
0000
0310
0000
0001
0000
0000
1000
0000
0020
0000
0000
,
0032
0000
0000
0013
0000
0000
0100
0001
0200
0000
0000
0000
0310
0000
1000
0000
,
0100
0000
0000
0110
0000
0000
0001
0000
0100
0000
0000
0020
0000
0000
1030
0000
,
0200
0320
0032
0203
,
0310
1000
1000
1000
,
0001
1000
1000
1000
,
0100
0000
0000
0100
0010
0000
0001
0000
1000
0000
0000
0010
0000
0000
0100
0000
,
1000
0000
0000
0100
0000
0001
0000
0010
0000
0100
0000
1000
0000
0000
0010
0000
,
0000
0000
0100
0000
0001
0000
0000
0010
0000
0000
0100
0000
1000
0000
0100
0000
,
0010
0000
0000
0010
0000
0000
0010
0000
0000
0000
0100
0000
0010
0000
0000
0000
;

//---------------dance-single - ----------------
#NOTES:
     dance-single:
     Chillin' with a Mega Drive:
     Hard:
     12:
     0.562481,0.533238,0.242428,0.702206,0.706386,471.000000,442.000000,29.000000,84.000000,0.000000,0.000000,0.562481,0.533238,0.242428,0.702206,0.706386,471.000000,442.000000,29.000000,84.000000,0.000000,0.000000:
0000
0000
0000
0000
,
0000
0000
0000
0000
,
1000
0000
0001
0100
0000
0001
0000
0010
0000
0000
0100
0010
0001
1000
0000
0000
,
1001
0000
0001
0100
0000
0010
0000
1010
0000
0000
1000
0000
0100
0000
0001
0000
,
0100
0000
1000
0001
0000
0100
0000
0100
0000
0010
0000
0001
0010
0000
0100
0000
,
0001
0000
1000
0100
0000
0010
0000
0100
0000
1000
0000
0001
0100
0000
0010
0000
,
1010
0000
0000
1010
0000
0000
0101
0000
0000
0000
0000
0000
0000
0000
0001
0000
,
2000
0000
0000
0000
0010
0000
0000
0001
0000
0000
3100
0000
0010
0001
0100
0000
,
0020
0000
0000
0032
0000
0000
0023
0000
0000
0230
0000
0000
0301
0000
1000
0000
,
0100
0000
0010
0000
0000
0010
0000
0000
0001
0010
0001
0010
0100
0000
1000
0000
,
0001
0000
0100
0000
0100
0001
0000
2000
0000
0000
3100
0000
0001
0000
0100
0000
,
0020
0000
0000
0000
0100
0000
0000
0001
0000
0000
0130
0000
1000
0010
0100
0000
,
2000
0000
0000
3200
0000
0000
0320
0000
0000
0000
1030
0000
0100
0000
0010
0000
,
0001
0000
0100
0010
0000
0010
0000
0000
1000
0010
1000
0010
0100
0000
0001
0000
,
1000
0000
0100
0000
0100
0010
0000
0002
0000
0000
0203
0000
2300
0000
3200
0000
,
0310
0000
1000
0001
0000
0010
0000
0010
0000
0100
0000
1000
0010
0000
0100
0000
,
0002
0000
0000
0023
0000
0000
0230
0000
0000
0320
0000
0000
0031
0000
0100
0000
,
0010
0000
1000
0100
0000
0010
0000
0010
0000
0100
0000
1000
0010
0000
0100
0000
,
0101
0000
0000
1001
0000
0000
1100
0000
0000
0110
0000
0000
0011
0000
0001
0000
,
2000
0000
0000
3020
0000
0000
0230
0000
0000
0000
0301
0000
0010
0200
0000
0000
,
2300
0000
0000
3200
0000
0000
0320
0000
0000
0000
0031
0000
0100
0020
0000
0000
,
2030
0000
0100
0000
0000
0100
0000
0000
3001
0000
0100
0000
0010
1000
0001
0100
,
0010
0000
0000
0000
1000
0000
0000
0000
0010
0000
0000
0000
0000
0000
0000
0000
0100
0000
0000
0000
0001
0000
0000
0000
0010
0000
0000
0000
0000
0000
0000
0000
0000
0100
0000
0000
1000
0000
0000
0000
0000
0000
0001
0000
0000
0000
0000
0000
,
2000
0000
0000
0000
0100
0000
0000
0001
0000
0000
3010
0000
0100
0001
0010
0000
,
0200
0000
0000
0302
0000
0000
0203
0000
0000
0320
0000
0000
0031
0000
1000
0000
,
0010
0000
0100
0000
0000
0100
0000
0000
0001
0100
0001
0100
0010
0000
1000
0000
,
0001
0000
0010
0000
0010
0001
0000
2000
0000
0000
3010
0000
0001
0000
0010
0000
,
0200
0000
0000
0000
0010
0000
0000
0001
0000
0000
0310
0000
1000
0100
0010
0000
,
2000
0000
0000
3020
0000
0000
0230
0000
0000
0000
1300
0000
0010
0000
0100
0000
,
0001
0000
0010
0100
0000
0100
0000
0000
1000
0100
1000
0100
0010
0000
0001
0000
,
1000
0000
0010
0000
0010
0100
0000
0002
0000
0000
0023
0000
2030
0000
3020
0000
,
0130
0000
1000
0001
0000
0100
0000
0100
0000
0010
0000
1000
0100
0000
0010
0000
,
0002
0000
0000
0203
0000
0000
0320
0000
0000
0230
0000
0000
0301
0000
0010
0000
,
0100
0000
1000
0010
0000
0100
0000
0100
0000
0010
0000
1000
0100
0000
0010
0000
,
0011
0000
0000
0101
0000
0000
1010
0000
0000
1100
0000
0000
0011
0000
0001
0000
,
2000
0000
0000
3200
0000
0000
0320
0000
0000
0000
0031
0000
0100
0020
0000
0000
,
2030
0000
0000
3020
0000
0000
0230
0000
0000
0000
0301
0000
0010
0200
0000
0000
,
2300
0000
0010
0000
0000
0010
0000
0000
3001
0000
0010
0000
1000
0000
0010
0100
,
1000
0200
0302
0203
,
1300
0000
0010
0000
0010
0100
0000
0002
0000
1003
0000
0001
1000
0000
0100
0000
,
0020
0000
0000
2030
0000
0000
3020
0000
0000
0130
0000
1000
0001
0000
0100
0000
,
0010
0000
1000
0000
1000
0100
0000
0020
0000
0031
0000
1000
0010
0000
0100
0000
,
0020
0000
0000
0032
0000
0000
0013
0000
0100
0001
0000
0100
0001
0000
0010
0000
,
0200
0000
0000
2300
0000
0000
3010
0000
0200
0000
0000
0320
0000
0000
0031
0000
,
0020
0000
0000
0130
0000
0001
0000
0010
0100
1000
0000
0100
1000
0000
0001
0000
,
0100
0000
0010
0000
0010
1000
0000
0100
0000
0010
0000
0001
1000
0010
0100
0001
,
0100
0101
0011
1100
,
1001
0000
0001
0000
0001
0100
0000
0020
0000
1030
0000
0100
0010
0000
0001
0000
,
0200
0000
0000
2300
0000
0000
3200
0000
0000
0310
0000
1000
0001
0000
0010
0000
,
0100
0000
1000
0000
1000
0010
0000
0200
0000
0310
0000
1000
0100
0000
0010
0000
,
0002
0000
0000
0203
0000
0000
0320
0000
1030
0001
0000
1000
0001
0000
0010
0000
,
0200
0000
0000
0320
0000
0000
0031
0000
0200
0000
0000
0310
0000
0002
0000
0000
,
0023
0000
0000
2030
0000
0000
3100
0010
0001
1000
0000
0001
1000
0000
0010
0000
,
1010
0000
0010
0100
0000
0000
0001
0010
0000
0100
0000
1000
0010
0000
0100
0000
,
0101
1001
1100
0110
,
0002
0000
0010
0000
0013
0000
0000
0000
0010
0000
0000
0010
0000
0000
0010
0000
,
0000
0000
0100
0000
0100
0000
0000
0000
0100
0000
0000
0100
0000
0000
0100
0000
,
1000
0000
0000
1000
0010
0000
0000
0010
0100
0000
0000
0010
0000
0100
1000
0000
,
0100
0000
0001
1000
0000
0100
0010
0001
0000
0100
0000
0010
0000
1000
0001
0000
,
0000
0010
0100
0000
1000
0000
0001
0100
0000
0010
1000
0000
0001
0000
0100
0000
,
1010
0000
0000
1010
0000
0000
1010
0000
0000
0000
0101
0000
1010
0000
0000
0000
;

//---------------dance-double - ----------------
#NOTES:
     dance-double:
     :
     Beginner:
     2:
     0.093150,0.152354,0.158832,0.000000,0.000000,78.000000,59.000000,19.000000,0.000000,0.000000,0.000000,0.093150,0.152354,0.158832,0.000000,0.000000,78.000000,59.000000,19.000000,0.000000,0.000000,0.000000:
00000000
00000000
00000000
00000000
,
00000000
00000000
00000000
00000000
,
00010000
00000000
00000000
00000000
,
00001000
00000000
00000000
00000000
,
00000100
00000000
00000000
00000000
,
00000010
00000000
00000000
00000000
,
00001000
00000000
00000000
00000000
,
00001001
00000000
00000000
00000000
,
00000001
00000000
00000000
00000000
,
00000010
00000000
00000000
00000000
,
00000100
00000000
00000000
00000000
,
00010000
00000000
00000000
00000000
,
00001000
00000000
00000000
00000000
,
00010000
00000000
00000000
00000000
,
00001000
00000000
00000000
00000000
,
00011000
00000000
00000000
00000000
,
00010000
00000000
00000000
00000000
,
00001000
00000000
00000000
00000000
,
01000000
00000000
00000000
00000000
,
01100000
00000000
00000000
00000000
,
00100000
00000000
00000000
00000000
,
10010000
00000000
00000000
00000000
,
10010000
00000000
00000000
00000000
,
10010000
00000000
00000000
00000000
,
10000000
00000000
00000000
00000000
,
01000000
00000000
00000000
00000000
,
00100000
00000000
00000000
00000000
,
00011000
00000000
00000000
00000000
,
00010000
00000000
00000000
00000000
,
00000010
00000000
00000000
00000000
,
00001000
00000000
00000000
00000000
,
00001001
00000000
00000000
00000000
,
00000001
00000000
00000000
00000000
,
00000010
00000000
00000000
00000000
,
00000110
00000000
00000000
00000000
,
00001001
00000000
00000000
00000000
,
00000001
00000000
00000000
00000000
,
00001000
00000000
00000000
00000000
,
00000110
00000000
00000000
00000000
,
00011000
00000000
00000000
00000000
,
00001000
00000000
00000000
00000000
,
01000000
00000000
00000000
00000000
,
00010000
00000000
00000000
00000000
,
10010000
00000000
00000000
00000000
,
10000000
00000000
00000000
00000000
,
01000000
00000000
00000000
00000000
,
00100000
00000000
00000000
00000000
,
10010000
00000000
00000000
00000000
,
10000000
00000000
00000000
00000000
,
00100000
00000000
00000000
00000000
,
01000000
00000000
00000000
00000000
,
00001000
00000000
00000000
00000000
,
00010000
00000000
00000000
00000000
,
00011000
00000000
00000000
00000000
,
00000110
00000000
00000000
00000000
,
00001001
00000000
00000000
00000000
,
00000000
00000000
00000000
00000000
,
00001001
00000000
00000000
00000000
,
00000001
00000000
00000000
00000000
,
00000100
00000000
00000000
00000000
,
00001000
00000000
00000000
00011000
;

//---------------dance-double - ----------------
#NOTES:
     dance-double:
     :
     Easy:
     6:
     0.304528,0.355492,0.158832,0.091956,0.025079,255.000000,236.000000,19.000000,11.000000,0.000000,0.000000,0.304528,0.355492,0.158832,0.091956,0.025079,255.000000,236.000000,19.000000,11.000000,0.000000,0.000000:
00000000
00000000
00000000
00000000
,
00000000
00000000
00000000
00000000
,
00011000
00000000
00000000
00000000
00000000
00000000
00000000
00001000
00000000
00000000
00000000
00000000
00000000
01001000
00000000
00000000
,
01001000
00000000
00000000
00000000
00000000
01000000
00000000
01000000
00000000
00000000
00000000
00000000
00010000
00000000
00000000
00000000
,
00100000
01000000
10000000
01000000
,
00010000
00000000
00001000
00000000
00000100
00000000
00000001
00000010
,
00000100
00000000
00000000
00000100
00000000
00000000
00010000
00000000
00000000
00000000
00000000
00000000
00000000
00000000
00000000
00000000
,
00002000
00010000
00100000
00013000
,
00001000
00000000
01000000
00000000
00100000
00000000
10000000
00010000
,
00100000
01000000
01000000
10000000
,
00100000
01000000
00001000
00010000
,
00000200
00001000
00000010
00001300
,
00000001
00000000
00000100
00000000
00000010
00000000
00010000
00001000
,
01000000
00100000
00100000
10000000
,
01000000
00100000
00001000
00010000
,
00000010
00000000
00000100
00000000
00001000
00000000
00010000
00001000
,
00100000
00000000
01000000
00000000
10000000
00000000
00100000
01000000
,
00001000
00000000
00010000
00000000
00000100
00000000
00000010
00000100
,
00001000
00000000
00000000
00001010
00000000
00000000
00000101
00000000
,
00000001
00000000
00000010
00000000
00000100
00000000
00000010
00000001
,
00001000
00000000
00000010
00000000
00000100
00000000
00000010
00010000
,
00002000
00100000
01000000
00013000
,
00011000
00000000
00000000
00000000
00001000
00000000
00100000
00000000
00000000
00001000
00000000
00000000
,
00020000
00001000
00000100
00031000
,
00010000
00000000
00000010
00000000
00000100
00000000
00000001
00001000
,
00000100
00000010
00000010
00000001
,
00000100
00000010
00010000
00001000
,
00200000
00010000
01000000
00310000
,
10000000
00000000
00100000
00000000
01000000
00000000
00001000
00010000
,
00000010
00000100
00000100
00000001
,
00000010
00000100
00010000
00001000
,
01000000
00000000
00100000
00000000
00010000
00000000
00001000
00010000
,
00000100
00000000
00000010
00000000
00000001
00000000
00000100
00000010
,
00010000
00000000
00001000
00000000
00100000
00000000
01000000
00100000
,
00010000
00000000
00000000
01010000
00000000
00000000
10100000
00000000
,
10000000
00000000
01000000
00000000
00100000
00000000
01000000
10000000
,
00010000
00000000
01000000
00000000
00100000
00000000
01000000
00001000
,
00020000
00000100
00000010
00031000
,
00011000
00000000
00000000
01100000
,
10010000
10000000
01000000
00100000
,
10000000
00100000
00001000
00010000
,
00000100
00000010
00000100
00001000
,
00000010
00000100
00001000
00010000
,
00100000
01000000
00010000
10000000
,
01000000
00010000
00001000
00100000
,
00001000
00000000
00010000
00000000
00000010
00000000
00000100
00000001
,
00001000
00001100
00000011
00000101
,
00001010
00000010
00000100
00001000
,
00010000
00100000
01000000
00001000
,
00100000
01000000
10000000
01000000
,
00001000
01000000
00010000
00001000
,
00000100
00000010
00001000
00000100
,
00000001
00000100
00001000
00000000
,
00001010
00000000
00010010
00000000
,
00020000
00032000
00003020
00000230
,
00020300
00030000
00000000
00000000
,
00000000
00000000
00000000
00001001
,
00000001
00000100
00001000
01000000
,
00100000
10000000
01000000
00010000
,
00000100
00000010
00001000
01000000
,
00100000
00000000
00000000
00100000
00000000
00000000
01100000
00000000
;

//---------------dance-double - ----------------
#NOTES:
     dance-double:
     :
     Medium:
     10:
     0.408426,0.457061,0.066877,0.568453,0.384541,342.000000,334.000000,8.000000,68.000000,0.000000,0.000000,0.408426,0.457061,0.066877,0.568453,0.384541,342.000000,334.000000,8.000000,68.000000,0.000000,0.000000:
00000000
00000000
00000000
00000000
,
00000000
00000000
00000000
00000000
,
00011000
00000000
00000000
00000000
00000000
00000000
00000000
00101000
00000000
00000000
00000000
00000000
00000000
01001000
00000000
00000000
,
01010000
00000000
00000000
00000000
00000000
10010000
00000000
10010000
00000000
00000000
10000000
00000000
01000000
00000000
00100000
00000000
,
00001000
00000000
00000000
00010000
00000100
00000000
00000000
00010000
00000010
00000000
00000000
00001000
00000010
00000000
00000000
00001000
,
00000001
00000000
00000010
00000100
00001000
00000000
00000010
00000100
,
00001000
00000000
00000000
00001000
00000000
00000000
00010000
00000000
00000000
00000000
00000000
00000000
00000000
00000000
00001000
00000000
,
00200000
00000000
01000000
00000000
00310000
10000000
00100000
00000000
,
02000000
00000000
00000000
23000000
00000000
00000000
32000000
00000000
00000000
03020000
00000000
00000000
00130000
00000000
00001000
00000000
,
00010000
00000000
00000100
00000000
00000000
00000100
00000000
00000000
00000100
00000000
00010000
00000100
00000000
00000000
00000000
00000000
,
00000000
00000000
00001000
00000000
00001000
00000001
00000000
00000200
00000000
00000000
00000310
00000000
00000100
00000000
00001000
00000000
,
00020000
00000000
00100000
00000000
00031000
00100000
01000000
10000000
,
00200000
00000000
00000000
00320000
00000000
00000000
00032000
00000000
00000000
00000000
00003010
00000000
00000100
00000000
00001000
00000000
,
00000001
00000000
00000100
00000000
00000000
00000100
00000000
00000000
00000100
00000000
00000001
00000100
00000000
00000000
00000000
00000000
,
00000000
00000000
00000010
00000000
00000010
00001000
00000000
00000200
00000000
00000000
00000310
00000000
00001000
00000000
00010000
00000000
,
00100000
00000000
00000000
01000000
00000000
00010000
00000000
00010000
00000000
01000000
00000000
00000000
00010000
00000000
10000000
00000000
,
02000000
00000000
00000000
03020000
00000000
00000000
00032000
00000000
00000000
00003200
00000000
00000000
00000301
00000000
00000000
00000000
,
00000010
00000000
00000000
00000100
00000000
00001000
00000000
00001000
00000000
00000100
00000000
00000000
00000010
00000000
00000001
00000000
,
00000200
00000000
00000000
00002300
00000000
00000000
00023000
00000000
00000000
02030000
00000000
00000000
13000000
00000000
00010000
00000000
,
02000000
00000000
00000000
03200000
00000000
00000000
02300000
00000000
00000000
00000000
03010000
00000000
10000000
00000000
00000000
00000000
,
01000000
00000000
00000000
00100000
00000000
00000000
01000000
00000000
00000000
00000000
10000000
00000000
00010000
00000000
00000000
00000000
,
02000000
00000000
00100000
00000000
03001000
00100000
00010000
00000000
,
00100000
00000000
00001000
00000000
00010000
00000000
00000010
00000000
00000000
00001000
00000000
00000000
,
00001200
00000000
00000010
00000000
00001300
00000001
00000100
00000000
,
00000020
00000000
00000000
00000032
00000000
00000000
00000023
00000000
00000000
00002030
00000000
00000000
00003100
00000000
00010000
00000000
,
00001000
00000000
00100000
00000000
00000000
00100000
00000000
00000000
00100000
00000000
00001000
00100000
00000000
00000000
00000000
00000000
,
00000000
00000000
00010000
00000000
00010000
10000000
00000000
00200000
00000000
00000000
01300000
00000000
00100000
00000000
00010000
00000000
,
00002000
00000000
00000100
00000000
00013000
00000100
00000010
00000001
,
00000200
00000000
00000000
00002300
00000000
00000000
00023000
00000000
00000000
00000000
01030000
00000000
00100000
00000000
00010000
00000000
,
10000000
00000000
00100000
00000000
00000000
00100000
00000000
00000000
00100000
00000000
10000000
00100000
00000000
00000000
00000000
00000000
,
00000000
00000000
01000000
00000000
01000000
00010000
00000000
00200000
00000000
00000000
01300000
00000000
00010000
00000000
00001000
00000000
,
00000100
00000000
00000000
00000010
00000000
00001000
00000000
00001000
00000000
00000010
00000000
00000000
00001000
00000000
00000001
00000000
,
00000020
00000000
00000000
00002030
00000000
00000000
00023000
00000000
00000000
00230000
00000000
00000000
10300000
00000000
00000000
00000000
,
01000000
00000000
00000000
00100000
00000000
00010000
00000000
00010000
00000000
00100000
00000000
00000000
01000000
00000000
10000000
00000000
,
00200000
00000000
00000000
00320000
00000000
00000000
00032000
00000000
00000000
00003020
00000000
00000000
00000031
00000000
00001000
00000000
,
00000020
00000000
00000000
00000230
00000000
00000000
00000320
00000000
00000000
00000000
00001030
00000000
00000001
00000000
00000000
00000000
,
00000020
00000000
00000000
00000230
00000000
00000000
00000320
00000000
00000000
00000000
00000031
00000000
00001000
00000000
00000000
00000000
,
00000020
00000000
00000100
00000000
00010030
00000100
00001000
00000000
,
00000100
00010000
01000000
00100000
,
00010000
00000000
10000000
00000000
10000000
00000000
00000000
00100000
00000000
01000000
00000000
00000000
00010000
00000000
10000000
00000000
,
02000000
00000000
00000000
03020000
00000000
00000000
00032000
00000000
00000000
00000000
00000000
00000000
00100000
00000000
00000000
00000000
,
00013000
00000000
00000010
00000000
00000010
00000000
00000000
00001000
00000000
00000100
00000000
00000000
00000010
00000000
00000001
00000000
,
00000100
00000000
00000000
00000010
00000000
00000000
00001000
00000000
00000000
00000000
00000000
00000000
00000100
00000000
00010000
00000000
,
00001000
00000000
00000000
02000000
00000000
00000000
03010000
00000000
10000000
00000000
00000000
02000000
00000000
00000000
03010000
00000000
,
00001000
00000000
00000000
00000100
00000000
00000002
00000000
00000000
00002003
00000000
00000000
00000000
00003100
00000000
00000010
00000000
,
00000001
00000000
00000100
00000000
00000100
00000000
00000000
00000010
00000000
00000000
00001000
00000000
00000200
00000000
00000000
00000000
,
00000310
00002000
00203000
00320000
,
01030000
00000000
00100000
00000000
00100000
00000000
00000000
10000000
00000000
01000000
00000000
00000000
00100000
00000000
01000000
00000000
,
20000000
00000000
00000000
30200000
00000000
00000000
00320000
00000000
00000000
00000000
00000000
00000000
00001000
00000000
00000000
00000000
,
00030100
00000000
00010000
00000000
00010000
00000000
00000000
00000100
00000000
00000010
00000000
00000000
00000100
00000000
00001000
00000000
,
00000001
00000000
00000000
00000100
00000000
00000000
00001000
00000000
00000000
00000000
00000000
00000000
00010000
00000000
00001000
00000000
,
00100000
00000000
00000000
01000000
00000000
00000000
00100000
00000000
00010000
00000000
00000000
01000000
00000000
00100000
00000000
00000000
,
00010000
00000000
00000000
00001000
00000000
00000000
00000100
00000000
00000010
00000000
00000000
00000000
00000001
00000000
00000010
00000000
,
00001000
00000000
00000000
00001001
00000000
00000000
00000000
00000000
00000001
00000000
00000000
00000000
00000020
00000000
00000000
00000000
,
00002030
00023000
00230000
02300000
,
03001000
00010000
00010000
00010000
,
00001000
00010000
00010000
00010000
,
00001000
00000010
00000100
00001000
00000001
00000000
00000100
00000000
,
00000010
00000000
00000000
00001000
00000000
00000100
00000000
00000010
00000000
00001000
00000000
00010000
00000000
00100000
00000000
00000000
,
00000000
01000000
00000000
00000000
00010000
00000000
00000000
10000000
00000000
00000000
01000000
00000000
00010000
00000000
00001000
00000000
,
00000010
00000000
00000000
00000010
00000000
00000000
00000010
00000000
00000000
00000000
00000100
00000000
00000010
00000000
00000000
00000000
;

//---------------dance-double - ----------------
#NOTES:
     dance-double:
     :
     Hard:
     12:
     0.521878,0.533238,0.158832,0.718925,0.618610,437.000000,418.000000,19.000000,86.000000,0.000000,0.000000,0.521878,0.533238,0.158832,0.718925,0.618610,437.000000,418.000000,19.000000,86.000000,0.000000,0.000000:
00000000
00000000
00000000
00000000
,
00000000
00000000
00000000
00000000
,
00010000
00000000
00001000
00010000
00000000
00001000
00000000
00000010
00000000
00000000
00000100
00001000
00000000
00000001
00000000
00000000
,
00000100
00000000
00000010
00001000
00000000
00000100
00000000
00000010
00000000
00000000
00001000
00000000
00010000
00000000
00100000
00000000
,
01000000
00000000
00000000
01000000
00010000
00000000
00000000
00010000
10000000
00000000
00000000
10000000
01000000
00000000
00100000
00000000
,
10000000
00000000
00000000
10000000
00100000
00000000
00000000
00100000
00001000
00000000
00010000
00000000
00000010
00001000
00000001
00000000
,
00000101
00000000
00000000
00000101
00000000
00000000
00001010
00000000
00000000
00000000
00000000
00000000
00000000
00000000
00010000
00000000
,
00002000
00000000
00000000
00000000
00010000
00000000
00000000
00000010
00000000
00000000
00013000
00000000
00001000
00100000
01000000
00000000
,
00020000
00000000
00000000
02030000
00000000
00000000
23000000
00000000
00000000
30200000
00000000
00000000
00310000
00000000
00001000
00000000
,
00000200
00000000
00000001
00000000
00000000
00000001
00000000
00000000
00000301
00001000
00000001
00001000
00000000
00000000
00000100
00000000
,
00000010
00000000
00000001
00000000
00000001
00000100
00000000
00000020
00000000
00000000
00000130
00000000
00001000
00000000
00010000
00000000
,
02000000
00000000
00000000
00000000
00100000
00000000
00000000
10000000
00000000
00000000
03100000
00000000
00010000
01000000
00001000
00000000
,
00020000
00000000
00000000
00230000
00000000
00000000
00320000
00000000
00000000
00000000
00031000
00000000
00000010
00000000
00000100
00000000
,
00001000
00000000
00000010
00000200
00000000
00000001
00000000
00000000
00000301
00001000
00000001
00001000
00000000
00000000
00000100
00000000
,
00000010
00000000
00000001
00000000
00000100
00001000
00000000
00020000
00000000
00000000
00130000
00000000
01000000
00000000
00010000
00000000
,
10000000
00000000
01000000
00100000
00000000
00001000
00000000
00001000
00000000
00010000
00000000
00100000
01000000
00000000
00010000
00000000
,
20000000
00000000
00000000
32000000
00000000
00000000
03020000
00000000
00000000
00032000
00000000
00000000
00003010
00000000
00000100
00000000
,
00001000
00000000
00000001
00000100
00000000
00000010
00000000
00000010
00000000
00001000
00000000
00000100
00000010
00000001
00001000
00000000
,
00001010
00000000
00000000
00011000
00000000
00000000
00110000
00000000
00000000
01100000
00000000
00000000
01000000
00000000
10000000
00000000
,
00200000
00000000
00000000
02300000
00000000
00000000
03200000
00000000
00000000
00000000
10300000
00000000
01000000
00200000
00000000
00000000
,
00302000
00000000
00000000
00023000
00000000
00000000
00032000
00000000
00000000
00000000
00003100
00000000
00000010
00002000
00000000
00000000
,
00003100
00000000
00000000
00000100
00000010
00000000
00000001
00000000
00000100
00000000
00001000
00000000
00010000
00000000
00100000
01000000
,
00010000
00000000
00000000
00000000
10000000
00000000
00000000
00000000
01000000
00000000
00000000
00000000
00000000
00000000
00000000
00000000
00100000
00000000
00000000
00000000
01000000
00000000
00000000
00000000
00010000
00000000
00000000
00000000
00000000
00000000
00000000
00000000
00000000
00001000
00000000
00000000
00010000
00000000
00000000
00000000
00000000
00000000
00001000
00000000
00000000
00000000
00000000
00000000
,
00020000
00000000
00000000
00000000
00001000
00000000
00000000
01000000
00000000
00000000
00031000
00000000
00010000
00000100
00000010
00000000
,
00002000
00000000
00000000
00003020
00000000
00000000
00000032
00000000
00000000
00000203
00000000
00000000
00001300
00000000
00010000
00000000
,
00200000
00000000
10000000
00000000
00000000
10000000
00000000
00000000
10300000
00010000
10000000
00010000
00000000
00000000
00100000
00000000
,
01000000
00000000
10000000
00000000
10000000
00100000
00000000
02000000
00000000
00000000
03100000
00000000
00010000
00000000
00001000
00000000
,
00000020
00000000
00000000
00000000
00000100
00000000
00000000
00000001
00000000
00000000
00000130
00000000
00001000
00000010
00010000
00000000
,
00002000
00000000
00000000
00003200
00000000
00000000
00002300
00000000
00000000
00000000
00013000
00000000
01000000
00000000
00100000
00000000
,
00010000
00000000
01000000
00200000
00000000
10000000
00000000
00000000
10300000
00010000
10000000
00010000
00000000
00000000
00100000
00000000
,
01000000
00000000
10000000
00000000
00100000
00010000
00000000
00002000
00000000
00000000
00003100
00000000
00000010
00000000
00001000
00000000
,
00000001
00000000
00000010
00000100
00000000
00010000
00000000
00010000
00000000
00001000
00000000
00000100
00000010
00000000
00001000
00000000
,
00000002
00000000
00000000
00000023
00000000
00000000
00002030
00000000
00000000
00023000
00000000
00000000
01030000
00000000
00100000
00000000
,
00010000
00000000
10000000
00100000
00000000
01000000
00000000
01000000
00000000
00010000
00000000
00100000
01000000
10000000
00010000
00000000
,
01010000
00000000
00000000
00011000
00000000
00000000
00001100
00000000
00000000
00000110
00000000
00000000
00000010
00000000
00000001
00000000
,
00000200
00000000
00000000
00000320
00000000
00000000
00000230
00000000
00000000
00000000
00000301
00000000
00000010
00000200
00000000
00000000
,
00020300
00000000
00000000
00032000
00000000
00000000
00023000
00000000
00000000
00000000
00130000
00000000
01000000
00020000
00000000
00000000
,
00130000
00000000
00000000
00100000
01000000
00000000
10000000
00000000
00100000
00000000
00010000
00000000
00002000
00000000
00000000
00003010
,
00000100
00002000
00023000
20030000
,
30100000
00000000
01000000
00000000
01000000
00010000
00000000
00200000
00000000
01300000
00000000
00000000
10000000
00000000
00100000
00000000
,
00020000
00000000
00000000
00032000
00000000
00000000
00003020
00000000
00000000
00000130
00000000
00001000
00000001
00000000
00000100
00000000
,
00000010
00000000
00001000
00000000
00001000
00000001
00000000
00000010
00000000
00000100
00000000
00000000
00000010
00000000
00000001
00000000
,
00000200
00000000
00000000
00000320
00000000
00000000
00020030
00000000
00000000
00000000
00000000
00000000
00031000
00000000
00100000
00000000
,
02000000
00000000
00000000
23000000
00000000
00000000
31000000
00000000
00020000
00000000
00000000
00032000
00000000
00000000
00003100
00000000
,
00000001
00000000
00000000
00000001
00000000
00000020
00000000
00000000
00000230
00000000
00000000
00000000
00010300
00000000
00001000
00000000
,
00000000
00000000
01000000
00000000
01000000
00100000
00000000
10000000
00000000
00000000
01000000
00000000
00010000
00000000
00000000
00001000
,
00010000
00010100
00001010
00000101
,
00000100
00000000
00000010
00000000
00000010
00001000
00000000
00000200
00000000
00000310
00000000
00000000
00000001
00000000
00000100
00000000
,
00002000
00000000
00000000
00023000
00000000
00000000
02030000
00000000
00000000
03100000
00000000
00010000
10000000
00000000
00100000
00000000
,
01000000
00000000
00010000
00000000
00010000
10000000
00000000
01000000
00000000
00100000
00000000
00000000
01000000
00000000
10000000
00000000
,
00200000
00000000
00000000
02300000
00000000
00000000
03002000
00000000
00000000
00000000
00000000
00000000
00013000
00000000
00000100
00000000
,
00000020
00000000
00000000
00000032
00000000
00000000
00000013
00000000
00002000
00000000
00000000
00023000
00000000
00230000
00000000
00000000
,
20300000
00000000
00000000
32000000
00000000
00000000
03010000
00001000
00200000
00000000
00000000
00000000
00301000
00000000
00010000
00000000
,
00000010
00000000
00001000
00000010
00000000
00000000
00000100
00000000
00000001
00000000
00000000
00000010
00001000
00000000
00010000
00000000
,
02000000
23000000
30200000
00320000
,
00031000
00000000
00010000
00000000
00010000
00000000
00000000
00000000
00010000
00000000
00000000
00010000
00000000
00000000
00010000
00000000
,
00000000
00000000
00001000
00000000
00001000
00000000
00000000
00000000
00001000
00000000
00000000
00001000
00000000
00000000
00001000
00000000
,
00010000
00000000
00000000
00010000
00001000
00000000
00000000
00001000
00000010
00000000
00000000
00000100
00000000
00000010
00000001
00000000
,
00000100
00000000
00001000
00010000
00000000
00001000
01000000
00010000
00000000
10000000
00000000
01000000
00000000
00100000
00001000
00000000
,
00000000
00010000
00000100
00000000
00001000
00000000
00000001
00000100
00000000
00000010
00010000
00000000
00001000
00000000
01000000
00000000
,
10100000
00000000
00000000
10010000
00000000
00000000
00110000
00000000
00000000
00000000
00011000
00000000
00001010
00000000
00000000
00000000
;
