#TITLE:Cypher Gate;
#SUBTITLE:;
#ARTIST:7 Sequence;
#TITLETRANSLIT:;
#SUBTITLETRANSLIT:;
#ARTISTTRANSLIT:;
#GENRE:Dance;
#CREDIT:;
#BANNER:Cypher Gate.png;
#BACKGROUND:Cypher Gate-bg.png;
#LYRICSPATH:;
#CDTITLE:../_YSD cdtitles/ysd tEYEcoon cdtitle.png;
#MUSIC:Cypher Gate.ogg;
#OFFSET:-0.344000;
#SAMPLESTART:14.744000;
#SAMPLELENGTH:25.600000;
#SELECTABLE:YES;
#BPMS:0.000000=150.000000
;
#STOPS:
;
#BGCHANGES:;
#KEYSOUNDS:;
#ATTACKS:;
#LASTSECONDHINT:102.744;

//---------------dance-single - ----------------
#NOTES:
     dance-single:
     :
     Beginner:
     5:
     0.201172,0.503595,0.214494,0.279775,0.000000,151.000000,128.000000,23.000000,30.000000,0.000000,0.000000,0.201172,0.503595,0.214494,0.279775,0.000000,151.000000,128.000000,23.000000,30.000000,0.000000,0.000000:
// measure 0
0000
0000
0000
0000
,  // measure 1
0000
0000
0000
0000
,  // measure 2
0000
0000
0000
0000
,  // measure 3
0000
0000
0000
0000
,  // measure 4
0000
0000
0000
0000
,  // measure 5
1000
0000
0001
0000
,  // measure 6
0100
0100
0100
0000
,  // measure 7
0001
0000
1000
0000
,  // measure 8
0100
0100
0100
0000
,  // measure 9
0010
0010
0010
0000
,  // measure 10
0001
0001
0001
0000
,  // measure 11
1000
1000
1000
0000
,  // measure 12
0010
0010
0010
0000
,  // measure 13
1000
1000
1000
0000
,  // measure 14
0100
0100
0100
0000
,  // measure 15
0010
0010
0010
0000
,  // measure 16
0001
0001
0001
0000
,  // measure 17
1000
1000
1000
0000
,  // measure 18
0010
0010
0010
0000
,  // measure 19
0100
0100
0100
0000
,  // measure 20
0001
0001
0001
0000
,  // measure 21
0010
0010
0010
0000
,  // measure 22
0100
0100
0100
0000
,  // measure 23
1000
1000
1000
1000
,  // measure 24
0001
0001
0001
0001
,  // measure 25
2002
0000
3003
0000
,  // measure 26
2000
0000
3000
0000
,  // measure 27
0020
0000
0030
0000
,  // measure 28
0200
0000
0300
0000
,  // measure 29
0220
0000
0330
0000
,  // measure 30
0002
0000
0003
0000
,  // measure 31
0020
0000
0030
0000
,  // measure 32
0200
0000
0300
0000
,  // measure 33
2002
0000
3003
0000
,  // measure 34
0220
0000
0330
0000
,  // measure 35
2002
0000
3003
0000
,  // measure 36
0220
0000
0330
0000
,  // measure 37
1001
0000
1001
0000
,  // measure 38
0110
0000
0110
0000
,  // measure 39
1001
1001
0110
0110
,  // measure 40
1001
1001
0110
0110
,  // measure 41
2002
0000
3003
0000
,  // measure 42
1000
1000
0001
0001
,  // measure 43
2002
0000
3003
0000
,  // measure 44
0020
0000
0000
0030
,  // measure 45
0200
0000
0000
0300
,  // measure 46
0002
0000
0000
0003
,  // measure 47
2000
0000
0000
3000
,  // measure 48
0200
0000
0000
0300
,  // measure 49
0020
0000
0000
0030
,  // measure 50
0001
0001
0001
1001
,  // measure 51
1000
1000
1000
0000
,  // measure 52
0001
0001
0001
0000
,  // measure 53
0010
0010
0010
0000
,  // measure 54
0100
0100
0100
0000
,  // measure 55
1000
1000
1000
0000
,  // measure 56
0001
0001
0001
0000
,  // measure 57
0100
0100
0100
0100
,  // measure 58
0010
0010
0010
0010
,  // measure 59
2002
0000
3003
0000
,  // measure 60
1001
0000
0000
0000
;

//---------------dance-single - ----------------
#NOTES:
     dance-single:
     :
     Easy:
     7:
     0.309085,0.419663,0.074607,0.223820,0.004663,232.000000,224.000000,8.000000,24.000000,0.000000,0.000000,0.309085,0.419663,0.074607,0.223820,0.004663,232.000000,224.000000,8.000000,24.000000,0.000000,0.000000:
0000
0000
0000
0000
,
0000
0000
0000
0000
,
0000
0000
0000
0000
,
0000
0000
0000
0000
,
0000
0000
0000
0000
,
1000
0001
0100
0001
,
1000
0000
0100
0000
0010
0001
0010
0000
,
0100
0000
1000
0000
0001
0100
0001
0000
,
2000
3200
0320
0032
,
1003
0001
0000
0100
0000
0001
0000
1000
,
0000
0100
0000
0010
0000
0100
0000
1000
,
0000
0001
0000
0100
0000
0010
0000
1000
,
0000
0100
0000
0010
0000
0001
0000
1000
,
0001
1000
0000
0001
0000
0100
0000
0010
,
0000
1000
0000
0100
0000
0010
0000
0001
,
0000
0100
0000
0010
0000
1000
0000
0100
,
0000
0001
0000
0100
0000
1000
0001
1000
,
0001
1000
0000
0001
0000
0100
0000
0010
,
0000
1000
0000
0100
0000
0010
0000
0001
,
0000
0100
0000
0001
0000
1000
0000
0100
,
0000
1000
0000
0010
0000
0100
0000
0001
,
1000
0001
0000
0010
0000
0100
0000
1000
,
0000
0010
0000
0100
0000
0001
0000
1000
,
0100
1000
0000
0001
0100
0001
0000
1000
,
0010
1000
0000
0001
0000
0100
0001
0100
,
0002
0100
0000
0100
,
2003
0100
0000
0100
,
3002
0010
0000
0010
,
2003
0010
0000
0010
,
3002
0100
0010
0000
,
2003
0010
0100
0000
,
3002
0100
0010
0000
,
2003
0100
0010
0001
,
3002
0010
0100
0010
,
2003
0000
0000
0000
0100
0000
0000
0000
3010
0000
0000
0010
0000
0000
0000
0000
,
1002
0100
0010
1000
,
0203
0010
1000
0010
,
0301
0000
0000
1000
0001
0000
0000
0100
,
0001
0000
0000
1000
0001
0000
0000
0010
,
0001
0011
0110
1100
,
1000
0001
1000
0000
0001
0100
0001
0000
,
2002
0000
0000
3003
,
0002
0203
0320
2030
,
3001
0100
0001
0000
,
1000
0100
1000
0000
,
0001
0100
0010
0000
,
1000
0100
0010
0001
,
1000
0010
1000
0000
,
0001
0010
0001
0000
,
1000
0010
0100
0001
,
1000
0100
0010
0001
,
1001
0000
1000
0000
0001
0000
0100
0001
,
0100
0000
0001
0000
1000
0000
0100
0010
,
0100
0000
1000
0000
0001
0000
0100
0010
,
0100
0000
0001
0000
1000
0000
0100
0010
,
0100
0000
1000
0000
0001
0000
1000
0010
,
1000
0000
0001
0000
0010
0000
0100
1000
,
0100
0000
0010
0000
0001
0000
1000
0001
,
1000
0000
0001
0000
0100
0001
0100
0000
,
0220
0000
0000
0330
,
1001
0000
0000
0000
;

//---------------dance-single - ----------------
#NOTES:
     dance-single:
     :
     Medium:
     10:
     0.448972,0.475618,0.055955,0.093258,0.205168,337.000000,331.000000,6.000000,10.000000,0.000000,0.000000,0.448972,0.475618,0.055955,0.093258,0.205168,337.000000,331.000000,6.000000,10.000000,0.000000,0.000000:
0000
0000
0000
0000
,
0000
0000
0000
0000
,
0000
0000
0000
0000
,
0000
0000
0000
0000
,
0000
0000
0000
0000
,
1001
0000
0000
0000
0001
0000
0000
0100
0000
0000
0100
0000
0001
0000
0000
0000
,
1000
0000
0100
0000
0010
0000
0000
0000
0001
0000
0100
0000
0010
0000
0000
1000
,
0001
0000
0100
0000
0001
0000
0100
0000
0001
1000
0000
0000
0100
0000
0010
0000
,
0002
0203
0320
1030
,
0001
1000
0100
0010
0000
0001
0100
0010
,
0000
1000
0100
0010
0000
0100
1000
0001
,
0000
0100
0010
1000
0000
0001
0010
0100
,
0000
0010
0001
1000
0000
0010
0100
0001
,
1000
0100
0010
0001
0000
0100
0001
1000
,
0000
0100
0010
0001
0000
0100
0010
1000
,
0000
0001
0010
0100
0000
0010
0001
0100
,
0000
1000
0100
0001
0000
1000
0100
0010
,
0001
0100
0010
1000
0000
0001
0010
0100
,
0000
1000
0010
0100
0000
0001
1000
0100
,
0000
0010
0001
0100
0000
0010
1000
0100
,
0000
0001
0100
1000
0000
0001
0100
0010
,
1000
0001
0010
0100
0000
0010
0001
1000
,
0000
0010
0100
0001
0000
0010
0100
1000
,
0000
0000
0001
1000
0000
0000
0100
0000
0000
0000
1000
0001
0000
0000
0100
0000
,
0000
0000
0001
1000
0000
0000
0100
0000
0000
0000
0010
0000
0001
0000
1000
0000
,
0010
0000
0000
0000
0100
0000
0000
0001
0000
0000
1000
0000
0100
0000
0010
0000
,
0100
0000
0000
0000
1000
0000
0000
0001
0000
0000
0100
0000
0010
0000
0100
0000
,
0001
0000
0000
0000
1000
0000
0000
0100
0000
0000
0010
0000
0001
0000
0100
0000
,
0010
0000
0000
0000
1000
0000
0000
0001
0000
0000
0010
0000
0001
0000
0100
0000
,
0010
0000
0000
0000
1000
0000
0000
0001
0000
0000
0010
0000
0100
0000
0001
0000
,
0100
0000
0000
0000
1000
0000
0000
0010
0000
0000
0100
0000
0001
0000
0010
0000
,
0100
0000
0000
0000
1000
0000
0000
0010
0000
0000
0001
0000
0010
0000
0100
0000
,
0001
0000
0000
0000
1000
0000
0000
0100
0000
0000
0010
0000
0001
0000
0100
0000
,
0010
0000
0000
0010
0000
0000
0010
0000
0000
1000
0000
0000
1000
0000
0001
0000
,
0010
0000
0000
0010
0000
0000
0100
0000
1100
0000
0000
1100
0000
0000
1001
0000
,
0001
0000
0000
0001
0000
0000
0001
0000
0000
0100
0000
0000
0100
0000
0010
0000
,
1000
0000
0000
1000
0000
0000
1000
0000
0000
0001
0000
0000
0001
0000
0010
0000
,
0100
0000
0000
0100
0000
0000
0100
0000
1000
0000
0000
1000
0000
0000
1000
0000
,
0001
0000
0000
0001
0000
0000
0001
0000
0100
0000
0000
0100
0000
0000
0100
0000
,
0010
1000
0010
1000
0001
0010
0001
0010
,
0100
0001
0100
1000
0001
0100
1000
0100
,
0020
0000
0000
0000
0000
0000
0000
0000
0000
0000
0000
0000
0030
0100
0010
0000
,
0200
0302
2003
3200
,
0310
0000
0001
0000
1000
0000
0000
0000
0010
0000
0000
0100
0000
0000
0010
0000
,
1000
0000
0001
0000
0010
0000
0000
0000
0001
0000
0000
1000
0000
0000
0010
0000
,
0100
0000
0001
0000
1000
0000
0000
0000
0001
0000
0000
0010
0000
0000
0100
0000
,
0010
0000
0001
0000
1000
0000
0000
0000
0001
0000
0000
0100
0000
0000
0010
0000
,
1000
0000
0001
0000
0010
0000
0000
0000
0100
0000
0000
0010
0000
0000
0001
0000
,
1000
0000
0010
0000
0100
0000
0000
0000
0001
0000
0000
1000
0000
0000
0100
0000
,
0010
0000
0001
0000
0100
0000
0000
0000
0010
0000
0000
0001
0000
0000
0010
0000
,
1000
0000
0001
0000
0010
0000
0000
0000
0100
0000
0000
0001
0000
0000
0100
0000
,
1000
0000
0001
0000
0100
0000
0000
0000
0010
0000
0000
1000
0000
0000
0100
0000
,
0010
0000
0001
0000
0100
0000
0000
0000
0001
0000
0000
1000
0000
0000
0100
0000
,
0010
0000
0100
0000
1000
0000
0000
0000
0001
0000
0000
0100
0000
0000
0010
0000
,
0100
0000
0001
0000
1000
0000
0000
0000
0100
0000
0000
0010
0000
0000
0001
0000
,
0100
0000
0010
0000
1000
0000
0000
0000
0001
0000
0000
0010
0000
0000
0001
0000
,
0100
0000
0010
0000
1000
0000
0000
0000
0100
0000
0000
0010
0000
0000
0100
0000
,
1000
0000
0001
0000
0100
0000
0000
0000
0010
0000
0000
0001
0000
0000
0010
0000
,
1000
0000
0001
0000
0010
0000
1000
0000
0010
0100
0000
1000
0000
0000
0001
0000
,
2002
0000
0000
3003
,
0110
0000
0000
0000
;

//---------------dance-single - ----------------
#NOTES:
     dance-single:
     :
     Hard:
     15:
     0.686115,0.783370,0.055955,0.065281,0.704101,515.000000,509.000000,6.000000,7.000000,0.000000,0.000000,0.686115,0.783370,0.055955,0.065281,0.704101,515.000000,509.000000,6.000000,7.000000,0.000000,0.000000:
0000
0000
0000
0000
,
0000
0000
0000
0000
,
0000
0000
0000
0000
,
0000
0000
0000
0000
,
0000
0000
0000
0000
,
2001
0000
0000
0000
3010
0000
0000
0100
0000
0000
0100
0000
0001
0000
0000
0000
,
0010
0000
0100
0000
0010
0000
0001
1000
0010
0000
0100
0000
0001
0000
0000
1000
,
0001
0000
0010
0000
0100
0000
1000
0000
0010
0100
0001
0000
1000
0000
0100
0000
,
2001
0000
0010
0000
0100
0000
3010
0100
,
0101
0001
0100
0010
0100
0001
1000
0100
,
0010
0001
0100
0001
0010
0100
1000
0001
,
0100
0010
1000
0100
0010
0001
1000
0010
,
1000
0100
0010
1000
0010
0001
0100
0010
,
1001
1000
0100
0010
0001
0100
0010
1000
,
0100
0010
0001
0100
0001
0010
0100
1000
,
0010
0001
0010
0100
0001
0010
1000
0010
,
0001
0000
0000
0010
1000
0000
0000
0010
0100
0010
0100
0000
1000
0001
0020
0000
,
0031
1000
0010
0100
1000
0100
0010
1000
,
0001
0010
0001
0100
0010
1000
0100
1000
,
0001
0100
0001
0010
0100
1000
0010
1000
,
0100
0000
0001
0000
0100
0000
0010
0000
0001
0000
1000
0001
0000
1000
0001
0000
,
0100
0010
1000
0100
0010
0001
0100
0010
,
1000
0001
0010
0100
1000
0010
0100
0001
,
1000
0000
0100
0010
0001
0000
1000
0000
0001
0000
0100
0010
1000
0000
0001
0000
,
0010
0000
0100
0010
0001
0000
0010
0000
0100
0010
1000
0010
0100
1000
0001
0100
,
0010
0000
1000
0000
0001
0000
1000
0100
0000
0010
0001
1000
0010
1000
0010
0100
,
0001
0000
1000
0000
0100
0000
0010
0100
0000
1000
0001
0100
0001
0100
0010
1000
,
0001
0000
0010
0000
0100
0000
0010
0001
0000
1000
0001
0100
0001
0100
0010
1000
,
0001
0000
1000
0000
1100
0000
0100
0010
0000
0100
1000
0001
0100
0001
0010
0100
,
1000
0000
0001
0000
0100
0000
0010
1000
0000
0001
0100
0010
0100
0001
1000
0001
,
0010
0000
0100
0000
0010
0000
0001
1000
0000
0001
0100
0010
1000
0010
0100
0001
,
1000
0000
0100
0000
0010
0000
0100
1000
0000
0001
0100
0010
0100
0001
1000
0100
,
0010
0000
0100
0000
1000
0000
0001
0100
0000
0001
1000
0100
0010
0001
0100
0001
,
1000
0000
0000
0100
0000
0000
0001
0000
0000
0100
0000
1000
0001
1000
0010
0100
,
0001
0000
0000
0100
0000
0000
1000
0000
0100
0000
0000
0101
0000
0000
0001
1000
,
0100
0000
0000
0010
0000
0000
1000
0000
0000
0010
0000
0001
1000
0010
0100
0001
,
1000
0000
0000
0010
0000
0000
0001
0000
0000
0010
0000
1000
0001
0010
0100
0010
,
0001
0000
0000
0100
0000
0001
1000
0001
0100
0000
0000
0001
0000
1000
0100
1000
,
0001
0000
0000
0100
0000
0010
1000
0001
0010
0000
0000
0100
0000
1000
0001
0100
,
0010
0000
0000
0010
0001
0000
0000
0001
0010
0000
0000
0010
1000
0000
0000
1000
,
0001
0000
0010
0000
0001
0000
0100
0000
0010
1000
0001
0010
0100
1000
0001
0100
,
0020
0000
0000
0000
0000
0000
0000
0000
0000
0000
0000
0000
0030
1000
0001
1000
,
0200
0001
0010
2300
,
3001
0000
0100
0000
0001
0000
1000
0000
0100
0000
0000
0010
0000
0001
1000
0000
,
0001
0000
0100
0000
0010
0000
0100
0000
0001
0000
1000
0001
0000
1000
0001
0000
,
0010
0000
0100
0000
1000
0000
0001
0000
0100
0000
0010
1000
0000
0010
0100
0001
,
1000
0000
0100
0000
0010
0000
0100
0000
1000
0000
0001
0100
0000
0001
1000
0100
,
0010
0000
0001
0000
0010
0000
0100
0000
1000
0000
0001
0100
0000
0001
0100
0010
,
1000
0000
0001
0000
0100
0000
0001
0000
1000
0000
0100
0010
0000
0100
0001
0100
,
0010
0000
0001
0000
0100
0000
0001
0000
0010
0000
0100
0001
0000
0100
0010
0001
,
1000
0000
0000
1000
0001
0000
0000
0001
0100
0001
0000
0010
0000
0100
0001
0100
,
1000
0000
0001
0000
0100
0000
0001
0000
0010
0000
0100
1000
0000
0001
0100
0010
,
1000
0000
0001
0000
0100
0000
0010
0000
1000
0000
0001
0100
0000
0001
0010
0000
,
0100
0000
1000
0000
0001
0000
1000
0000
0100
0000
0010
0001
0000
0100
0001
0010
,
0100
0000
1000
0000
0001
0000
0100
0000
0010
0000
1000
0001
0000
1000
0001
0010
,
0100
0000
1000
0000
0001
0000
0100
0000
0010
0000
0100
0001
0000
1000
0100
0010
,
0001
0000
0100
0000
0001
0000
1000
0000
0100
0000
0010
0100
0000
1000
0010
0100
,
0001
0000
1000
0100
0010
0000
0100
0000
1000
0000
0010
0001
0000
0010
0100
0001
,
1000
0100
0010
0001
0010
0100
1000
0010
0100
0001
1000
0100
0010
0001
0100
0010
,
2000
0000
0000
0000
,
3001
0000
0000
0000
;
