#VERSION:0.83;
#TITLE:Completeness Under Incompleteness;
#SUBTITLE:;
#ARTIST:かめりあ as "Reverse of Riot";
#TITLETRANSLIT:;
#SUBTITLETRANSLIT:;
#ARTISTTRANSLIT:Camellia as "Reverse of Riot";
#GENRE:Artcore;
#ORIGIN:SOUND VOLTEX III GRAVITY WARS;
#TAGS:;
#CREDIT:skeleton made by YOSEFU;
#BANNER:Completeness Under Incompleteness.png;
#BACKGROUND:Completeness Under Incompleteness-bg.png;
#PREVIEWVID:;
#JACKET:Completeness Under Incompleteness-jacket.png;
#CDIMAGE:;
#DISCIMAGE:;
#LYRICSPATH:;
#CDTITLE:../_YSD cdtitles/ysd sale4 cdtitle.png;
#MUSIC:Completeness Under Incompleteness.ogg;
#OFFSET:-0.059000;
#SAMPLESTART:66.862999;
#SAMPLELENGTH:19.794001;
#SELECTABLE:YES;
#BPMS:0.000000=97.000000
,18.000000=194.000000
,116.000000=97.000000
,154.000000=194.000000
,252.000000=97.000000
,256.000000=194.000000
,311.000000=97.000000
;
#STOPS:50.000000=0.619000
,154.000000=0.619000
;
#DELAYS:;
#WARPS:;
#TIMESIGNATURES:0.000000=2=4
,18.000000=4=4
,50.000000=2=4
,52.000000=4=4
,116.000000=2=4
,156.000000=4=4
,252.000000=2=4
,256.000000=4=4
,308.000000=2=14
,311.500000=2=4
;
#TICKCOUNTS:0.000000=4
;
#COMBOS:0.000000=1
;
#SPEEDS:0.000000=1.000000=0.000000=0
;
#SCROLLS:0.000000=1.000000
;
#FAKES:;
#LABELS:0.000000=Song Start
;
#BGCHANGES:;
#KEYSOUNDS:;
#ATTACKS:
;
#LASTSECONDHINT:124.080505;

//---------------dance-single - ----------------
#NOTEDATA:;
#CHARTNAME:;
#CHARTHASH:492035493;
#STEPSTYPE:dance-single;
#BANNER:../Completeness Under Incompleteness (Beginner)/Completeness Under Incompleteness (Beginner).png;
#DESCRIPTION:;
#CHARTSTYLE:;
#DIFFICULTY:Beginner;
#METER:5;
#METERF:0.000000;
#RADARVALUES:0.148058,0.264115,0.066154,0.095555,0.003675,141.000000,132.000000,9.000000,13.000000,0.000000,0.000000,0.000000,0.000000,0.000000,0.148058,0.264115,0.066154,0.095555,0.003675,141.000000,132.000000,9.000000,13.000000,0.000000,0.000000,0.000000,0.000000,0.000000;
#CREDIT:YOSEFU;
#NOTES:
0000
0000
0000
0000
,
0000
0000
0000
0000
,
0000
0000
1000
0000
,
0010
0000
0100
0000
,
0001
0000
1000
0000
,
0000
0000
0001
0000
,
0000
0000
0100
0000
,
0000
0000
0010
0000
,
0000
0000
1000
0000
,
1000
0000
0001
0000
,
0001
0000
0010
0000
,
0010
0000
0100
0000
,
0100
0000
1000
0000
,
0001
0000
0000
0000
,
0100
0000
0010
0000
,
1000
0000
0000
0000
,
0100
0000
0010
0000
,
0001
0000
0000
0000
,
1000
0000
0010
0000
,
0100
0000
0000
0000
,
0001
0000
1000
0000
,
1001
0000
0000
0000
,
0001
0000
0010
0000
,
0100
0000
0000
0000
,
1000
0000
0010
0000
,
0100
0000
0000
0000
,
0001
0000
0010
0000
,
0100
0000
0000
0000
,
1000
0000
0001
0000
,
0200
0000
0300
0000
,
0020
0000
0030
0000
,
2000
0000
3000
0000
,
0002
0000
0003
0000
,
0020
0000
0030
0000
,
0200
0000
0300
0000
,
2000
0000
3000
0000
,
0002
0000
0003
0000
,
0200
0000
0000
0000
,
0000
0000
0300
0000
,
0001
0000
1000
0000
,
0001
0000
0000
0000
,
1000
0000
0100
0000
,
0010
0000
0000
0000
,
0001
0000
1000
0000
,
0001
0000
0000
0000
,
1000
0000
0010
0000
,
0100
0000
0001
0000
,
1001
0000
1000
0000
,
0001
0000
0000
0000
,
1000
0000
0100
0000
,
0010
0000
0001
0000
,
1000
0000
0010
0000
,
0100
0000
0000
0000
,
0001
0000
1000
0000
,
0100
0000
0010
0000
,
0001
0000
0000
0000
,
1000
0000
0000
0000
,
0010
0000
0000
0000
,
0110
0000
0000
0000
0000
1001
0000
0000
,
0001
0000
1000
0000
,
0010
0000
0100
0000
,
0001
0001
0001
0001
,
0002
0000
0000
0003
,
2002
0000
0000
3003
,
1000
0000
0010
0000
,
0100
0000
0001
1000
,
0001
0000
0010
0000
,
0100
1000
0100
0000
,
1000
0000
0010
0000
,
1001
0000
0000
1001
0000
0000
1001
0000
,
0001
0000
0100
0000
,
0010
1000
0100
0000
,
0010
0000
0001
0000
,
0100
0010
1000
0000
,
0001
0000
1000
0010
,
0100
0000
0001
0010
,
0100
0000
1000
0001
,
0100
0000
0000
0100
0000
0000
0110
0000
,
0000
0000
0000
0001
0000
0000
0000
1000
,
0000
0000
0000
0000
0000
0000
0000
0000
0000
0000
0000
0000
0000
0000
0000
0000
0000
0000
0000
0000
0000
0000
0000
0000
0000
0000
0000
0000
0000
0000
0000
0000
0000
0000
0000
0000
0000
0000
0000
0000
0000
0000
0000
0000
0000
0000
0000
0000
0000
0000
0000
0000
0000
0000
0000
0000
0000
0000
0000
0000
0000
0000
0000
0000
0000
0000
0000
0000
0000
0000
0000
0000
0200
0000
0000
0000
0000
0000
0000
0000
0000
0000
0000
0000
0000
0000
0000
0000
0000
0000
0000
0000
0000
0000
0000
0000
0000
0000
0000
0000
0000
0000
0000
0000
0000
0000
0000
0000
0000
0000
0000
0000
0000
0000
0000
0000
0000
0000
0000
0000
0000
0000
0000
0000
0000
0000
0000
0000
0000
0000
0000
0000
0000
0000
0000
0000
0000
0000
0000
0000
0000
0000
0000
0000
0000
0000
0000
0000
0000
0000
0000
0000
0000
0000
0000
0000
0000
0000
0000
0000
0000
0000
0000
0300
0000
0000
0000
0000
0000
0000
0000
0000
0000
0000
0000
0000
0000
0000
0000
0000
0000
0000
0000
0000
0000
0000
0000
0000
0000
0000
0000
0000
;

//---------------dance-single - ----------------
#NOTEDATA:;
#CHARTNAME:;
#CHARTHASH:34846822;
#STEPSTYPE:dance-single;
#BANNER:../Completeness Under Incompleteness (Basic & Difficult)/Completeness Under Incompleteness (Basic & Difficult).png;
#DESCRIPTION:;
#CHARTSTYLE:;
#DIFFICULTY:Easy;
#METER:11;
#METERF:0.000000;
#RADARVALUES:0.330768,0.410845,0.117606,0.161709,0.147008,315.000000,299.000000,16.000000,22.000000,0.000000,0.000000,0.000000,0.000000,0.000000,0.330768,0.410845,0.117606,0.161709,0.147008,315.000000,299.000000,16.000000,22.000000,0.000000,0.000000,0.000000,0.000000,0.000000;
#CREDIT:YOSEFU;
#NOTES:
0000
0000
0000
0000
,
0000
0000
0000
0000
,
0000
0000
1000
1000
,
0010
0010
0100
0100
,
0001
0001
1000
0000
,
0100
0000
0010
0000
,
0001
0000
2000
3000
,
0002
0003
0200
0300
,
0020
0030
1000
0000
,
0100
0000
0010
0000
,
0001
0000
1000
1000
,
0010
0010
0100
0100
,
0001
0001
2000
3001
,
1000
0000
0000
0000
0010
0000
0000
0000
0100
0000
0000
0000
,
0001
0000
1000
0100
,
0010
0000
0000
0000
0001
0000
0000
0000
0010
0000
0000
0000
,
0100
0000
0000
0000
0000
0000
0000
0000
0000
0000
1000
0000
0000
0010
0000
0000
,
1000
0000
0000
0000
0001
0000
0000
0000
1000
0000
0000
0000
,
0100
0000
0010
0001
,
1000
0010
0100
0000
,
0101
0101
1001
1001
,
1000
0000
0000
0000
0100
0000
0000
0000
0010
0000
0000
0000
,
0001
0000
0100
0010
,
1000
0000
0000
0000
0001
0000
0000
0000
0010
0000
0000
0000
,
0100
0000
0000
0000
0000
0000
1000
0000
0010
0000
1000
0000
,
0010
0000
0000
0100
0000
0001
0000
0100
0000
0001
0000
0000
,
0001
0000
0000
1000
0000
0100
0000
1000
0000
0100
0000
0000
,
0010
1000
0010
0001
,
1000
1010
1010
0101
,
2001
0000
3200
0000
,
0320
0000
0032
0000
,
0003
1000
0000
0000
0010
0000
0000
0100
0000
0100
0000
0000
0001
0000
0000
1000
,
0000
1000
0000
0000
0100
0000
0000
0010
0000
0010
0000
0000
0001
0000
0000
2000
,
0000
0000
3020
0000
,
0230
0000
0302
0000
,
0003
0010
0000
0000
0100
0000
0000
1000
0000
1000
0000
0000
0010
0000
0000
0100
,
0000
0100
0000
0000
0001
0000
0000
0010
0000
0010
0000
0000
0100
0000
0000
2000
,
0000
0000
0000
0000
,
3010
0000
0100
0000
0001
0000
1000
0001
2000
0000
0000
0000
3100
0000
0000
0000
,
1001
0000
0001
0100
0000
0001
0100
0000
,
0010
0000
1000
0001
0000
1000
0001
0000
,
0010
0100
0010
0001
,
0100
0010
1000
0001
,
0010
0000
0100
1000
0000
0100
1000
0000
,
0001
0000
0100
0010
0000
0100
0010
0000
,
1000
0001
0010
0100
,
0001
0100
1000
0001
,
0101
0000
0100
0010
0000
0100
0010
0000
,
1000
0000
0001
0010
0000
0001
0010
0000
,
0100
0001
0100
1000
,
0010
0100
0001
1000
,
0100
0000
0010
0001
0000
0010
0001
0000
,
0100
0000
0010
1000
0000
0010
1000
0000
,
0002
0010
2003
0100
,
3001
0100
0010
1000
,
1001
0001
0100
0100
,
0010
0010
1000
1000
,
0100
0100
0010
0010
,
0001
1000
0000
1001
0000
0110
0000
0000
,
0001
1000
0010
0100
,
0001
1000
0100
0010
,
0001
1000
0001
0000
0100
0000
0010
0000
,
2000
0000
0000
3100
,
2002
0000
0000
3003
,
1000
0010
0100
0001
,
1000
0000
0100
0010
0100
0000
1000
0000
,
0010
0001
0010
1000
,
0001
0100
0001
0000
1000
0000
0100
0000
,
0010
0000
0001
1000
0000
0001
1000
0000
,
0100
0000
0000
0100
0000
0000
0010
0000
0000
0010
0000
0000
0001
0000
0000
0000
,
1000
0010
0100
0001
,
1000
0000
0100
0010
0001
0000
1000
0000
,
0010
0100
0001
0010
,
0100
0000
0001
0100
1000
0000
0010
0000
,
0100
0001
0100
0000
0010
0000
1000
0000
,
0001
0010
0001
0000
1000
0000
0010
0000
,
0100
0001
0100
0000
0010
1000
0010
0000
,
0100
0000
0000
0101
0000
0000
2002
0000
,
0000
0000
0000
0000
0000
0000
3003
1000
,
0000
0000
0000
0000
0000
0000
0000
0000
0000
0000
0000
0000
1000
0000
0000
0000
0000
0000
0000
0000
0000
0000
0000
0000
0000
0000
0000
0000
0000
0000
0000
0000
0000
0000
0000
0000
0000
0000
0000
0000
0000
0000
0000
0000
0000
0000
0000
0000
0000
0000
0000
0000
0000
0000
0000
0000
0000
0000
0000
0000
0000
0000
0000
0000
0000
0000
0000
0000
0000
0000
0000
0000
0001
0000
0000
0000
0000
0000
0000
0000
0000
0000
0000
0000
0000
0000
0000
0000
0000
0000
0000
0000
0000
0000
0000
0000
0000
0000
0000
0000
0000
0000
0000
0000
0000
0000
0000
0000
0001
0000
0000
0000
0000
0000
0000
0000
0000
0000
0000
0000
0000
0000
0000
0000
0000
0000
0000
0000
0000
0000
0000
0000
0100
0000
0000
0000
0000
0000
0000
0000
0000
0000
0000
0000
0000
0000
0000
0000
0000
0000
0000
0000
0000
0000
0000
0000
0000
0000
0000
0000
0000
0000
0000
0010
0000
0000
0000
0000
0000
0000
0000
0000
0000
0000
0000
0000
0000
0000
0000
0000
0000
0000
0000
0000
0000
0000
0000
0000
0000
0000
0000
0000
;

//---------------dance-single - ----------------
#NOTEDATA:;
#CHARTNAME:;
#CHARTHASH:1353907094;
#STEPSTYPE:dance-single;
#BANNER:../Completeness Under Incompleteness (Basic & Difficult)/Completeness Under Incompleteness (Basic & Difficult).png;
#DESCRIPTION:;
#CHARTSTYLE:;
#DIFFICULTY:Medium;
#METER:13;
#METERF:0.000000;
#LASTSECONDHINT:121.232567;
#RADARVALUES:0.529229,0.616268,0.117606,0.124957,0.356494,504.000000,488.000000,16.000000,17.000000,0.000000,0.000000,0.000000,0.000000,0.000000,0.529229,0.616268,0.117606,0.124957,0.356494,504.000000,488.000000,16.000000,17.000000,0.000000,0.000000,0.000000,0.000000,0.000000;
#CREDIT:YOSEFU;
#NOTES:
0000
0000
0000
0000
,
0000
0000
0000
0000
,
0000
0000
0000
0000
0000
0000
0000
0000
1000
0000
0001
0100
0000
0001
0100
0000
,
0010
0000
1000
0001
0000
1000
0001
0000
0010
0000
0100
1000
0000
0100
1000
0000
,
0010
0000
0100
0001
0000
0100
0001
0000
1000
0000
0000
0000
0100
0000
0000
0000
,
0010
0000
0001
1000
0001
0000
0100
0000
,
0010
0000
1000
0001
1000
0000
0100
0000
,
0010
0000
0001
1000
0001
0000
0100
0000
,
0010
0000
1000
0001
1000
0000
0001
0010
,
0001
0000
1000
0010
1000
0000
0001
0100
,
0001
0000
1000
0100
1000
0000
0001
0010
,
0001
0000
1000
0100
1000
0100
0010
0000
,
0001
1000
0010
0100
0002
0000
1003
0000
,
0101
0000
0000
0000
0100
0000
0000
0000
0001
0000
0000
0000
,
1000
0000
0100
0000
0010
0001
0010
0100
,
1000
0000
0000
0000
0001
0000
0000
0000
0100
0000
0000
0000
,
0010
0000
0000
0000
0100
0000
0000
0000
0001
0000
1000
0000
0000
0100
0000
0000
,
0010
0000
0000
0000
0001
0000
0000
0000
1000
0000
0000
0000
,
0010
0000
0100
0000
0001
1000
0100
0010
,
0001
0000
0000
0000
0100
0000
0000
0000
0010
0000
0000
0000
1000
0000
0000
0000
0000
0000
0100
0000
0000
0010
0000
0000
,
0001
0000
0100
0000
0010
0000
1000
0000
0000
1001
0000
0000
,
0011
0000
0000
0000
0010
0000
0000
0000
0100
0000
0000
0000
,
1000
0000
0001
0000
0100
0010
1000
0001
,
0010
0000
0000
0000
0100
0000
0000
0000
1000
0000
0000
0000
,
0010
0000
0000
0100
0000
0000
0001
0000
1000
0000
0100
0000
,
0010
0000
0000
0001
0000
0100
0000
0010
0000
1000
0000
0000
,
1000
0000
0000
0100
0000
0010
0000
0001
0000
1000
0000
0000
,
0010
0000
0001
0010
1000
0100
0010
0001
,
0010
0100
1000
0001
0100
0010
1000
0100
,
0010
0001
0000
1000
0000
0010
0000
0100
0000
0001
0001
0000
0000
0000
1000
0100
,
0010
0001
0000
0100
0000
0010
0000
1000
0000
0001
0001
0000
0000
0000
0000
0010
,
0000
0100
0000
0000
1000
0000
0000
0010
0100
0001
0000
0000
1000
0000
0000
0100
,
0010
0001
0000
0000
1000
0000
0000
0010
0100
0001
0000
0000
0010
0000
0000
0000
,
0100
1000
0000
0010
0000
0100
0000
0001
0000
1000
1000
0000
0000
0000
0100
0010
,
0001
1000
0000
0010
0000
0100
0000
0001
0000
1000
1000
0000
0000
0000
0000
0100
,
0010
0001
0000
0000
1000
0010
0100
0001
1000
0000
0000
0000
0100
0010
0001
1000
,
0100
0000
0000
0000
0010
0001
0100
0010
1000
0000
0000
0010
0000
0000
0100
0000
,
0002
0000
0000
0000
,
1003
0100
1000
0100
0010
0001
0010
0001
0200
0000
0000
0000
0310
0000
0000
0000
,
1000
0010
0100
0001
0000
1000
0100
0010
,
0001
0100
0010
2000
0000
3001
0010
0100
,
1000
0010
0100
0001
1000
0100
0010
0100
,
1000
0001
0100
0010
0100
0001
1000
0100
,
0010
0001
1000
0010
0000
0100
0001
1000
,
0100
0010
1000
0020
0000
0031
0100
0010
,
1000
0000
0001
0000
0100
0010
1000
0000
,
0100
0010
0001
0010
0100
1000
0001
0000
,
0100
0010
1000
0001
0000
0100
0010
1000
,
0001
0010
0100
2000
0000
3001
0100
0010
,
0100
1000
0100
0001
0010
0100
1000
0001
,
0100
1000
0100
0001
0010
0100
1000
0001
,
0100
0010
1000
0001
0000
0010
0100
1000
,
0100
0001
0100
0020
0000
0031
0100
0010
,
1000
0100
0010
0000
0001
0100
0010
0000
,
1000
1010
0101
1100
,
0011
0001
1000
0001
,
1000
0010
0100
0010
,
1000
0001
0010
0100
,
1000
0001
0000
1001
0000
0220
0330
0000
,
0001
1000
0010
0000
0100
0001
1000
0000
,
0100
0010
0001
0000
1000
0010
0100
0000
,
0001
0010
0001
0010
0100
1000
0100
1000
,
0020
0000
0000
0130
,
0001
1000
0100
0010
0001
0100
0000
0020
0000
0000
0000
0000
1030
0000
0000
0000
,
0001
0010
0100
1000
0010
0100
0001
2000
,
0000
0000
3100
0000
0001
0000
0100
0000
1000
0000
0000
0100
0000
0000
1000
0000
,
0010
0000
0100
0000
0001
0000
1000
0000
0100
0000
0010
0000
0000
0001
0000
0000
,
0100
1000
0100
0002
0000
0013
1000
0010
,
0100
1000
0001
0100
0000
0010
1000
0100
,
1100
0000
0000
1010
0000
0000
0101
0000
0000
0011
0000
0000
0001
0000
0100
0000
,
0001
0010
0100
1000
0010
0100
0001
2000
,
0000
0000
3100
0000
0001
0000
0100
0000
1000
0000
0000
0010
0000
0000
0100
0000
,
0001
0010
0100
1000
0010
0100
0001
0020
,
0000
0000
0130
0000
0001
0000
0100
0000
1000
0000
0000
0001
0000
0000
0100
0000
,
0010
0000
1000
0000
0001
0000
0000
0010
0100
0000
1000
0000
0001
0000
0100
0000
,
1000
0000
0100
0000
0001
0000
0000
0010
0100
0000
1000
0000
0001
0000
0100
0000
,
0010
0000
0000
1000
0000
0000
0100
0000
0000
0010
0000
0000
0001
0000
1000
0000
,
1010
0000
0000
0001
0000
0000
0011
0000
0000
1000
0000
0000
2200
0000
0000
0000
,
0000
0000
0000
0000
0000
0000
0000
0000
0000
0000
0000
0000
3300
0000
0000
1000
,
0100
0000
0000
0000
0000
0000
0000
0000
0000
0000
0000
0000
0010
0000
0000
0000
0000
0000
0000
0000
0000
0000
0000
0000
0000
0000
0000
0000
0000
0000
0000
0000
0000
0000
0000
0000
0001
0000
0000
0000
0000
0000
0000
0000
0000
0000
0000
0000
1000
0000
0000
0000
0000
0000
0000
0000
0000
0000
0000
0000
0010
0000
0000
0000
0000
0000
0000
0000
0000
0000
0000
0000
0000
0000
0000
0000
0000
0000
0000
0000
0000
0000
0000
0000
0100
0000
0000
0000
0000
0000
0000
0000
0000
0000
0000
0000
0001
0000
0000
0000
0000
0000
0000
0000
0000
0000
0000
0000
1000
0000
0000
0000
0000
0000
0000
0000
0000
0000
0000
0000
0000
0000
0000
0000
0000
0000
0000
0000
0000
0000
0000
0000
0100
0000
0000
0000
0000
0000
0000
0000
0000
0000
0000
0000
0000
0000
1000
0000
0000
0000
0000
0000
0000
0000
0000
0000
0000
0000
0000
0000
0000
0000
0000
0010
0000
0000
0000
0000
0000
0000
0000
0000
0000
0000
0000
0000
0000
0000
0000
0000
0000
0000
0000
0000
0000
0000
0000
0000
0000
0000
0000
0000
;

//---------------dance-single - Yosefu (Inomplete)----------------
#NOTEDATA:;
#CHARTNAME:Yosefu (Inomplete);
#CHARTHASH:2147483647;
#STEPSTYPE:dance-single;
#BANNER:;
#DESCRIPTION:Yosefu (Inomplete);
#CHARTSTYLE:;
#DIFFICULTY:Hard;
#METER:15;
#METERF:0.000000;
#RADARVALUES:0.646835,0.792345,0.110256,0.132307,0.554955,616.000000,601.000000,15.000000,18.000000,0.000000,0.000000,0.000000,0.000000,0.000000,0.646835,0.792345,0.110256,0.132307,0.554955,616.000000,601.000000,15.000000,18.000000,0.000000,0.000000,0.000000,0.000000,0.000000;
#CREDIT:Yosefu (Inomplete);
#NOTES:
0000
0000
0000
0000
,
0000
0000
0000
0000
,
0000
0000
0000
0000
0000
0000
0000
0000
1000
0100
0010
0001
0000
1000
0100
0010
,
0000
0001
0100
0010
0000
1000
0001
0010
0100
1000
0001
0100
0000
0010
1000
0001
,
0000
0010
0001
0100
0000
1000
0100
0001
0010
0000
0100
0000
1000
0000
0001
0000
,
0000
0100
0010
1000
0000
0001
0010
0100
,
0000
0010
0001
1000
0010
0100
0001
1000
,
0000
0100
0010
0001
0000
1000
0010
0100
,
0000
0001
0010
0100
1000
0100
1000
0100
,
0010
0001
0010
0001
1000
0010
1000
0010
,
0100
0000
0001
0000
0100
0000
0001
0000
1000
0010
1000
0000
0001
0000
0100
0000
,
0001
1000
0001
0000
1000
0000
0100
0000
0010
0000
0001
1000
0010
0000
0100
0001
,
1000
0000
0100
0000
0010
0001
0010
0001
0020
0000
0000
0000
0130
0000
0000
0000
,
1000
1000
0001
0000
0000
0100
0010
0000
,
1000
1000
0100
0000
0010
0001
1000
0000
,
0010
0010
0100
0000
0000
0001
1000
0000
,
0100
0000
0100
0000
0010
0000
0000
0001
0000
0000
0001
0000
0100
0000
0010
0000
,
1000
1000
0001
0000
0000
0010
0100
0000
,
1000
1000
0010
0000
0100
0001
1000
0000
,
0100
0100
0010
0000
0001
1000
0010
0000
,
0100
0001
0100
0010
0100
0001
1000
0100
,
0010
0010
0001
0000
1000
0010
0100
0000
,
0001
0001
1000
0000
0100
0010
0001
0000
,
1000
1000
0010
0000
0100
0001
1000
0000
,
0100
0000
0100
0000
0010
0000
0000
0001
0000
1000
0001
0000
0100
0000
0010
0000
,
1000
1000
0001
0000
0010
0100
1000
0000
,
0010
0010
0100
0000
0001
1000
0100
0000
,
0010
0010
0001
0100
0010
1000
0001
0010
,
0100
0010
0001
1000
0010
0100
0001
0000
,
0100
0010
0000
1000
0000
0001
0000
0010
0000
0100
0100
0000
0000
0000
0010
0001
,
1000
0010
0000
0100
0000
0001
0000
1000
0000
0100
0100
0000
0000
0000
0000
0010
,
0000
0000
0001
0000
0000
0010
0000
0000
0001
0000
0000
1000
0000
0000
0010
0000
0000
0000
0100
0000
0000
0001
0000
0000
0100
0000
0000
0001
0000
0000
1000
0000
,
0000
0000
0100
0000
0000
0010
0000
0000
0100
0000
0000
0010
0000
0000
0001
0000
0000
0000
1000
0000
0000
0010
0000
0000
0100
0000
0000
0001
0000
0000
1000
0000
,
0100
0010
0000
0001
0000
1000
0000
0010
0000
0100
0100
0000
0000
0000
0001
0010
,
0100
1000
0000
0010
0000
0100
0000
0001
0000
1000
1000
0000
0000
0000
0000
0100
,
0010
0000
0001
0000
0000
1000
0000
0000
0010
0000
0100
0000
0001
0000
1000
0000
0000
0000
0100
0000
0000
0010
0000
0000
0001
0000
1000
0000
0010
0000
0100
0000
,
0000
0000
0001
0000
0000
1000
0000
0000
0100
0000
0010
0000
0001
0000
1000
0000
0010
0000
0000
0000
0100
0000
0001
0000
0000
0000
1000
0000
0100
0000
0000
0000
,
0020
0000
0001
0000
,
0031
1000
0001
0000
0100
0000
0000
0000
0010
1000
0010
0000
0100
0000
0000
0000
0002
0000
0000
0000
0000
0000
0000
0000
1003
0000
0000
0000
0000
0000
0000
0000
,
0100
0000
1000
0001
1000
0000
0100
0000
1000
0001
1000
0000
0100
0000
0010
0000
,
0001
0100
0010
2000
0000
3001
0010
0100
,
1000
0100
0010
0001
0100
0010
1000
0001
,
0010
0000
0100
0000
0010
0000
0001
1000
0000
0001
1000
0000
0100
0000
0010
0000
,
0001
0000
1000
0010
1000
0000
0001
0000
1000
0010
1000
0000
0001
0000
0010
0000
,
0100
1000
0010
0002
0000
0013
1000
0001
,
0010
0100
1000
0010
0100
0010
1000
0100
,
0010
0000
0001
0000
1000
0000
0001
0010
0000
0100
1000
0000
0001
0000
0100
0000
,
0010
0000
1000
0001
0010
0000
0100
0000
1000
0001
0010
0000
0100
0000
1000
0001
,
0010
0100
1000
0020
0000
0130
0001
0010
,
0100
0000
1000
0001
0100
0000
1000
0000
0100
0000
0001
0000
1000
0000
0100
0000
,
0010
0001
0100
0000
1000
0000
0100
0010
0000
0100
0001
0000
1000
0000
0100
0000
,
0010
0000
0001
1000
0010
0000
0100
0000
0001
1000
0010
0000
0100
0000
0001
1000
,
0100
0010
0100
0002
0000
0103
1000
0010
,
0100
0000
0001
0000
1000
0000
0001
0100
0000
0010
1000
0000
0001
0000
0000
0000
,
1000
0100
0010
0001
0100
0001
0010
0100
,
1000
0010
0100
0001
,
1000
0100
0010
0001
,
1000
0010
0100
0001
,
1000
0100
0000
0110
0000
0022
0000
0033
,
0001
0100
0001
0100
0010
1000
0010
1000
,
0001
0010
0001
0010
0100
1000
0100
1000
,
0001
0100
0001
0000
1000
0000
0100
0000
0010
0001
0010
0000
0100
0000
1000
0000
,
0020
0000
0000
0030
,
1000
0000
0010
0000
0100
0000
0001
0000
0010
0000
0100
0000
0000
0000
2000
0000
0000
0000
0000
0000
0000
0000
0000
0000
3001
0000
0000
0100
0000
0000
0010
0000
,
1000
0000
0001
0010
0100
0000
1000
0000
0001
0010
0100
0000
1000
0000
0002
0000
,
0000
0000
0013
0000
1000
0000
0010
0000
0001
0000
0000
1001
0000
0000
0101
0000
,
0100
0000
0001
1000
0010
0000
0100
0001
0000
0000
0010
0000
0000
0100
0000
0000
,
0001
0000
0100
0000
1000
0000
0002
0000
0000
0000
0103
0010
1000
0000
0001
0000
,
0010
0000
0100
1000
0001
0000
0200
0000
0000
0000
0310
1000
0010
1000
0010
0000
,
1000
0000
0000
1100
0000
0000
0101
0000
0000
1010
0000
0000
0011
0000
0001
0000
,
1000
0000
0001
0100
0010
0000
1000
0000
0001
0010
0100
0000
1000
0000
0002
0000
,
0000
0000
0103
0000
1000
0000
0100
0000
0010
0000
0000
1010
0000
0000
0011
0000
,
0010
0000
0100
1000
0001
0000
0100
0000
0010
1000
0001
0000
0010
0000
0200
0000
,
0000
0000
0310
0000
1000
0000
0010
0000
0001
0000
0000
0101
0000
0000
1100
0000
,
1000
0000
0100
0010
0001
0000
1000
0000
0010
0000
0000
0101
0000
0000
1010
0000
,
1000
0000
0100
0010
0001
0000
0100
0000
0010
0000
1000
0001
0010
0000
0100
0000
,
1000
0001
0000
0100
0000
0000
0010
1000
0000
0001
0000
0000
0010
0100
1000
0000
,
0001
0100
0000
0010
0000
0000
1000
0100
0000
0010
0000
0000
0022
0000
0000
0000
,
0000
0000
0000
0000
0000
0000
0000
0000
0000
0000
0000
0000
0033
0000
0000
0001
,
0100
0000
0000
0000
0000
0000
0000
0000
0000
0000
0000
0000
0010
0000
0000
0000
0000
0000
0000
0000
0000
0000
0000
0000
0000
0000
0000
0000
0000
0000
0000
0000
0000
0000
0000
0000
1000
0000
0000
0000
0000
0000
0000
0000
0000
0000
0000
0000
0100
0000
0000
0000
0000
0000
0000
0000
0000
0000
0000
0000
0010
0000
0000
0000
0000
0000
0000
0000
0000
0000
0000
0000
0000
0000
0000
0000
0000
0000
0000
0000
0000
0000
0000
0000
0001
0000
0000
0000
0000
0000
0000
0000
0000
0000
0000
0000
1000
0000
0000
0000
0000
0000
0000
0000
0000
0000
0000
0000
0010
0000
0000
0000
0000
0000
0000
0000
0000
0000
0000
0000
0000
0000
0000
0000
0000
0000
0000
0000
0000
0000
0000
0000
0001
0000
0000
0000
0000
0000
0000
0000
0000
0000
0000
0000
0000
0000
0010
0000
0000
0000
0000
0000
0000
0000
0000
0000
0000
0000
0000
0000
0000
0000
0000
1000
0000
0000
0000
0000
0000
0000
0000
0000
0000
0000
0000
0000
0000
0000
0000
0000
0000
0000
0000
0000
0000
0000
0000
0000
0000
0000
0000
0000
;

//---------------dance-single - Yosefu (Complete)----------------
#NOTEDATA:;
#CHARTNAME:Yosefu (Complete);
#CHARTHASH:398690939;
#STEPSTYPE:dance-single;
#BANNER:;
#DESCRIPTION:Yosefu (Complete);
#CHARTSTYLE:;
#DIFFICULTY:Challenge;
#METER:17;
#METERF:0.000000;
#RADARVALUES:0.819045,0.982381,0.044102,0.124957,1.018031,780.000000,774.000000,6.000000,17.000000,13.000000,0.000000,0.000000,0.000000,0.000000,0.819045,0.982381,0.044102,0.124957,1.018031,780.000000,774.000000,6.000000,17.000000,13.000000,0.000000,0.000000,0.000000,0.000000;
#CREDIT:Yosefu (Complete);
#NOTES:
// measure 0
0000
0000
0000
0000
,  // measure 1
0000
0000
0000
0000
,  // measure 2
0000
0000
0000
0000
0000
0000
0000
0000
0000
0000
0000
0000
0000
0000
0000
0000
0000
0000
0000
0000
0000
0000
0000
0000
0000
0000
0000
0000
0000
0000
0000
0000
1000
0000
0000
0000
0010
0000
0000
0000
0100
0000
0000
0000
0001
0000
0000
0000
0000
0000
0000
0000
0010
000M
0000
0000
0100
0000
0000
0000
0001
0000
0000
0000
,  // measure 3
1000
0000
0000
0000
0100
0000
0000
0000
0010
0000
0000
0000
0001
0000
0000
0000
0000
0000
0000
0000
010M
0000
0000
0000
0001
0000
0000
0000
0010
0000
0000
0000
0100
0000
0000
0000
0001
0000
0000
0000
0100
0000
0000
0000
1000
0000
0000
0000
0000
0000
0000
0000
0001
M000
0000
0000
0100
0000
0000
0000
1000
0000
0000
0000
,  // measure 4
0010
0001
0010
0100
0000
1000
0100
0001
0010
0000
0001
0000
0100
0000
0010
0000
,  // measure 5
0010
0000
0000
0000
0001
00M0
0000
0000
0100
0000
0000
0000
0010
0000
0000
0000
0010
0000
0000
0000
0001
00M0
0000
0000
0100
0000
0000
0000
0010
0000
0000
0000
,  // measure 6
0010
1000
0100
0010
0001
1000
0010
0100
,  // measure 7
0100
0000
0000
0000
1000
0M00
0000
0000
0010
0000
0000
0000
0100
0000
0000
0000
0100
0000
0000
0000
1000
0M00
0000
0000
0010
0000
0000
0000
0100
0000
0000
0000
,  // measure 8
0100
1000
0100
0001
1000
0001
0010
0100
,  // measure 9
0100
0000
0000
0000
0001
0M00
0000
0000
0010
0000
0000
0000
0100
0000
0000
0000
0100
0000
0000
0000
0001
0M00
0000
0000
0010
0000
0000
0000
0100
0000
0000
0000
,  // measure 10
0100
0000
1000
0000
0001
0000
0010
0000
0100
1000
0100
1000
0001
1000
0001
1000
,  // measure 11
0001
0100
0001
0100
0010
1000
0010
1000
0001
0000
0010
0000
0100
0000
1000
0001
,  // measure 12
1000
0010
0100
0001
0100
0001
1000
0100
0020
0000
0000
0000
0031
0000
0000
0000
,  // measure 13
1000
0000
1000
0000
0001
0000
0010
0100
1000
0000
0010
0000
0100
0000
0001
0000
,  // measure 14
1000
0000
1000
0000
0100
0000
0010
0001
1000
0000
0001
0000
0100
0010
0100
0010
,  // measure 15
1000
0000
1000
0000
0100
0000
0010
0001
1000
0000
0010
0000
0100
0000
0001
0000
,  // measure 16
0010
0000
0010
0000
0001
0000
1000
0100
0010
0000
0100
0000
1000
0000
0001
0000
,  // measure 17
0100
0000
0100
0000
0010
0000
1000
0001
0010
0000
0100
0000
1000
0000
0001
0000
,  // measure 18
0100
0000
0100
0000
0010
0000
1000
0001
0010
0000
0100
0000
1000
0001
1000
0001
,  // measure 19
0100
0000
0100
0000
0001
0000
0010
0001
0010
0000
0100
0000
1000
0000
0001
0000
,  // measure 20
0100
0000
1000
0000
0100
0000
0001
0000
0010
0000
1000
0010
0100
0000
1000
0001
,  // measure 21
0100
0000
0100
0000
0010
0000
1000
0001
0010
0000
0100
0000
1000
0000
0010
0000
,  // measure 22
0100
0000
0100
0000
0001
0000
1000
0100
0010
0000
0001
0000
1000
0010
1000
0010
,  // measure 23
0100
0000
0100
0000
0001
0000
0010
0100
1000
0000
0100
0000
0010
0000
0001
0000
,  // measure 24
1000
0000
1000
0000
0010
0000
0100
0001
1000
0000
0100
0000
0010
0000
0001
0000
,  // measure 25
0100
0000
0100
0000
0010
0000
0100
0001
1000
0000
0100
0000
0010
0000
0001
0000
,  // measure 26
0100
0000
0100
0000
0001
0000
0010
0100
1000
0000
0001
0000
0100
0000
0010
0000
,  // measure 27
0100
0000
0100
0001
0010
0100
1000
0100
0010
0001
0100
0000
0010
0000
1000
0000
,  // measure 28
0001
0000
0010
0100
1000
0000
1000
0100
0010
0000
0010
0001
0100
0000
0000
0000
,  // measure 29
0001
0000
0010
0000
0000
0000
1000
0000
0000
0000
0010
0000
0000
0000
0001
0000
0000
0000
0100
0000
0100
0000
0000
0000
0000
0000
0000
0000
0001
0010
0100
1000
,  // measure 30
0001
0010
0000
0100
0000
1000
0000
0001
0000
0100
0100
0000
0000
0000
0000
0010
,  // measure 31
0000
0000
1000
0000
0000
0010
0000
0000
0100
0000
0000
0010
0000
0000
1000
0000
0000
0000
0001
0000
0000
0010
0000
0000
0100
0000
0000
0010
0000
0000
0001
0000
,  // measure 32
0000
0000
0100
0000
0000
0010
0000
0000
1000
0000
0000
0010
0000
0000
0100
0000
0000
0000
0001
0000
0000
0100
0000
0000
1000
0000
0000
0100
0000
0000
0001
0000
,  // measure 33
1000
0000
0100
0000
0000
0000
0001
0000
0000
0000
0100
0000
0000
0000
1000
0000
0000
0000
0010
0000
0010
0000
0000
0000
0000
0000
0000
0000
1000
0010
0100
0001
,  // measure 34
1000
0010
0000
0100
0000
0001
0000
0010
0000
0100
0100
0000
0000
0000
1000
0001
,  // measure 35
0000
0000
0010
0000
0000
0001
0000
0000
0010
0000
0100
0000
1000
0000
0010
0000
0000
0000
0100
0000
0000
0001
0000
0000
0010
0000
0100
0000
1000
0000
0001
0000
,  // measure 36
0000
0000
0100
0000
0000
0010
0000
0000
1000
0000
0001
0000
0010
0000
1000
0000
0020
0000
0000
0000
0000
0000
0130
0000
1000
0000
0001
0000
0100
0000
0000
0000
,  // measure 37
0002
0000
0100
0000
,  // measure 38
1003
0010
1000
0010
1000
0010
1000
0010
0100
0001
0100
0001
0100
0001
0100
0001
2000
0000
0000
0000
0000
0000
0000
0000
3100
0000
0000
0000
0000
0000
0000
0000
,  // measure 39
1000
0000
0001
0100
0010
1000
0001
0000
0100
0010
1000
0001
0100
0000
0010
1000
,  // measure 40
0100
0010
0001
2000
0000
3010
0100
0001
,  // measure 41
1000
0000
0100
0010
0100
1000
0001
0100
0010
1000
0001
0000
0010
0100
1000
0000
,  // measure 42
0100
0010
0001
0010
0100
1000
0001
0000
0100
0010
1000
0000
0001
0010
0100
0000
,  // measure 43
1000
0000
0100
0010
0001
1000
0100
0000
0010
0001
1000
0010
0100
0000
0001
0010
,  // measure 44
0100
1000
0010
0002
0000
0013
0100
0001
,  // measure 45
1000
0000
0100
0010
0001
1000
0010
0100
0010
1000
0001
0000
0010
0100
1000
0000
,  // measure 46
0001
0100
0010
0000
1000
0100
0010
0000
0001
0100
0010
1000
0001
0010
0100
0000
,  // measure 47
1000
0000
0010
0100
0001
1000
0100
0000
0010
0001
1000
0010
0100
0000
0001
0010
,  // measure 48
0100
1000
0001
0200
0000
0310
0100
0001
,  // measure 49
1000
0000
0010
0100
1000
0100
0010
1000
0001
0010
0100
0010
0001
1000
0010
0000
,  // measure 50
0100
1000
0100
0010
0100
0001
1000
0100
0010
0001
0100
0010
1000
0001
0010
0000
,  // measure 51
0100
0000
1000
0010
0100
0001
1000
0000
0100
0010
0001
1000
0010
0000
0100
0001
,  // measure 52
0010
0001
0100
2000
0000
3100
0001
1000
,  // measure 53
0100
0000
0010
0001
0100
0000
0010
1000
0001
1000
0010
0000
0100
0000
0001
0000
,  // measure 54
1000
0000
0100
0010
0001
0000
0001
0100
0010
0000
0010
1000
0001
0000
0000
0000
,  // measure 55
1000
0001
0100
0001
,  // measure 56
0010
0100
1000
0100
,  // measure 57
0001
0000
0000
0000
0100
0000
0000
0000
1000
0000
0000
0000
0010
0000
0100
0001
,  // measure 58
1000
0000
1010
0000
0000
0000
0101
0000
0000
0000
0001
0010
0100
0000
0000
0000
,  // measure 59
0010
0100
1000
0010
0001
0010
1000
0100
,  // measure 60
0010
1000
0001
0100
1000
0010
0001
0010
,  // measure 61
1000
0010
1000
0010
0100
0001
0100
0001
1000
0100
0010
0001
0100
0010
1000
0001
,  // measure 62
0020
0000
0000
0130
,  // measure 63
2002
0000
0000
3003
,  // measure 64
1000
0000
0000
0000
0001
0000
1000
0000
0001
0000
0010
0000
0100
0000
0000
0000
0001
0M00
1000
0000
0001
0000
0010
0000
0100
0000
0000
0000
2000
0000
0000
0000
,  // measure 65
0010
0000
3001
0000
0010
0000
1000
0000
0010
0000
0100
1000
0000
0010
0100
0000
,  // measure 66
1000
0000
0100
0010
0100
0000
0001
1000
0000
0100
0010
0000
0001
0100
0000
0000
,  // measure 67
1000
0000
0100
0000
0001
0000
1000
0000
0100
0000
0010
0100
1000
0100
0010
0001
,  // measure 68
1000
0000
0010
0100
0001
1000
0200
0000
0000
0000
1300
0100
0010
0100
0001
0100
,  // measure 69
1000
0000
0010
0100
0000
1000
0100
0000
0001
1000
0000
0100
1000
0000
0001
0000
,  // measure 70
0100
0000
0000
0000
0010
0000
1000
0000
0001
0000
1000
0000
0100
0000
0000
0000
0010
0M00
1000
0000
0001
0000
1000
0000
0100
0000
0000
0000
0020
0000
0000
0000
,  // measure 71
0100
0000
0031
0000
1000
0000
0010
0000
0001
0000
0010
0100
0000
0001
1000
0000
,  // measure 72
0100
0000
0000
0000
0010
0000
0001
0000
1000
0000
0001
0000
0100
0000
0000
0000
0010
0M00
0001
0000
1000
0000
0001
0000
0100
0000
0000
0000
0002
0000
0000
0000
,  // measure 73
1000
0000
0103
0000
1000
0000
0100
0000
0001
0000
1000
0100
0000
0010
0001
0000
,  // measure 74
0100
0000
1000
0100
0001
0000
1000
0100
0010
0000
1000
0010
0000
0001
1000
0000
,  // measure 75
0010
0000
0100
0001
0010
0100
1000
0010
0100
0001
1000
0100
0010
0001
0100
0010
,  // measure 76
1000
0100
0010
0001
1000
0010
0100
0001
1000
0100
0010
0100
1000
0001
0100
0010
,  // measure 77
1000
0100
0000
0011
0000
0000
0001
0100
0000
1010
0000
0000
0202
0000
0000
0000
,  // measure 78
0000
0000
0303
0000
0000
0000
0000
0001
0010
0100
0000
0001
0100
1000
0000
0010
,  // measure 79
0100
0000
0000
0000
0000
0000
0000
0000
0000
0000
0000
0000
0001
0000
0000
0000
0000
0000
0000
0000
0000
0000
0000
0000
0000
0000
0000
0000
0000
0000
0000
0000
0000
0000
0000
0000
1000
0000
0000
0000
0000
0000
0000
0000
0000
0000
0000
0000
0100
0000
0000
0000
0000
0000
0000
0000
0000
0000
0000
0000
0010
0000
0000
0000
0000
0000
0000
0000
0000
0000
0000
0000
0000
0000
0000
0000
0000
0000
0000
0000
0000
0000
0000
0000
0001
0000
0000
0000
0000
0000
0000
0000
0000
0000
0000
0000
0100
0000
0000
0000
0000
0000
0000
0000
0000
0000
0000
0000
0010
0000
0000
0000
0000
0000
0000
0000
0000
0000
0000
0000
0000
0000
0000
0000
0000
0000
0000
0000
0000
0000
0000
0000
1000
0000
0000
0000
0000
0000
0000
0000
0000
0000
0000
0000
0000
0000
0100
0000
0000
0000
0000
0000
0000
0000
0000
0000
0000
0000
0000
0000
0000
0000
0000
0001
0000
0000
0000
0000
0000
0000
0000
0000
0000
0000
0000
0000
0000
0000
0000
0000
0000
0000
0000
0000
0000
0000
0000
0000
0000
0000
0000
0000
;
