#TITLE:Cold Pizza;
#SUBTITLE:;
#ARTIST:m1dy;
#MUSIC:Cold Pizza.ogg;
#BANNER:Speedcore;
#BACKGROUND:Cold Pizza-background.png;
#LYRICSPATH:;
#CDTITLE:../_YSD cdtitles/ysd cc2 cdtitle.png;
#SAMPLESTART:36.000000;
#SAMPLELENGTH:21.333000;
#OFFSET:-0.005;
#BPMS:0.000=360.000;
#STOPS:;
#TIMESIGNATURES:0.000=4=4;
#BGCHANGES:;
#FGCHANGES:;
#ATTACKS:;
#TAGS:;
#PREVIEWVID:;
#KEYSOUNDS:;

//---------------dance-single - ---------------
#NOTES:
     dance-single:
     :
     Challenge:
     18:
     1.058538,1.256737,0.051576,0.369629,0.000000,862.000000,856.000000,6.000000,43.000000,0.000000,0.000000,0.000000,0.000000,0.000000,1.058538,1.256737,0.051576,0.369629,0.000000,862.000000,856.000000,6.000000,43.000000,0.000000,0.000000,0.000000,0.000000,0.000000:
// measure 0
0000
0000
0000
0000
,  // measure 1
0000
0000
0000
0000
,  // measure 2
0000
0000
0000
0000
,  // measure 3
0000
0000
0000
0000
,  // measure 4
0000
0000
0000
0000
,  // measure 5
0000
0000
0000
0000
,  // measure 6
0000
0000
0000
0000
,  // measure 7
0000
0000
0000
0000
,  // measure 8
2000
0000
0000
3001
0100
0000
0002
0000
,  // measure 9
0000
1003
0100
0000
0010
0001
1000
0010
,  // measure 10
0200
0000
0000
0301
1000
0000
0200
0000
,  // measure 11
0000
0310
0001
0000
1000
0010
0100
0001
,  // measure 12
2000
0000
0000
3100
0010
0000
0002
0000
,  // measure 13
0000
0103
0010
0000
1000
0001
0010
0100
,  // measure 14
0020
0000
0000
0031
1000
0000
0020
0000
,  // measure 15
0000
0130
0001
0000
1000
0100
0010
0001
,  // measure 16
2002
0000
0000
0000
,  // measure 17
0000
0000
0000
0000
,  // measure 18
0000
0000
0000
0000
,  // measure 19
0000
0000
3003
0000
,  // measure 20
0001
0000
0010
0100
1000
0000
0001
0000
,  // measure 21
0010
0100
1000
0000
0010
0100
0001
1000
,  // measure 22
0001
0000
0100
0010
1000
0000
0001
0000
,  // measure 23
0100
0010
1000
0000
0001
0010
0100
1000
,  // measure 24
0010
0000
0100
0001
1000
0000
0010
0000
,  // measure 25
0100
0001
1000
0000
0100
0010
0001
0100
,  // measure 26
0001
0000
1000
0001
0100
0000
0001
0000
,  // measure 27
1000
0001
0100
0000
0001
1000
0100
0010
,  // measure 28
0100
0000
1000
0100
0010
0000
0001
0000
,  // measure 29
1000
0001
0100
0000
0001
1000
0010
0100
,  // measure 30
0001
0000
1000
0001
0010
0000
0001
0000
,  // measure 31
1000
0001
0010
0000
0001
1000
0100
0010
,  // measure 32
0001
0000
1000
0010
0100
0000
0001
0000
,  // measure 33
1000
0001
0010
0000
0100
1000
0010
0100
,  // measure 34
0002
0000
0000
0000
,  // measure 35
0000
0000
0000
0000
,  // measure 36
1003
0000
0100
0010
0100
0000
1000
0000
,  // measure 37
0001
0100
0001
0000
1000
0010
0100
0001
,  // measure 38
1000
0000
0001
0010
0001
0000
1000
0000
,  // measure 39
0001
0010
0001
0000
1000
0100
0010
0001
,  // measure 40
0100
0000
0001
1000
0001
0000
0100
0000
,  // measure 41
0001
1000
0001
0000
0100
0010
1000
0001
,  // measure 42
0010
0000
0100
1000
0100
0000
0010
0000
,  // measure 43
0100
1000
0100
0000
0010
0100
1000
0001
,  // measure 44
0100
0000
0010
1000
0010
0000
0100
0000
,  // measure 45
0010
1000
0010
0000
0100
0010
1000
0001
,  // measure 46
0010
0000
0100
1000
0100
0000
0010
0000
,  // measure 47
0001
1000
0001
0000
0010
0100
1000
0001
,  // measure 48
0200
0000
0000
0310
1000
0000
0002
0000
,  // measure 49
0000
0013
0100
0000
1000
0100
0010
0001
,  // measure 50
0200
0000
0000
0310
1000
0000
0002
0000
,  // measure 51
0000
0013
0100
0000
2000
0000
0000
0000
,  // measure 52
3001
0010
0001
0100
0010
1000
0100
1000
,  // measure 53
0010
0100
0001
0010
0001
1000
0100
0010
,  // measure 54
0001
1000
0000
1000
0010
0000
0010
0100
,  // measure 55
0000
0100
0001
0000
1000
0000
0001
0000
,  // measure 56
0010
0001
0000
0001
1000
0000
1000
0010
,  // measure 57
0000
0010
0100
0000
0001
0000
1000
0000
,  // measure 58
0001
0010
0000
0010
0100
0000
0100
1000
,  // measure 59
0000
1000
0010
0000
0100
0000
0001
0000
,  // measure 60
1000
0100
0000
0100
0010
0000
0010
0001
,  // measure 61
1000
0001
0100
0010
1000
0000
0001
0000
,  // measure 62
0010
0100
0000
0100
1000
0000
1000
0010
,  // measure 63
0000
0010
0100
0000
0001
0000
1000
0000
,  // measure 64
0010
0100
0000
0100
0010
0000
0010
1000
,  // measure 65
0000
1000
0001
0000
0010
0000
0100
0000
,  // measure 66
1000
0100
0000
0100
0010
0000
0010
0001
,  // measure 67
0000
0001
0100
0000
0010
0000
1000
0000
,  // measure 68
0002
0000
0000
0000
,  // measure 69
0000
0000
0000
0000
,  // measure 70
1003
0100
0000
1000
0001
0000
1000
0010
,  // measure 71
0000
0100
0001
0000
1000
0000
0100
0000
,  // measure 72
0010
0001
0000
1000
0001
0000
0100
0010
,  // measure 73
0000
1000
0001
0000
0010
0000
0100
0000
,  // measure 74
1000
0010
0000
0100
0001
0000
1000
0001
,  // measure 75
0000
0010
0100
0000
1000
0000
0010
0000
,  // measure 76
0100
0001
0000
1000
0001
0000
0010
0100
,  // measure 77
1000
0010
0100
0001
1000
0000
0001
0000
,  // measure 78
0100
0010
0000
1000
0010
0000
0100
0001
,  // measure 79
0000
0010
0100
0000
1000
0000
0010
0000
,  // measure 80
0100
0001
0000
1000
0100
0000
0010
0001
,  // measure 81
0000
1000
0001
0000
0100
0000
0010
0000
,  // measure 82
1000
0001
0000
0010
0100
0000
1000
0100
,  // measure 83
0010
0001
0100
0010
1000
0000
0010
0000
,  // measure 84
2002
0000
0000
0000
,  // measure 85
3003
0000
0000
0000
,  // measure 86
1000
0010
0100
0000
0001
1000
0000
0001
,  // measure 87
0010
0000
0001
0100
0000
0010
1000
0000
,  // measure 88
0001
0010
0100
0000
1000
0100
0000
0010
,  // measure 89
0001
0000
0100
0010
0000
1000
0010
0000
,  // measure 90
0100
0001
1000
0000
0100
0010
0000
0100
,  // measure 91
1000
0000
0010
0100
0000
0001
0100
0000
,  // measure 92
0001
1000
0010
0000
0100
0001
0000
0010
,  // measure 93
0100
0000
1000
0100
0000
0010
0001
0000
,  // measure 94
1000
0010
0100
0000
0001
1000
0000
0001
,  // measure 95
0010
0000
0100
1000
0000
0010
0100
0000
,  // measure 96
0001
1000
0010
0000
0100
0010
0000
0100
,  // measure 97
0001
0000
1000
0001
0000
0010
0100
0000
,  // measure 98
1000
0100
0010
0000
0001
1000
0000
0010
,  // measure 99
0100
0000
0010
1000
0000
0001
0010
0000
,  // measure 100
2002
0000
0000
0000
,  // measure 101
0000
0000
3003
0000
,  // measure 102
1000
0010
0100
0000
0001
1000
0000
0100
,  // measure 103
0010
0000
0001
1000
0000
0010
0100
0000
,  // measure 104
0001
1000
0100
0000
0010
0100
0000
1000
,  // measure 105
0001
0000
0100
0010
0000
1000
0001
0000
,  // measure 106
0010
0001
1000
0000
0010
0100
0000
0001
,  // measure 107
1000
0000
0100
0010
0000
0001
1000
0000
,  // measure 108
0010
0100
0001
0000
1000
0100
0000
0010
,  // measure 109
0100
0000
1000
0001
0000
0100
0010
0000
,  // measure 110
1000
0001
0010
0000
0100
0010
0000
0001
,  // measure 111
1000
0000
0010
0100
0000
0001
0010
0000
,  // measure 112
0100
1000
0001
0000
0100
0010
0000
1000
,  // measure 113
0001
0000
0100
0001
0000
1000
0100
0000
,  // measure 114
0010
0001
1000
0000
0010
0100
0000
0001
,  // measure 115
0100
0000
0001
1000
0000
0100
0010
0000
,  // measure 116
0001
1000
0010
0000
0100
0001
0000
1000
,  // measure 117
0100
0000
1000
0001
0100
0010
1000
0001
,  // measure 118
1000
0100
0010
0100
1000
0000
0001
0100
,  // measure 119
0010
0100
0001
0000
1000
0100
0010
0001
,  // measure 120
1000
0001
0100
0010
1000
0000
0001
0010
,  // measure 121
0100
0010
0001
0000
1000
0010
0100
0001
,  // measure 122
0010
0100
1000
0001
0100
0000
0010
1000
,  // measure 123
0001
0010
0100
0000
0010
0001
1000
0010
,  // measure 124
0100
0001
1000
0100
0010
0000
0100
1000
,  // measure 125
0001
0100
0010
0000
1000
0001
0010
0001
,  // measure 126
0100
0010
1000
0001
0010
0000
0100
1000
,  // measure 127
0001
0100
0010
0000
1000
0001
0010
0100
,  // measure 128
0010
0001
1000
0010
0100
0000
0001
1000
,  // measure 129
0100
1000
0001
0000
0100
0010
1000
0001
,  // measure 130
0010
0100
1000
0010
1000
0000
0001
0100
,  // measure 131
0001
1000
0010
0000
1000
0100
1000
0010
,  // measure 132
1000
0001
1000
0100
0010
0000
0001
0100
,  // measure 133
0010
1000
0001
0000
1000
0010
0100
0001
,  // measure 134
1000
0100
0010
0001
0100
0001
1000
0100
,  // measure 135
0010
0100
1000
0001
0100
0010
1000
0100
,  // measure 136
1000
0001
0010
0100
0010
0001
1000
0010
,  // measure 137
0100
0001
0010
0100
1000
0001
0100
0010
,  // measure 138
1000
0100
0010
0001
1000
0010
0100
0001
,  // measure 139
0010
0100
0010
0001
1000
0010
0100
0001
,  // measure 140
0010
0001
1000
0100
0010
0100
1000
0001
,  // measure 141
0100
0010
0100
0001
1000
0100
0010
0001
,  // measure 142
1000
0100
0001
0100
0010
0001
1000
0010
,  // measure 143
0001
0010
0100
0001
0010
0100
0001
0100
,  // measure 144
1000
0001
0100
0010
1000
0100
0001
0100
,  // measure 145
0010
0001
1000
0010
0001
0010
1000
0100
,  // measure 146
0010
1000
0010
0001
1000
0010
0001
0010
,  // measure 147
0100
0001
1000
0100
0001
1000
0010
0001
,  // measure 148
1000
0000
0000
0000
,  // measure 149
0202
0000
0303
0000
,  // measure 150
0002
0000
0000
1003
0100
0000
0020
0000
,  // measure 151
0000
0031
1000
0000
0010
0100
0001
1000
,  // measure 152
0200
0000
0000
0310
0001
0000
2000
0000
,  // measure 153
0000
3010
0100
0000
0001
1000
0100
0010
,  // measure 154
0002
0000
0000
1003
0010
0000
0200
0000
,  // measure 155
0000
0301
1000
0000
0100
0010
0100
1000
,  // measure 156
0002
0000
0000
0103
0010
0000
2000
0000
,  // measure 157
0000
3001
0010
0000
0100
0010
0001
1000
,  // measure 158
0020
0000
0000
0130
0001
0000
2000
0000
,  // measure 159
0000
3100
0010
0000
0100
1000
0001
0100
,  // measure 160
0020
0000
0000
1030
0001
0000
0020
0000
,  // measure 161
0000
0130
1000
0000
0001
0100
0010
0100
,  // measure 162
0002
0000
0000
1003
0100
0000
0020
0000
,  // measure 163
0000
0130
1000
0000
0001
0100
0010
1000
,  // measure 164
0002
0000
0000
0013
0100
0000
2000
0000
,  // measure 165
0000
3010
0100
0001
1000
0100
0010
0001
,  // measure 166
2002
0000
0000
0000
,  // measure 167
0000
0000
0000
0000
,  // measure 168
0000
0000
0000
0000
,  // measure 169
0000
0000
3003
0000
,  // measure 170
0220
0000
0000
0000
,  // measure 171
0000
0000
0000
0000
,  // measure 172
0330
0000
0000
0000
;
