#VERSION:0.83;
#TITLE:Cogito ergo sum;
#SUBTITLE:;
#ARTIST:佐藤 優樹;
#TITLETRANSLIT:;
#SUBTITLETRANSLIT:;
#ARTISTTRANSLIT:Youki Sato;
#GENRE:Instrumental Rock;
#ORIGIN:オンゲキ bright MEMORY;
#TAGS:;
#CREDIT:bg by Enze_恩沢 from pixiv;
#BANNER:Cogito ergo sum.png;
#BACKGROUND:Cogito ergo sum-bg.png;
#PREVIEWVID:;
#JACKET:Cogito ergo sum-jacket.png;
#CDIMAGE:;
#DISCIMAGE:;
#LYRICSPATH:;
#CDTITLE:../_YSD cdtitles/ysd cdtitle.png;
#MUSIC:Cogito ergo sum.ogg;
#OFFSET:-0.324000;
#SAMPLESTART:44.118999;
#SAMPLELENGTH:28.030001;
#SELECTABLE:YES;
#BPMS:0.000000=137.000000
;
#STOPS:;
#DELAYS:;
#WARPS:;
#TIMESIGNATURES:0.000000=4=4
;
#TICKCOUNTS:0.000000=4
;
#COMBOS:0.000000=1
;
#SPEEDS:0.000000=1.000000=0.000000=0
;
#SCROLLS:0.000000=1.000000
;
#FAKES:;
#LABELS:0.000000=Song Start
;
#BGCHANGES:;
#KEYSOUNDS:;
#ATTACKS:
;

//---------------dance-single - ----------------
#NOTEDATA:;
#CHARTNAME:I may be stoopid...;
#CHARTHASH:3620806524;
#STEPSTYPE:dance-single;
#BANNER:;
#DESCRIPTION:;
#CHARTSTYLE:;
#DIFFICULTY:Beginner;
#METER:7;
#METERF:0.000000;
#LASTSECONDHINT:120.433487;
#RADARVALUES:0.225473,0.315184,0.091941,0.022985,0.137911,206.000000,194.000000,12.000000,3.000000,0.000000,0.000000,0.000000,0.000000,0.000000,0.225473,0.315184,0.091941,0.022985,0.137911,206.000000,194.000000,12.000000,3.000000,0.000000,0.000000,0.000000,0.000000,0.000000;
#CREDIT:YOSEFU;
#NOTES:
0000
0000
0000
0000
,
0000
0000
0000
0000
,
0000
0000
0000
0000
,
0000
0000
0000
0000
,
1000
0000
0000
0000
0001
0000
0000
0001
0000
0000
0000
0000
0000
0000
0000
0000
,
0010
0000
0000
0000
0100
0000
0000
0100
0000
0000
0000
0000
0000
0000
0000
0000
,
1000
0000
0000
0000
0001
0000
0000
0001
0000
0000
0000
0000
0000
0000
0000
0000
,
0000
0100
0000
0000
0100
0000
0000
0000
0010
0000
0000
0010
0000
0000
0000
0000
,
1000
0000
0000
0000
0001
0000
0000
0001
0000
0000
0000
0000
0000
0000
0000
0000
,
0010
0000
0000
0000
0100
0000
0000
0100
0000
0000
0000
0000
0000
0000
0000
0000
,
1000
0000
0000
0000
0001
0000
0000
0001
0000
0000
0000
0000
0000
0000
0000
0000
,
0100
0000
0000
0100
0000
0000
0000
0010
0000
0000
0000
0000
0000
0000
0000
0000
,
1001
1000
0001
0000
,
0100
0010
0100
0001
,
1000
0000
0100
0010
,
0001
0000
1000
0001
,
1001
0000
0000
0000
0000
0000
0000
1000
0000
0000
0000
0000
0000
0000
0000
0000
,
0001
0000
0000
0000
0000
0000
0000
1000
0000
0000
0000
0000
0000
0000
0000
0000
,
0010
0000
0000
0000
0000
0000
0000
0100
0000
0000
0000
0000
0000
0000
0000
0000
,
0001
1000
0001
0000
,
0100
0000
0000
0000
0000
0000
0000
0010
0000
0000
0000
0000
1000
0000
0000
0000
,
0001
0000
0000
0000
0000
0000
0000
0010
0000
0000
0000
0000
0100
0000
0000
0000
,
2000
0000
0000
3000
,
0001
0000
0000
0000
1000
0000
0000
0001
,
0000
0000
0000
0000
,
1000
0010
0100
0000
,
0001
0010
0100
0000
,
1000
0001
0100
0000
,
0010
1000
0100
0000
,
0010
0001
1000
0000
,
0010
0100
0001
0000
,
1000
1000
0001
0001
,
1000
0000
0000
0001
0000
0000
1000
0000
,
0001
0010
0100
0000
,
1000
0010
0100
0000
,
0001
0010
0100
0000
,
0010
0001
0100
0000
,
0010
1000
0001
0000
,
0010
0100
1000
0000
,
0010
0100
0001
0000
,
1001
1001
1001
0001
,
1000
0010
1000
0010
,
0100
0001
0100
0001
,
1000
0100
1000
0100
,
0010
0001
0010
0001
,
1000
0010
1000
0010
,
0100
0001
0100
0001
,
1000
0100
1000
0100
,
0010
0001
1000
0000
,
1001
0000
0000
0000
0000
0000
0000
0000
0000
0000
0000
0000
0000
0100
0000
0100
,
0000
0000
0010
0010
,
0110
0000
0000
0000
0000
0000
0000
0000
1000
0000
1000
0000
0000
0000
0000
0001
,
0000
0000
0000
1000
,
1001
0000
0000
0000
0000
0000
0000
0000
0000
0000
0000
0000
0000
0010
0000
0100
,
0000
0000
0010
0100
,
1001
0000
0000
0000
0000
0000
0000
0100
0000
0000
0000
0000
0010
0000
0000
0000
,
0110
0000
0000
0000
0000
0000
0000
1000
0000
0000
0000
0000
0001
0000
0000
0000
,
2002
0000
0000
0000
,
3003
0000
0000
1001
,
0001
0000
0000
0000
1000
0000
0000
1000
0000
0000
0000
0000
0000
0000
0000
0000
,
0010
0000
0000
0000
0100
0000
0000
0100
0000
0000
0000
0000
0000
0000
0000
0000
,
0001
0000
0000
0000
1000
0000
0000
1000
0000
0000
0000
0000
0000
0000
0000
0000
,
0000
0100
0000
0000
0100
0000
0000
0000
0010
0000
0000
0010
0000
0000
0000
0000
,
0001
0000
0000
0000
1000
0000
0000
1000
0000
0000
0000
0000
0000
0000
0000
0000
,
0010
0000
0000
0000
0100
0000
0000
0100
0000
0000
0000
0000
0000
0000
0000
0000
,
0001
0000
0000
0000
1000
0000
0000
1000
0000
0000
0000
0000
0000
0000
0000
0000
,
0100
0000
0000
0100
0000
0000
0000
0010
0000
0000
0000
0000
0000
0000
0000
0000
,
0001
0000
0000
0001
0000
0000
0000
1000
0000
0000
1000
0000
0000
0000
0000
0000
,
0001
0000
0000
0001
0000
0000
1000
0000
0000
1000
0000
0000
0000
0000
0000
0000
;

//---------------dance-single - ----------------
#NOTEDATA:;
#CHARTNAME:Sometimes I don't think...;
#CHARTHASH:1551943192;
#STEPSTYPE:dance-single;
#BANNER:;
#DESCRIPTION:;
#CHARTSTYLE:;
#DIFFICULTY:Easy;
#METER:12;
#METERF:0.000000;
#LASTSECONDHINT:125.579475;
#RADARVALUES:0.445474,0.520422,0.321792,0.222190,0.463534,407.000000,365.000000,42.000000,29.000000,0.000000,0.000000,0.000000,0.000000,0.000000,0.445474,0.520422,0.321792,0.222190,0.463534,407.000000,365.000000,42.000000,29.000000,0.000000,0.000000,0.000000,0.000000,0.000000;
#CREDIT:YOSEFU;
#NOTES:
0000
0000
0000
0000
,
0000
0000
0000
0000
,
0000
0000
0000
0000
,
0000
0000
0000
0000
0000
0000
0000
0000
0000
0000
0000
0000
1000
0001
0000
0000
,
1000
0000
0000
0000
0001
0000
0000
0100
0000
0000
0010
0000
1000
0000
0000
0000
,
0001
0000
0000
0000
1000
0000
0000
0100
0000
0000
0010
0000
0001
0000
0000
0000
,
1000
0000
0000
0010
0000
0100
0000
0001
0000
0000
1000
0000
0100
0010
0000
0000
,
0000
0011
0000
0000
1100
0000
0000
0000
1010
0000
0000
0101
0000
0000
0000
0000
,
0001
0000
0000
0000
1000
0000
0000
0010
0000
0000
0100
0000
0001
0000
0000
0000
,
1000
0000
0000
0000
0100
0000
0000
0010
0000
0000
0001
0000
0100
0000
0000
0000
,
0010
0000
0000
1000
0000
0001
0000
0010
0000
0000
0100
0000
0010
0001
0000
0000
,
0011
0000
0000
1000
0000
0010
0000
0220
0000
0000
0000
0000
0330
0000
0000
0000
,
0100
0001
0100
0010
,
1000
0000
0001
0000
1000
0000
0100
0010
,
0001
0100
0010
0100
,
0001
0000
1000
0000
0100
0000
0010
0001
,
1000
0000
0010
0000
0100
0000
0001
1000
,
0100
0000
0010
0000
0001
0000
1000
0010
,
0100
0000
0001
0000
0010
0000
0100
1000
,
0001
0100
0010
1000
,
0001
0000
0000
0000
0010
0000
0100
1000
0000
0000
0001
0000
0100
0000
0010
0000
,
1000
0000
0000
0000
0001
0000
0010
0100
0000
0000
1000
0000
0010
0000
0100
0000
,
0202
0000
0300
0003
,
1100
0000
0000
1100
0000
0000
0000
0000
1001
0000
0000
0101
0000
0000
0220
0000
,
0000
0000
0000
0330
,
1001
0000
0000
0000
1000
0000
0000
0200
0000
0000
0310
0000
0001
0000
1000
0000
,
0020
0000
0000
0130
0000
0000
0200
0000
0000
0000
0000
0000
0301
0000
1000
0000
,
0100
0000
0000
0010
0000
0001
0000
1000
0000
0000
0010
0000
0100
0000
0001
0000
,
0010
0000
0000
0200
0000
0000
0000
0000
0000
0000
1300
0000
0001
0000
0100
0000
,
0010
0000
0000
1000
0000
0000
0002
0000
0000
0000
0013
0000
0100
0000
1000
0000
,
0010
0000
0000
0000
0100
0001
0000
2000
0000
0000
3100
0000
0000
0000
0010
0000
,
0001
1000
0010
0100
0001
0010
0100
1000
,
0001
0000
0000
0101
0000
0000
1000
0000
0000
1100
0000
0000
0001
0000
0100
0000
,
0010
0000
0000
0000
1000
0000
0000
0002
0000
0000
0013
0000
0100
0000
0010
0000
,
0002
0000
0000
0103
0000
0000
2000
0000
0000
3100
0000
0001
1000
0000
0100
0000
,
0010
0000
0000
0001
0000
0100
0000
0020
0000
0000
0031
0000
0010
0000
0100
0000
,
0002
0000
0000
2003
0000
0000
3200
0000
0000
0000
0000
0000
0000
0000
0000
0000
,
0310
0000
0000
0001
0000
1000
0000
0020
0000
0000
0000
0000
0130
0000
0001
0000
,
0010
0000
0000
0100
0000
1000
0000
0020
0000
0000
0000
0000
0130
0000
0001
0000
,
1000
0000
0000
0100
0000
0001
0000
0200
0000
0000
0000
0000
1300
0000
0001
0000
,
0100
0010
0000
0000
0100
0010
0000
0000
1000
0000
0000
0001
0000
0000
0010
0000
,
0100
0000
0000
1000
0000
0001
0000
0100
0000
0000
0010
0000
1000
0001
0000
0000
,
0010
0000
0000
0100
0000
1000
0000
0001
0000
0000
0100
0000
0010
0000
0000
0000
,
1000
0000
0000
0001
0000
0010
0000
0100
0000
1000
0000
0001
0100
0000
0010
0000
,
1000
0000
0001
0010
0100
0010
0001
1000
,
0010
0000
0000
0100
0000
0001
0000
1000
0000
0000
0100
0000
0010
0001
0000
0000
,
0100
0000
0010
0000
1000
0001
0000
0010
0000
0000
0100
0000
1000
0000
0001
0000
,
0100
0000
0010
0000
1000
0000
0001
0010
0000
0000
0100
0000
1000
0000
0001
0000
,
0100
0000
0010
0000
0100
0000
0001
0000
0010
0100
0000
0100
1000
0000
0000
0000
,
1001
0000
0000
0000
0001
0000
0100
0010
0000
0000
0000
1000
0000
1010
0000
0101
,
0000
0002
0000
0000
0013
0000
0010
0100
0000
0000
1000
0000
0001
0000
0000
0000
,
0101
0000
0000
0000
0100
0000
0001
0000
0011
0000
0011
0000
0000
0000
0000
1100
,
0000
1000
0000
0000
1000
0000
0000
0001
0000
0000
0001
0000
1000
0000
0000
0000
,
0100
0010
0000
0010
0000
0010
0000
0010
0000
0000
0000
0000
0000
0011
0000
1100
,
0000
1000
0000
0010
0100
0000
0001
0000
0010
0000
0100
0000
1000
0000
0001
0000
,
0100
0000
0000
0000
0110
0000
0000
1001
0000
0000
1000
0000
0100
0000
1000
0000
,
0001
0000
0000
0000
0100
0000
0000
1010
0000
0000
0000
0000
1100
0000
0000
0000
,
0022
0000
0000
0000
0000
0000
0000
0000
0000
0000
0000
0000
0000
0000
0000
0000
0000
0000
0000
0000
0000
0000
0000
0000
0000
0000
0000
0000
0000
0000
0000
0000
0000
0000
0000
0000
0000
0000
0000
0000
0000
0000
0000
0000
0000
0000
0000
0000
0000
0000
0000
0000
0000
0000
0000
0000
0000
0000
0000
0000
0000
0000
0000
0000
0000
0000
0000
0000
0000
0000
0000
0000
0000
0000
0000
0000
0000
0000
0000
0000
0000
0000
0000
0000
0000
0000
0000
0000
0000
0000
0000
0000
0000
0000
0000
0000
0000
0000
0000
0000
0000
0000
0000
0000
0000
0000
0000
0000
0000
0000
0000
0000
0000
0000
0000
0000
0000
0000
0000
0000
0000
0000
0000
0000
0000
0000
0000
0000
0000
0000
0000
0000
0000
0000
0000
0000
0000
0000
0000
0000
0000
0000
0000
0000
0000
0000
0000
0003
0000
0000
0000
0000
0000
0000
0000
0000
0000
0000
0030
0000
0000
0000
0000
0000
0000
0000
0000
0000
0000
0000
0000
0000
0000
0000
0000
0000
0000
0000
0000
0000
0000
0000
0000
0000
0000
0000
0000
0000
0000
0000
0000
0000
,
0001
0000
0100
0000
0010
0000
1000
0100
0010
0001
0000
0000
,
1000
0000
0000
0000
0001
0000
0000
0010
0000
0000
0100
0000
1000
0000
0000
0000
,
0001
0000
0000
0000
1000
0000
0000
0010
0000
0000
0100
0000
0001
0000
0000
0000
,
1000
0000
0000
0100
0000
0010
0000
0001
0000
0000
1000
0000
0010
0100
0000
0000
,
0000
0101
0000
0000
1010
0000
0000
0000
1100
0000
0000
0011
0000
0000
0000
0000
,
0001
0000
0000
0000
1000
0000
0000
0100
0000
0000
0010
0000
0001
0000
0000
0000
,
1000
0000
0000
0000
0010
0000
0000
0100
0000
0000
0001
0000
0010
0000
0000
0000
,
0100
0000
0000
1000
0000
0001
0000
0100
0000
0000
0010
0000
0100
0001
0000
0000
,
0101
0000
0000
1000
0000
0100
0000
0220
0000
0000
0000
0000
0330
0000
0000
0000
,
1100
0000
0000
1001
0000
0000
0000
0101
0000
0000
1001
0000
0000
0110
0000
0000
,
1000
0000
0000
1100
0000
0000
0001
0000
0000
0202
0000
0000
0000
0000
0000
0000
,
0000
0000
0000
0000
,
0000
0000
0000
0000
,
0000
0000
0303
0000
;

//---------------dance-single - ----------------
#NOTEDATA:;
#CHARTNAME:I might think... So I might be...;
#CHARTHASH:4292107709;
#STEPSTYPE:dance-single;
#BANNER:;
#DESCRIPTION:;
#CHARTSTYLE:;
#DIFFICULTY:Medium;
#METER:15;
#METERF:0.000000;
#LASTSECONDHINT:125.579475;
#RADARVALUES:0.690649,0.712157,0.183881,0.191543,0.988362,631.000000,607.000000,24.000000,25.000000,0.000000,0.000000,0.000000,0.000000,0.000000,0.690649,0.712157,0.183881,0.191543,0.988362,631.000000,607.000000,24.000000,25.000000,0.000000,0.000000,0.000000,0.000000,0.000000;
#CREDIT:YOSEFU;
#NOTES:
0000
0000
0000
0000
,
0000
0000
0000
0000
,
0000
0000
0000
0000
,
0000
0000
0000
0000
0000
0000
0000
0000
0000
0000
0000
0000
1000
0001
0000
0000
,
1000
0000
0010
0000
0100
0000
0001
1000
0000
0100
0010
0001
1000
0000
0010
0000
,
0100
0000
0001
0000
0010
0000
0100
0001
0000
0000
0100
0000
0010
0001
0000
0000
,
1000
0000
0010
0000
0100
0000
0010
0001
0000
0010
1000
0000
0001
0010
0001
0010
,
0000
0110
0000
0100
1000
0000
0010
0100
0001
0000
1000
0100
0000
0010
0001
1000
,
0100
0000
0010
0000
0001
0000
0100
0010
0000
1000
0001
0010
0100
0000
1000
0000
,
0001
0000
0100
0000
0010
0000
1000
0100
0000
0001
0100
0010
0001
1000
0000
0000
,
0010
0000
0100
0001
0000
1000
0000
0100
0000
0000
0010
0001
1000
0001
1000
0000
,
1010
0000
0010
0100
0000
0101
0000
1001
0000
0000
1000
0010
0100
0001
0000
0001
,
1000
0000
0000
1000
0001
0000
0000
0001
0100
0000
0000
0100
0010
1000
0000
0001
,
1000
0000
0000
1000
0100
0000
0000
0100
0010
0000
0000
0010
0002
0000
0203
0000
,
0310
0000
0000
0010
1000
0000
0000
1000
0001
0000
0000
0001
0010
0100
0000
1000
,
0001
0000
0000
0001
0100
0000
0000
0100
0010
0000
1000
0001
0010
0000
0000
0010
,
0100
0000
1000
0000
0001
0100
0000
0010
0000
0100
0000
0001
1000
0000
0100
0010
,
0001
0000
0100
0010
0000
1000
0000
0100
0000
0001
0000
0100
0010
0000
0001
1000
,
0010
0000
0100
0000
0001
1000
0000
0100
0000
0010
0100
0000
1000
0000
0001
0100
,
0010
0000
1000
0000
0001
0010
0000
0001
0010
0000
0100
0000
0100
1000
0100
1000
,
0100
0000
0010
0000
0001
0000
1000
0010
0000
0100
0001
0000
1000
0100
1000
0100
,
1000
0000
0001
0000
0100
0000
0010
0001
0000
0010
0100
0000
0001
1000
0001
1000
,
0002
0000
0100
0100
,
1003
0000
0000
1100
0000
0000
0100
0000
0110
0000
0000
0011
0000
0000
0001
0000
,
1000
0010
0000
0100
0001
0000
1000
0100
0010
0000
0001
0000
0001
0000
1000
0000
,
0010
0000
0100
0000
0001
1000
0000
1000
0000
0100
0010
0000
0001
0000
0100
0000
,
0010
0000
0001
0010
0000
0100
0002
0000
0000
1003
0100
0010
0001
0000
1000
0000
,
0010
0000
0100
0001
0000
1000
0000
0001
0000
0000
0010
0000
0100
0000
1000
0000
,
0001
0000
0100
0010
0000
0010
1000
0001
0000
0010
0000
0100
1000
0000
0010
0100
,
0001
0000
1000
0100
0000
0100
0020
0000
0000
0000
0031
0000
0100
0000
0010
0000
,
2000
0000
0000
3001
0010
0100
0000
1000
0000
0001
0200
0000
0000
0000
0310
1000
,
0001
0000
0100
0000
1000
0000
0100
0000
0001
0100
0001
0000
1000
0100
1000
0000
,
0001
0100
0000
0110
0000
0000
1000
0100
0000
0110
0000
0000
0001
1000
0001
1000
,
0001
0000
0100
0000
0010
0001
0000
0001
0000
0010
1000
0000
0100
0000
0010
0000
,
0200
0000
0000
0301
0000
0000
0200
0000
0000
1300
0000
0001
0100
0000
0010
0000
,
1000
0000
0100
0010
0000
0001
0000
2000
0000
0000
3010
0000
0100
0001
1000
0000
,
0100
0000
0100
0010
0000
0010
0002
0000
0000
1003
0010
0100
0001
0000
1000
0100
,
0010
0000
0000
0000
0011
0000
0001
1000
0000
1000
0010
0000
0110
0000
0100
0001
,
1000
0000
0100
0000
0110
0000
0010
0001
0000
1000
0000
0010
0100
0000
0001
1000
,
0100
0000
0010
0000
0001
0100
0010
1000
0000
0001
0000
1000
0001
1000
0001
1000
,
0001
1000
0000
0000
0010
0100
0000
0000
0002
0000
0000
2003
0000
0000
3100
0010
,
0001
0000
1000
0000
0010
0100
0000
0002
0000
0000
1003
0000
0100
0000
0010
0001
,
1000
0000
0010
0100
0000
0001
0000
1000
0000
0100
0000
0010
0001
0000
1000
0010
,
0100
0000
0001
0000
1000
0100
0000
0010
0000
0000
0001
0100
0010
0000
1000
0001
,
0010
0000
0100
1000
0001
1000
0000
0000
0010
0000
0100
0000
0001
0000
0010
0100
,
1000
0000
0001
0000
0100
0010
0000
2000
0000
0000
3001
0000
0010
0000
0100
1000
,
0001
0000
0100
0010
0000
1000
0000
0001
0000
0010
0000
0100
1000
0000
0001
0100
,
0010
0000
1000
0000
0001
0010
0000
0100
0000
1000
0000
0001
0100
0000
0010
0000
,
1000
0000
0100
0000
0001
0100
0000
1000
0001
0100
0000
0010
1000
0000
0001
0000
,
1001
0000
0000
0000
1000
0000
0100
0010
0000
0000
0000
0001
1000
0010
0000
0110
,
0000
0200
0000
0000
0301
0000
1000
0001
0000
0010
0000
0100
1000
0000
0001
0000
,
1001
0000
0000
0000
1000
0010
0100
0000
0101
0000
0101
0000
0001
1000
0100
0020
,
0000
0001
0000
0000
0100
0000
0000
0001
0000
0000
0100
0000
0031
0000
1000
0000
,
0010
0100
0000
0100
0000
1010
0000
0101
0000
0000
1000
0100
0010
0001
1000
0001
,
0000
1000
0000
0010
0100
0000
0001
0010
0100
0000
1000
0000
0001
0000
0100
0000
,
0020
0000
0000
0000
0130
0000
0001
2000
0000
0000
3200
0000
0320
0000
0032
0000
,
2003
0000
0000
0000
3010
0000
0100
0001
0000
0010
0000
0100
1000
0000
0001
0000
,
0200
0000
0000
0000
0000
0010
0000
0010
0000
0010
0000
0310
1000
0001
0000
0000
,
1000
0100
0010
0100
1000
0001
0100
0010
1000
0001
0000
0000
,
1000
0000
0100
0000
0010
0000
0001
1000
0000
0010
0100
0001
1000
0000
0100
0000
,
0010
0000
0001
0000
0100
0000
0010
0001
0000
0000
0010
0000
0100
0001
0000
0000
,
1000
0000
0100
0000
0010
0000
0100
0001
0000
0100
1000
0000
0001
0100
0001
0100
,
0000
0110
0000
0010
1000
0000
0100
0010
0001
0000
1000
0010
0000
0100
0001
1000
,
0010
0000
0100
0000
0001
0000
0010
0100
0000
1000
0001
0100
0010
0000
1000
0000
,
0001
0000
0010
0000
0100
0000
1000
0010
0000
0001
0010
0100
0001
1000
0000
0000
,
0100
0000
0010
0001
0000
1000
0000
0010
0000
0000
0100
0001
1000
0001
1000
0000
,
1100
0000
0100
0010
0000
0011
0000
1001
0000
0000
1000
0100
0010
0001
0000
0001
,
1000
0000
0010
0100
0000
0100
0001
1000
0100
0000
0100
0010
0000
0011
0000
0000
,
0001
0000
0001
0100
0000
0100
0010
0000
0010
2000
0000
0000
0000
0000
0000
0000
,
0000
0000
0000
0000
,
0000
0000
0000
0000
,
0000
0000
3000
0000
;

//---------------dance-single - ----------------
#NOTEDATA:;
#CHARTNAME:I Think... Therefore I Am...;
#CHARTHASH:297624496;
#STEPSTYPE:dance-single;
#BANNER:;
#DESCRIPTION:;
#CHARTSTYLE:;
#DIFFICULTY:Hard;
#METER:17;
#METERF:0.000000;
#LASTSECONDHINT:125.579475;
#RADARVALUES:0.806670,0.849110,0.137911,0.298807,1.390602,737.000000,719.000000,18.000000,39.000000,0.000000,0.000000,0.000000,0.000000,0.000000,0.806670,0.849110,0.137911,0.298807,1.390602,737.000000,719.000000,18.000000,39.000000,0.000000,0.000000,0.000000,0.000000,0.000000;
#CREDIT:YOSEFU;
#NOTES:
0000
0000
0000
0000
,
0000
0000
0000
0000
,
0000
0000
0000
0000
,
0000
0000
0000
0000
0000
0000
0000
0000
0000
0000
0000
0000
1000
0001
0000
0000
,
1000
0100
0010
0001
1000
0001
0100
0020
0000
0000
1030
0100
0010
0001
0100
0010
,
1000
0001
0010
0100
0010
0001
0100
0020
0000
0000
1030
0001
0010
0000
0100
0000
,
1000
0000
0010
0100
0000
1000
0000
0200
0000
0000
0301
0010
1000
0010
0100
1000
,
0000
1100
0000
0100
0010
0000
0001
1000
0010
0000
0100
0001
0000
0100
0010
1000
,
0001
0010
0100
1000
0001
1000
0010
0200
0000
0000
0301
0100
0010
1000
0100
0010
,
0001
1000
0010
0100
0010
1000
0001
0020
0000
0000
0130
1000
0001
0200
0000
0000
,
0310
0000
1000
0100
0000
0001
0000
0200
0000
0000
1300
0001
0100
1000
0100
0010
,
1000
0001
0010
0100
0000
1100
0000
0101
0000
0000
0001
0000
0010
0100
0000
0100
,
1000
0000
0000
0000
0001
0000
0100
0010
0000
1000
0100
0010
0000
1000
0000
0010
,
0000
0001
0100
0010
1000
0001
0010
0000
0100
1000
0100
0010
0001
0000
0100
0000
,
0010
1000
0010
0100
0001
1000
0000
0100
0010
0100
1000
0000
0001
0100
0010
1000
,
0000
0001
0100
0001
0010
0100
0001
0100
1000
0000
0010
0100
0001
0000
0000
1000
,
0100
0010
1000
0010
0100
1000
0001
0100
0000
0010
1000
0001
0100
0000
0010
1000
,
0001
0000
0010
0100
0000
1000
0000
0010
0000
0100
0001
1000
0100
0000
0010
0001
,
1000
0100
0010
0001
1000
0010
0100
0001
0000
1000
0100
0010
0100
1000
0000
0001
,
0100
0000
0010
0000
1000
0001
0000
1000
0001
0000
1000
0000
1000
0100
0010
0001
,
1000
0010
0100
1000
0100
0010
0100
0001
0000
1000
0100
0010
0100
1000
0010
0100
,
0001
1000
0100
0010
0001
1000
0010
0100
0000
0001
1000
0100
0010
0001
0100
0010
,
2000
0000
0000
0000
0000
0000
0000
0000
3100
0010
0001
0010
0100
1000
0001
0100
,
0010
0000
0000
1010
0000
0000
1000
0100
0010
0000
0000
0011
0000
0000
2010
0000
,
0000
0000
0000
0000
0001
0000
0000
0000
3001
0000
0010
0100
1000
0000
0001
0000
,
0100
0000
0010
0200
0000
1000
0000
2300
0000
0000
3100
0000
0001
0000
0100
0000
,
0010
0000
0000
1000
0001
0000
2000
0000
0000
3100
0010
0001
1000
0010
0100
0001
,
1000
0000
0100
0010
0000
0100
0000
1000
0000
0000
0010
0000
0100
0001
1000
0100
,
0010
0000
0000
0002
0000
0000
0100
0000
0000
1000
0000
0000
0103
0000
0010
1000
,
0001
0000
0001
0010
0000
0010
0100
0000
0000
1000
0001
0000
0100
0000
0010
0000
,
0001
0000
0010
0000
0100
0010
0000
1000
0000
0100
0010
0000
0001
0000
0100
0010
,
1000
0010
1000
0010
0100
0001
0100
0001
1000
0100
1000
0100
0010
0001
0010
0001
,
1000
0010
0100
0001
0000
0000
1000
0100
0010
0001
0000
0000
0200
0000
0320
0000
,
1030
0000
0100
0020
0000
1000
0000
2030
0000
3010
0001
0000
0100
0000
0001
0000
,
0010
0000
0000
1000
0010
0000
0001
0000
1000
0010
0000
1000
0010
0000
0100
0001
,
0010
0000
0100
1000
0000
0001
0000
0100
0000
0000
0010
0000
0100
1000
0100
0010
,
0100
0000
0001
0010
0000
0010
0100
0000
0000
1000
0100
0010
0001
1000
0010
0100
,
0001
0000
1000
0100
0000
0010
0000
0200
0000
1000
0000
1000
0301
0100
0010
1000
,
0100
0000
0010
0001
0000
0100
0000
1000
0000
0100
0000
0010
1000
0100
0010
0001
,
0100
1000
0100
0010
0000
0100
0000
0001
0000
0010
0100
1000
0010
0100
0001
1000
,
0100
0100
0000
0000
0010
0010
0000
0000
0011
0000
0001
1000
0000
1000
0010
0100
,
0001
1000
0100
0010
0000
0001
0000
0200
0000
0000
0010
0000
0310
2000
0000
0000
,
3100
0000
0010
0100
0000
0001
0000
0200
0000
0000
0000
1300
0001
0100
0010
1000
,
0001
0000
0010
0100
0000
0010
0000
0002
0000
0000
0103
0010
1000
0000
0100
0010
,
0002
0000
0000
0000
0103
0010
1000
0001
0010
0100
0010
0001
1000
0010
0100
0010
,
1000
0000
0001
0010
0000
0100
0000
0020
0000
0000
0031
0100
0010
2000
0000
0000
,
3001
0100
0010
0100
0010
0001
0000
0020
0000
0000
0000
0000
0130
0000
0001
0010
,
0100
1000
0100
0010
0001
1000
0010
0100
0000
0000
0001
0010
0000
0100
1000
0000
,
0001
0100
0001
1000
0100
1000
0010
0100
0001
1000
0000
0100
0000
0010
0001
1000
,
0010
0000
0000
0000
1000
0100
0000
0110
0000
0000
0000
0010
0001
1000
0000
1001
,
0000
2000
0000
0000
3100
0010
0001
0010
0100
1000
0001
0100
0010
0000
1000
0001
,
0010
0000
0000
0000
0001
0100
0010
0000
1010
0000
1010
0000
1000
0100
0000
0110
,
0000
0010
0000
0001
1000
0000
0001
0010
0000
0001
1000
0000
0010
1000
0000
0100
,
0010
0001
0000
1000
0000
1010
0000
0101
0000
0001
1000
0100
0010
0001
0000
1100
,
0000
1000
0100
0010
0100
1000
0001
0100
0001
1000
0100
0010
0001
0100
0010
1000
,
0002
0000
0000
0000
0013
0100
1000
0002
0000
0000
0100
0000
1000
0000
0100
0000
,
0013
0000
0100
0010
0001
0010
0100
2000
0000
0000
0000
0000
3010
0100
0001
0010
,
0200
0000
0000
0000
0000
0010
0000
0010
0000
1000
0000
1300
0001
1000
0000
0000
,
0010
0100
0001
0010
0100
1000
0001
0100
0010
1000
0000
0000
,
0001
0100
0010
1000
0001
1000
0100
0020
0000
0000
0031
0100
0010
1000
0100
0010
,
0001
1000
0010
0100
0010
1000
0100
0020
0000
0000
0031
1000
0010
0000
0100
0000
,
0001
0000
0010
0100
0000
0001
0000
0200
0000
0000
1300
0010
0001
0010
0100
0001
,
0000
0101
0000
0100
0010
0000
1000
0001
0010
0000
0100
1000
0000
0100
0010
0001
,
1000
0010
0100
0001
1000
0001
0010
0200
0000
0000
1300
0100
0010
0001
0100
0010
,
1000
0001
0010
0100
0010
0001
1000
0020
0000
0000
0130
0001
1000
0200
0000
0000
,
0310
0000
0001
0100
0000
1000
0000
0200
0000
0000
0301
1000
0100
0001
0100
0010
,
0001
1000
0010
0100
0000
0101
0000
1100
0000
0000
1000
0000
0010
0100
0000
0100
,
0001
0100
0001
1000
0100
1000
0001
0100
0010
1000
0100
0010
0001
1000
0010
0100
,
0001
0000
0001
0010
0000
0010
0100
0000
0100
2000
0000
0000
0000
0000
0000
0000
,
0000
0000
0000
0000
,
0000
0000
0000
0000
,
0000
0000
3000
0000
;

//---------------dance-double - ----------------
#NOTEDATA:;
#CHARTNAME:I may be (reely) stoopid...;
#CHARTHASH:4266136306;
#STEPSTYPE:dance-double;
#BANNER:;
#DESCRIPTION:;
#CHARTSTYLE:;
#DIFFICULTY:Beginner;
#METER:7;
#METERF:0.000000;
#LASTSECONDHINT:120.433487;
#RADARVALUES:0.221095,0.288919,0.076617,0.015323,0.130249,202.000000,192.000000,10.000000,2.000000,0.000000,0.000000,0.000000,0.000000,0.000000,0.221095,0.288919,0.076617,0.015323,0.130249,202.000000,192.000000,10.000000,2.000000,0.000000,0.000000,0.000000,0.000000,0.000000;
#CREDIT:YOSEFU;
#NOTES:
// measure 0
00000000
00000000
00000000
00000000
,  // measure 1
00000000
00000000
00000000
00000000
,  // measure 2
00000000
00000000
00000000
00000000
,  // measure 3
00000000
00000000
00000000
00000000
,  // measure 4
00010000
00000000
00000000
00000000
00001000
00000000
00000000
00001000
00000000
00000000
00000000
00000000
00000000
00000000
00000000
00000000
,  // measure 5
01000000
00000000
00000000
00000000
00010000
00000000
00000000
00010000
00000000
00000000
00000000
00000000
00000000
00000000
00000000
00000000
,  // measure 6
10000000
00000000
00000000
00000000
01000000
00000000
00000000
01000000
00000000
00000000
00000000
00000000
00100000
00000000
00000000
00000000
,  // measure 7
00000000
00001000
00000000
00000000
00001000
00000000
00000000
00000000
00010000
00000000
00000000
00010000
00000000
00000000
00000000
00000000
,  // measure 8
00000010
00000000
00000000
00000000
00001000
00000000
00000000
00001000
00000000
00000000
00000000
00000000
00000000
00000000
00000000
00000000
,  // measure 9
00000001
00000000
00000000
00000000
00000010
00000000
00000000
00000010
00000000
00000000
00000000
00000000
00000000
00000000
00000000
00000000
,  // measure 10
00000100
00000000
00000000
00000000
00001000
00000000
00000000
00001000
00000000
00000000
00000000
00000000
00000000
00000000
00000000
00000000
,  // measure 11
00000010
00000000
00000000
00000010
00000000
00000000
00000000
00010000
00000000
00000000
00000000
00000000
00000000
00000000
00000000
00000000
,  // measure 12
00001000
00010000
00001000
00000000
,  // measure 13
01000000
00010000
10000000
00000000
,  // measure 14
01000000
00100000
00010000
00000000
,  // measure 15
01000000
00001000
00010000
00000000
,  // measure 16
00000100
00000000
00000000
00000000
00000000
00000000
00000000
00001000
00000000
00000000
00000000
00000000
00000000
00000000
00000000
00000000
,  // measure 17
00000001
00000000
00000000
00000000
00000000
00000000
00000000
00000100
00000000
00000000
00000000
00000000
00000000
00000000
00000000
00000000
,  // measure 18
00000010
00000000
00000000
00000000
00000000
00000000
00000000
00010000
00000000
00000000
00000000
00000000
00000000
00000000
00000000
00000000
,  // measure 19
00001000
00001000
00100000
00100000
,  // measure 20
01000000
00000000
00000000
00000000
00000000
00000000
00000000
00100000
00000000
00000000
00000000
00000000
00000000
00000000
00000000
00000000
,  // measure 21
00010000
00000000
00000000
00000000
00000000
00000000
00000000
10000000
00000000
00000000
00000000
00000000
00000000
00000000
00000000
00000000
,  // measure 22
00200000
00000000
00000000
00300000
,  // measure 23
01100000
00000000
00000000
00000000
01010000
00000000
00000000
00010000
,  // measure 24
00000000
00000000
00000000
00000000
,  // measure 25
00011000
00010000
00001000
00000000
,  // measure 26
00010000
00000010
00001000
00000000
,  // measure 27
00000001
00000100
00000010
00000000
,  // measure 28
00001000
00000001
00000010
00000000
,  // measure 29
00000100
00010000
00001000
00000000
,  // measure 30
00010000
00001000
01000000
00000000
,  // measure 31
00100000
00100000
10000000
10000000
,  // measure 32
00010000
00000000
00000000
00010000
00000000
00000000
10000000
00000000
,  // measure 33
00010000
01000000
00001000
00000000
,  // measure 34
00010000
00001000
00000010
00000000
,  // measure 35
00000100
00001000
00000001
00000000
,  // measure 36
00001000
00000010
00000100
00000000
,  // measure 37
00000001
00001000
00000100
00000000
,  // measure 38
00010000
00001000
01000000
00000000
,  // measure 39
00100000
00010000
00001000
00000000
,  // measure 40
00011000
00011000
00011000
00000000
,  // measure 41
00010000
00001000
00010000
00001000
,  // measure 42
00010000
00000100
00010000
00000100
,  // measure 43
00000010
00000100
00000010
00000100
,  // measure 44
00001000
00000001
00001000
00000001
,  // measure 45
00000100
00000010
00000100
00000010
,  // measure 46
00001000
00000010
00001000
00000010
,  // measure 47
00010000
00000010
00010000
00000010
,  // measure 48
00010000
00001000
00010000
00000000
,  // measure 49
00011000
00000000
00000000
00000000
00000000
00000000
00000000
00000000
00000000
00000000
00000000
00000000
00000000
00001000
00000000
00001000
,  // measure 50
00000000
00000000
00010000
00010000
,  // measure 51
00011000
00000000
00000000
00000000
00000000
00000000
00000000
00000000
00001000
00000000
00001000
00000000
00000000
00000000
00000000
00010000
,  // measure 52
00000000
00000000
00000000
00000000
,  // measure 53
00001000
00000000
00000000
00000000
00000000
00000000
00000000
00000000
00000000
00000000
00000000
00000000
00000000
00010000
00000000
00001000
,  // measure 54
00000000
00000000
00010000
00001000
,  // measure 55
00011000
00000000
00100000
00010000
,  // measure 56
10000000
00000000
00100000
01000000
,  // measure 57
00002000
00000000
00000000
00003000
,  // measure 58
00000000
00000000
00000000
00011000
,  // measure 59
00010000
00000000
00000000
00000000
00001000
00000000
00000000
00001000
00000000
00000000
00000000
00000000
00000000
00000000
00000000
00000000
,  // measure 60
00100000
00000000
00000000
00000000
00010000
00000000
00000000
00010000
00000000
00000000
00000000
00000000
00000000
00000000
00000000
00000000
,  // measure 61
10000000
00000000
00000000
00000000
00100000
00000000
00000000
00100000
00000000
00000000
00000000
00000000
01000000
00000000
00000000
00000000
,  // measure 62
00000000
00001000
00000000
00000000
00001000
00000000
00000000
00000000
00010000
00000000
00000000
00010000
00000000
00000000
00000000
00000000
,  // measure 63
00000100
00000000
00000000
00000000
00001000
00000000
00000000
00001000
00000000
00000000
00000000
00000000
00000000
00000000
00000000
00000000
,  // measure 64
00000001
00000000
00000000
00000000
00000100
00000000
00000000
00000100
00000000
00000000
00000000
00000000
00000000
00000000
00000000
00000000
,  // measure 65
00000010
00000000
00000000
00000000
00001000
00000000
00000000
00001000
00000000
00000000
00000000
00000000
00000000
00000000
00000000
00000000
,  // measure 66
00000100
00000000
00000000
00000100
00000000
00000000
00000000
00010000
00000000
00000000
00000000
00000000
00000000
00000000
00000000
00000000
,  // measure 67
00001000
00000000
00000000
00001000
00000000
00000000
00000000
00010000
00000000
00000000
00010000
00000000
00000000
00000000
00000000
00000000
,  // measure 68
00001000
00000000
00000000
00010000
00000000
00000000
00001000
00000000
00000000
00010000
00000000
00000000
00000000
00000000
00000000
00000000
;

//---------------dance-double - ----------------
#NOTEDATA:;
#CHARTNAME:I don't think... Therefore I'm not...;
#CHARTHASH:247254917;
#STEPSTYPE:dance-double;
#BANNER:;
#DESCRIPTION:;
#CHARTSTYLE:;
#DIFFICULTY:Easy;
#METER:12;
#METERF:0.000000;
#LASTSECONDHINT:125.579475;
#RADARVALUES:0.427962,0.575204,0.283484,0.183881,0.432887,391.000000,354.000000,37.000000,24.000000,0.000000,0.000000,0.000000,0.000000,0.000000,0.427962,0.575204,0.283484,0.183881,0.432887,391.000000,354.000000,37.000000,24.000000,0.000000,0.000000,0.000000,0.000000,0.000000;
#CREDIT:YOSEFU;
#NOTES:
// measure 0
00000000
00000000
00000000
00000000
,  // measure 1
00000000
00000000
00000000
00000000
,  // measure 2
00000000
00000000
00000000
00000000
,  // measure 3
00000000
00000000
00000000
00000000
00000000
00000000
00000000
00000000
00000000
00000000
00000000
00000000
00010000
00001000
00000000
00000000
,  // measure 4
00010000
00000000
00000000
00000000
00001000
00000000
00000000
00000100
00000000
00000000
00000010
00000000
00001000
00000000
00000000
00000000
,  // measure 5
00000100
00000000
00000000
00000000
00000010
00000000
00000000
00000001
00000000
00000000
00000010
00000000
00001000
00000000
00000000
00000000
,  // measure 6
00010000
00000000
00000000
00001000
00000000
01000000
00000000
00100000
00000000
00000000
01000000
00000000
00010000
00000000
10000000
00000000
,  // measure 7
00000000
11000000
00000000
00000000
01010000
00000000
00000000
00000000
00011000
00000000
00000000
00001100
00000000
00000000
00000000
00000000
,  // measure 8
00001000
00000000
00000000
00000000
00000010
00000000
00000000
00000100
00000000
00000000
00001000
00000000
00010000
00000000
00000000
00000000
,  // measure 9
01000000
00000000
00000000
00000000
00100000
00000000
00000000
00010000
00000000
00000000
01000000
00000000
00100000
00000000
00000000
00000000
,  // measure 10
10000000
00000000
00000000
00010000
00000000
00100000
00000000
00001000
00000000
00000000
00010000
00000000
01000000
00000000
10000000
00000000
,  // measure 11
00100000
00000000
00000000
00010000
00000000
00001000
00000000
00000100
00000000
00000000
00000001
00000000
00001000
00000100
00000000
00000000
,  // measure 12
00000010
00000001
00001000
00000010
,  // measure 13
00000100
00000000
00000010
00000000
00010000
00000000
00001000
00010000
,  // measure 14
00100000
01000000
00010000
10000000
,  // measure 15
01000000
00100000
00010000
01000000
,  // measure 16
00001000
00000000
00010000
00000000
00000100
00000000
00000000
00010000
00000000
00000000
00000000
00000000
00000001
00000000
00000000
00000000
,  // measure 17
00000100
00000000
00000000
00000010
00000000
00000000
00000000
00001000
00000000
00000000
00000000
00000000
00000001
00000000
00000000
00000000
,  // measure 18
00000010
00000000
00000100
00000000
00001000
00000000
00000000
00000001
00000000
00000000
00000100
00000000
00001000
00000000
00010000
00000000
,  // measure 19
00001000
00100000
01000000
10000000
,  // measure 20
00010000
00000000
01000000
00000000
00100000
00000000
00000000
10000000
00000000
00000000
00000000
00000000
00010000
00000000
10000000
00000000
,  // measure 21
01000000
00000000
00000000
00000000
00100000
00000000
00000000
00001000
00000000
00000000
00010000
00000000
00000010
00000000
00000100
00000000
,  // measure 22
00000002
00000000
00000000
00000003
,  // measure 23
00000101
00000000
00000000
00001010
00000000
00000000
00000000
00000000
00011000
00000000
00000000
00101000
00000000
00000000
22000000
00000000
,  // measure 24
00000000
00000000
00000000
33000000
,  // measure 25
10000000
00000000
00000000
00000000
00100000
00000000
00000000
02000000
00000000
00000000
03001000
00000000
00010000
00000000
00001000
00000000
,  // measure 26
00010000
00000000
00000000
00000100
00000000
00000000
00000200
00000000
00000000
00000000
00000300
00000000
00001000
00000000
00000001
00000000
,  // measure 27
00000100
00000000
00000000
00000000
00000010
00000000
00000000
00020000
00000000
00000000
00031000
00000000
00100000
00000000
01000000
00000000
,  // measure 28
10000000
00000000
00000000
00200000
00000000
00000000
01300000
00000000
00000000
00010000
00000000
00000000
01000000
00000000
00001000
00000000
,  // measure 29
00010000
00000000
00000000
00000100
00000000
00000000
00000020
00000000
00000030
00000000
00000010
00000000
00000001
00000000
00000100
00000000
,  // measure 30
00002000
00000000
00000000
00000000
00013000
00001000
00000000
00200000
00000000
00000000
00301000
00000000
00000000
00000000
01000000
00000000
,  // measure 31
00010000
10000000
01000000
00100000
00010000
10000000
00100000
01000000
,  // measure 32
00010000
00000000
00000000
01010000
00000000
00000000
10000000
00000000
00000000
11000000
00000000
00000000
01000000
00000000
00100000
00000000
,  // measure 33
00010000
00000000
00000000
00000000
01000000
00000000
00000000
00200000
00000000
00000000
00310000
00000000
00001000
00000000
00010000
00000000
,  // measure 34
00200000
00000000
00000000
01300000
00000000
00000000
00020000
00000000
00000000
00000000
00000000
00000000
10030000
00000000
01000000
00000000
,  // measure 35
00100000
00000000
00000000
00001000
00000000
00010000
00000000
00000020
00000000
00000000
00001030
00000000
00000010
00000000
00000100
00000000
,  // measure 36
00000002
00000000
00000000
00000023
00000000
00000000
00000230
00000000
00000000
00000000
00000000
00000000
00000000
00000000
00000000
00000000
,  // measure 37
00010300
00000000
00000000
00001000
00000000
01000000
00000000
00020000
00000000
00000000
00000000
00000000
10030000
00000000
00000000
00000000
,  // measure 38
01000000
00000000
00000000
00100000
00000000
00001000
00000000
00020000
00000000
00000000
00000000
00000000
00030010
00000000
00000000
00000000
,  // measure 39
00000100
00000000
00000000
00001000
00000000
00010000
00000000
02000000
00000000
00000000
00000000
00000000
13000000
00000000
00010000
00000000
,  // measure 40
01000000
00100000
00000000
00000000
01000000
00100000
00000000
00000000
10010000
00000000
00000000
10000000
00000000
00000000
01000000
00000000
,  // measure 41
00100000
00000000
00000000
00010000
00000000
10000000
00000000
00100000
00000000
00000000
01000000
00000000
00001000
00000000
00000000
00000000
,  // measure 42
00010000
00000000
00000000
00000100
00000000
00000010
00000000
00000001
00000000
00000000
00000100
00000000
00000010
00000000
00000000
00000000
,  // measure 43
00001000
00000000
00000000
00000001
00000000
00000010
00000000
00000100
00000000
00000000
00010000
00000000
00001000
00000000
00100000
00000000
,  // measure 44
00010000
00000000
01000000
00100000
10000000
00100000
01000000
00010000
,  // measure 45
01000000
00000000
00000000
00010000
00000000
10000000
00000000
01000000
00000000
00000000
00100000
00000000
00001000
00000000
00000000
00000000
,  // measure 46
00010000
00000000
00000000
00000010
00000000
00000100
00000000
00000001
00000000
00000000
00000010
00000000
00000100
00000000
00000000
00000000
,  // measure 47
00001000
00000000
00000000
00000001
00000000
00000100
00000000
00000010
00000000
00000000
00010000
00000000
00001000
00000000
01000000
00000000
,  // measure 48
00010000
00000000
10000000
00000000
01000000
00000000
00100000
00000000
01000000
00000000
00000000
10000000
00000000
00000000
00000000
00000000
,  // measure 49
10100000
00000000
00000000
00000000
00100000
00000000
00000000
01010000
00000000
00000000
00000000
00000000
00000000
00001000
00000000
00011000
,  // measure 50
00000000
00020000
00000000
00000000
00030100
00000000
00000010
00000000
00000100
00000000
00001000
00000000
00000001
00000000
00000000
00000000
,  // measure 51
00001001
00000000
00000000
00000000
00000000
00000000
00000000
00000000
00001010
00000000
00001010
00000000
00000000
00000000
00000000
00011000
,  // measure 52
00000000
00001000
00000000
00000000
00001000
00000000
00000000
00001000
00000000
00000000
00001000
00000000
00010000
00000000
00000000
00000000
,  // measure 53
00101000
00000000
00000000
00000000
00000000
00110000
00000000
11000000
00000000
00000000
00000000
00000000
00000000
01000000
00000000
00100000
,  // measure 54
00000000
00001000
00000000
00000000
00010000
00000000
00000010
00000000
00000100
00000000
00000000
00000000
00000001
00000000
00000010
00000000
,  // measure 55
00000100
00000000
00000000
00000000
00001000
00000000
00000000
00010100
00000000
00000000
00010000
00000000
00001000
00000000
00010000
00000000
,  // measure 56
00001000
00000000
00000000
00000000
00100000
00000000
00000000
01010000
00000000
00000000
00000000
00000000
00010000
00000000
10000000
00000000
,  // measure 57
02000000
00000000
00000000
00000000
00000000
00100000
00000000
00100000
00000000
00000000
00000000
00000000
13000000
00010000
00000000
00000000
,  // measure 58
01000000
00000000
01000000
00001000
00000000
00001000
00010000
00000000
00010000
00000100
00000000
00000000
,  // measure 59
00010000
00000000
00000000
00000000
00001000
00000000
00000000
00000010
00000000
00000000
00000100
00000000
00001000
00000000
00000000
00000000
,  // measure 60
00000010
00000000
00000000
00000000
00000100
00000000
00000000
00000001
00000000
00000000
00000100
00000000
00001000
00000000
00000000
00000000
,  // measure 61
00010000
00000000
00000000
00001000
00000000
00100000
00000000
01000000
00000000
00000000
00100000
00000000
00010000
00000000
10000000
00000000
,  // measure 62
00000000
10100000
00000000
00000000
00110000
00000000
00000000
00000000
00011000
00000000
00000000
00001010
00000000
00000000
00000000
00000000
,  // measure 63
00001000
00000000
00000000
00000000
00000100
00000000
00000000
00000010
00000000
00000000
00001000
00000000
00010000
00000000
00000000
00000000
,  // measure 64
00100000
00000000
00000000
00000000
01000000
00000000
00000000
00010000
00000000
00000000
00100000
00000000
01000000
00000000
00000000
00000000
,  // measure 65
10000000
00000000
00000000
00010000
00000000
01000000
00000000
00001000
00000000
00000000
00010000
00000000
00100000
00000000
10000000
00000000
,  // measure 66
01000000
00000000
00000000
00010000
00000000
00001000
00000000
00000010
00000000
00000000
00000001
00000000
00001000
00000010
00000000
00000000
,  // measure 67
00000110
00000000
00000000
00001010
00000000
00000000
00000000
00011000
00000000
00000000
00110000
00000000
00000000
01100000
00000000
00000000
,  // measure 68
11000000
00000000
00000000
01010000
00000000
00000000
00011000
00000000
00000000
00002200
00000000
00000000
00000000
00000000
00000000
00000000
,  // measure 69
00000000
00000000
00000000
00000000
,  // measure 70
00000000
00000000
00000000
00000000
,  // measure 71
00000000
00000000
00003300
00000000
;

//---------------dance-double - ----------------
#NOTEDATA:;
#CHARTNAME:Sometimes I think... Sometimes I don't...;
#CHARTHASH:1792890652;
#STEPSTYPE:dance-double;
#BANNER:;
#DESCRIPTION:;
#CHARTSTYLE:;
#DIFFICULTY:Medium;
#METER:14;
#METERF:0.000000;
#LASTSECONDHINT:125.579475;
#RADARVALUES:0.595425,0.657376,0.222190,0.183881,0.681893,544.000000,515.000000,29.000000,24.000000,0.000000,0.000000,0.000000,0.000000,0.000000,0.595425,0.657376,0.222190,0.183881,0.681893,544.000000,515.000000,29.000000,24.000000,0.000000,0.000000,0.000000,0.000000,0.000000;
#CREDIT:YOSEFU;
#NOTES:
// measure 0
00000000
00000000
00000000
00000000
,  // measure 1
00000000
00000000
00000000
00000000
,  // measure 2
00000000
00000000
00000000
00000000
,  // measure 3
00000000
00000000
00000000
00000000
00000000
00000000
00000000
00000000
00000000
00000000
00000000
00000000
00010000
00001000
00000000
00000000
,  // measure 4
00010000
00000000
00001000
00000000
00010000
00000000
01000000
00100000
00000000
00100000
00010000
00000000
10000000
00100000
01000000
00000000
,  // measure 5
00010000
00000000
00100000
00000000
00001000
00000000
00010000
01000000
00000000
00010000
00001000
00000000
00010000
00000000
00000010
00000000
,  // measure 6
00001000
00000000
00000010
00000100
00000000
00001000
00000000
00000200
00000000
00000000
00000301
00000000
00000010
00000100
00010000
00000000
,  // measure 7
00000000
00011000
00000000
00001000
01000000
00000000
00000000
00000000
00011000
00000000
00010000
00000100
00000000
00010000
00001000
01000000
,  // measure 8
00100000
00000000
10000000
00000000
00010000
00000000
00100000
01000000
00000000
01000000
10000000
00000000
00100000
00000000
00010000
00000000
,  // measure 9
00001000
00000000
00010000
00000000
00000100
00000000
00000010
00001000
00000000
00001000
00010000
00000000
00001000
01000000
00000000
00000000
,  // measure 10
00100000
00000000
00010000
00001000
00000000
00000100
00000000
00000001
00000000
00000000
00000010
00001000
00010000
00000000
00001000
00000000
,  // measure 11
01001000
00000000
01000000
00100000
00000000
10100000
00000000
11000000
00000000
00000000
10000000
00000000
01000000
00100000
00000000
00100000
,  // measure 12
00010000
00000000
00000000
00010000
01000000
00000000
00000000
01000000
00001000
00000000
00000000
00001000
00010000
00000000
00000000
00000010
,  // measure 13
00000000
00001000
00000001
00000010
00001000
00010000
00100000
01000000
,  // measure 14
00010000
10000000
01000000
00010000
00001000
00010000
00100000
01000000
,  // measure 15
00010000
00000000
10000000
00000000
01000000
00000000
00010000
00000000
00001000
00000000
00000100
00000010
00001000
00000000
00000000
00000000
,  // measure 16
00000001
00000000
00000100
00000010
00001000
00000000
00000001
00000010
00000000
00000000
00000100
00000000
00010000
00000000
00001000
00000000
,  // measure 17
00100000
00000000
00000000
00010000
00000000
01000000
00000000
00100000
00000000
00000000
00010000
00000000
00100000
00000000
10000000
00000000
,  // measure 18
01000000
00000000
00100000
00000000
00010000
00000000
00000000
01000000
00000000
00000000
00100000
00000000
00010000
00000000
00001000
00000000
,  // measure 19
00000010
00000000
00000100
00000000
00001000
00000001
00000000
00001000
00000001
00000000
00000100
00000000
00000010
00000000
00010000
00000000
,  // measure 20
00001000
00000000
00100000
00010000
10000000
00000000
00100000
01000000
00000000
10000000
01000000
00000000
00001000
00000000
00010000
00000000
,  // measure 21
00000100
00000000
00000010
00000000
00000001
00000000
00000100
00000010
00000000
00000100
00001000
00000000
00010000
00000000
01000000
00000000
,  // measure 22
20000000
01000000
00010000
01000000
,  // measure 23
30100000
00000000
00000000
01010000
00000000
00000000
00000000
00000000
00011000
00000000
00000000
00000110
00000000
00000000
00002002
00000000
,  // measure 24
00000000
00000000
00000003
00000000
00003010
00000100
00000001
00000010
,  // measure 25
00000100
00000000
00001000
00000000
00000001
00000100
00000000
00000200
00000000
00000000
00000310
00000000
00000100
00000000
00000001
00000000
,  // measure 26
00001000
00000000
00000000
00000100
00000000
00000000
00000200
00000000
00000000
00000000
00000000
00000000
00010300
00000000
00001000
00000000
,  // measure 27
01000000
00000000
00010000
01000000
00000000
00100000
00000000
10000000
00000000
00000000
01000000
00000000
00100000
00000000
00001000
00000000
,  // measure 28
00010000
00000000
00000000
00200000
00000000
00000000
01000000
00000000
00000000
10300000
00000000
00000000
00010000
00000000
00100000
00000000
,  // measure 29
02000000
00000000
00000000
03010000
00000000
00000000
00002000
00000000
00000000
00000000
00003010
00000000
00000100
00000000
00001000
00000000
,  // measure 30
00000002
00000000
00000000
00000000
00000103
00000010
00000000
00002000
00000000
00000000
00003001
00000000
00000000
00000000
00001000
00000100
,  // measure 31
00000010
00000000
00000001
00000000
00000100
00000000
00001000
00000000
00010000
00001000
00010000
00000000
00001000
00010000
00001000
00000000
,  // measure 32
01000000
00100000
00000000
01100000
00000000
00000000
01000000
00010000
00000000
01010000
00000000
00000000
01000000
00000000
00100000
00000000
,  // measure 33
10000000
00000000
01000000
00000000
00100000
00010000
00000000
00020000
00000000
00000000
01030000
00000000
00100000
00000000
01000000
00000000
,  // measure 34
20000000
00000000
00000000
31000000
00000000
00000000
00002000
00000000
00000000
00000000
00000000
00000000
00013000
00000000
00001000
00000000
,  // measure 35
00000010
00000000
00000100
00001000
00000000
00000010
00000000
00000100
00000000
00000000
00000001
00000000
00000100
00000000
00001000
00000000
,  // measure 36
00020000
00000000
00000000
00100000
00000000
00000000
00032000
00000000
00000000
00010000
00000000
00000000
01003000
00000000
00100000
00000000
,  // measure 37
10000000
00000000
01000000
00100000
00000000
00010000
00000000
20000000
00000000
00000000
00000000
00000000
30100000
00000000
01000000
00000000
,  // measure 38
00100000
00000000
00010000
00001000
00000000
00000010
00000000
00000200
00000000
00000000
00000000
00000000
00001300
00000000
00000001
00000000
,  // measure 39
00000100
00000000
00001000
00010000
00000000
01000000
00000000
10000000
00000000
00100000
00000000
01000000
00010000
00000000
10000000
00000000
,  // measure 40
01000000
00100000
00000000
00000000
00001000
00010000
00000000
00000000
00010010
00000000
00000000
00000010
00000000
00000000
00000100
00000000
,  // measure 41
00000001
00000000
00000100
00000000
00000010
00001000
00000000
00000001
00000000
00000000
00000010
00000000
00000100
00000000
00000000
00010000
,  // measure 42
00001000
00000000
00100000
00000000
00010000
10000000
00000000
00100000
00000000
01000000
00000000
00010000
10000000
00000000
01000000
00000000
,  // measure 43
00010000
00000000
00001000
00000000
00010000
00000010
00000000
00001000
00000000
00000000
00000001
00000000
00000010
00000000
00000100
00000000
,  // measure 44
00000010
00000001
00000100
00001000
00010000
01000000
10000000
00100000
,  // measure 45
10000000
00000000
01000000
00000000
00100000
00010000
00000000
10000000
00000000
00000000
00100000
00000000
01000000
00000000
00000000
00001000
,  // measure 46
00010000
00000000
00000010
00000000
00001000
00000001
00000000
00000010
00000000
00000100
00000000
00001000
00000001
00000000
00000100
00000000
,  // measure 47
00001000
00000000
00010000
00000000
00001000
00100000
00000000
00010000
00000000
00000000
10000000
00000000
00100000
00000000
01000000
00000000
,  // measure 48
00100000
00000000
10000000
00000000
01000000
00100000
00000000
00001000
00010000
00000010
00000000
00000000
00001000
00000000
00000001
00000000
,  // measure 49
00000101
00000000
00000000
00000000
00000100
00000000
00000000
00001010
00000000
00000000
00000000
00010000
00000000
00001000
00000000
00011000
,  // measure 50
00000000
00200000
00000000
00000000
01300000
00000000
00100000
00010000
00000000
10000000
00000000
00100000
01000000
00000000
00010000
00000000
,  // measure 51
10000000
00000000
00000000
00000000
01000000
00000000
00100000
00000000
00101000
00000000
00101000
00000000
00001000
00000000
00000000
00011000
,  // measure 52
00000000
00010000
00000000
00000000
00000010
00000000
00000000
00000100
00000000
00000000
00001000
00000000
00000100
00000000
00000001
00000000
,  // measure 53
00001000
00000000
00000000
00000100
00000000
00011000
00000000
01010000
00000000
00000000
00100000
00000000
01000000
00100000
00000000
10010000
,  // measure 54
00000000
10000000
00000000
00100000
01000000
00000000
10000000
00000000
01000000
00000000
00001000
00000000
00010000
00000000
00000100
00000000
,  // measure 55
00000010
00000000
00000000
00000000
00000001
00000100
00000000
00001020
00000000
00000000
00001000
00000000
00000100
00000000
00001000
00000000
,  // measure 56
00010030
00000000
00000000
00000000
00001000
00010000
00000000
00201000
00000000
00000000
00010000
00000000
01300000
00000000
10000000
00000000
,  // measure 57
00020000
00000000
00000000
00000000
00000000
01000000
00000000
01000000
00000000
01000000
00000000
00000000
01030000
00001000
00000000
00000000
,  // measure 58
00010000
00001000
00010000
00100000
00010000
00001000
00010000
00001000
00000010
00001000
00000000
00000000
,  // measure 59
00010000
00000000
00001000
00000000
00010000
00000000
00100000
01000000
00000000
01000000
00010000
00000000
10000000
01000000
00100000
00000000
,  // measure 60
00010000
00000000
01000000
00000000
00001000
00000000
00010000
00100000
00000000
00010000
00001000
00000000
00010000
00000000
00000100
00000000
,  // measure 61
00001000
00000000
00000100
00000010
00000000
00001000
00000000
00000020
00000000
00000000
00000031
00000000
00000100
00000010
00010000
00000000
,  // measure 62
00000000
00011000
00000000
00001000
00100000
00000000
00000000
00000000
00011000
00000000
00010000
00000010
00000000
00010000
00001000
00100000
,  // measure 63
01000000
00000000
10000000
00000000
00010000
00000000
01000000
00100000
00000000
00100000
10000000
00000000
01000000
00000000
00010000
00000000
,  // measure 64
00001000
00000000
00010000
00000000
00000010
00000000
00000100
00001000
00000000
00001000
00010000
00000000
00001000
00100000
00000000
00000000
,  // measure 65
01000000
00000000
00010000
00001000
00000000
00000010
00000000
00000001
00000000
00000000
00000100
00001000
00010000
00000000
00001000
00000000
,  // measure 66
00101000
00000000
00100000
01000000
00000000
11000000
00000000
10100000
00000000
00000000
10000000
00000000
00100000
01000000
00000000
01000000
,  // measure 67
00010000
00000000
10000000
01000000
00000000
01000000
00100000
00001000
00010000
00000000
00000100
00000010
00000000
00001001
00000000
00000000
,  // measure 68
00000001
00000000
00000001
00000100
00000000
00000100
00001000
00000000
00001000
00020000
00000000
00000000
00000000
00000000
00000000
00000000
,  // measure 69
00000000
00000000
00000000
00000000
,  // measure 70
00000000
00000000
00000000
00000000
,  // measure 71
00000000
00000000
00030000
00000000
;

//---------------dance-double - ----------------
#NOTEDATA:;
#CHARTNAME:Thinking twice as much... Twice I am...;
#CHARTHASH:3464810255;
#STEPSTYPE:dance-double;
#BANNER:;
#DESCRIPTION:;
#CHARTSTYLE:;
#DIFFICULTY:Hard;
#METER:16;
#METERF:0.000000;
#LASTSECONDHINT:125.579475;
#RADARVALUES:0.745376,0.794329,0.176220,0.275822,1.176074,681.000000,658.000000,23.000000,36.000000,0.000000,0.000000,0.000000,0.000000,0.000000,0.745376,0.794329,0.176220,0.275822,1.176074,681.000000,658.000000,23.000000,36.000000,0.000000,0.000000,0.000000,0.000000,0.000000;
#CREDIT:YOSEFU;
#NOTES:
// measure 0
00000000
00000000
00000000
00000000
,  // measure 1
00000000
00000000
00000000
00000000
,  // measure 2
00000000
00000000
00000000
00000000
,  // measure 3
00000000
00000000
00000000
00000000
00000000
00000000
00000000
00000000
00000000
00000000
00000000
00000000
00010000
00001000
00000000
00000000
,  // measure 4
00010000
00001000
01000000
00001000
00010000
00000100
00001000
00000002
00000000
00000000
00000103
00000010
00001000
00000000
00000001
00000010
,  // measure 5
00000100
00000010
00000001
00001000
00000010
00000100
00001000
00020000
00000000
00000000
00031000
00000000
00100000
00000000
00010000
00000000
,  // measure 6
01000000
00000000
00100000
00010000
00000000
00001000
00000000
00020000
00000000
00000000
01030000
00100000
00010000
01000000
00100000
10000000
,  // measure 7
00000000
11000000
00000000
00010000
01000000
00000000
00001000
00010000
00000100
00000000
00001000
00000001
00000000
00001000
00000010
00000100
,  // measure 8
00000001
00001000
00000100
00000010
00000001
00001000
00000010
00000200
00000000
00000000
00000301
00000010
00000100
00000000
00001000
00000010
,  // measure 9
00000100
00000010
00001000
00000001
00000010
00000100
00000010
00002000
00000000
00000000
00013000
00001000
01000000
00200000
00000000
00000000
,  // measure 10
01300000
00000000
10000000
01000000
00000000
00001000
00000000
00020000
00000000
00000000
01030000
00010000
00001000
00000100
00000001
00001000
,  // measure 11
00000100
00000010
00000001
00001000
00000000
00001010
00000000
00000011
00000000
00000000
00000001
00000000
00000001
00000100
00000000
00000010
,  // measure 12
00001000
00000000
00000000
00000000
00000100
00000010
00000001
00000000
00001000
00000000
00000010
00000100
00000000
00001000
00000000
00010000
,  // measure 13
00000000
00001000
00100000
00000000
00010000
10000000
00100000
00000000
01000000
00010000
01000000
00010000
00100000
00000000
01000000
00000000
,  // measure 14
10000000
00000000
00010000
01000000
00001000
00000000
00010000
00000100
00001000
00000000
00000100
00000010
00000001
00000000
00000100
00000010
,  // measure 15
00001000
00000010
00000000
00000010
00000100
00001000
00010000
00001000
00010000
00000000
00001000
00100000
01000000
00000000
00000000
00000000
,  // measure 16
10000000
00010000
01000000
00010000
10000000
00010000
00000000
10000000
00000000
01000000
00100000
00000000
01000000
00010000
00001000
00000000
,  // measure 17
00010000
00000000
00001000
00000010
00000000
00000100
00000000
00001000
00000000
00000001
00000100
00000010
00001000
00000000
00000000
00000000
,  // measure 18
00000001
00001000
00000100
00000010
00000001
00000000
00001000
00000010
00000000
00000100
00001000
00010000
00001000
00000000
00100000
00000000
,  // measure 19
01000000
00000000
10000000
00000000
00010000
01000000
00000000
00010000
01000000
00000000
00100000
00000000
10000000
00000000
00010000
10000000
,  // measure 20
01000000
00100000
01000000
10000000
01000000
00100000
00000000
00001000
00000000
00010000
00100000
01000000
00001000
00000000
00010000
00000000
,  // measure 21
00000100
00000010
00000100
00001000
00000001
00000000
00000100
00000010
00000000
00001000
00000001
00000010
00000100
00000000
00010000
00000000
,  // measure 22
00002000
00000000
00000000
00000000
00000000
00000000
00000000
00000000
00013000
00100000
01000000
00000000
00010000
10000000
01000000
00000000
,  // measure 23
01100000
00000000
00000000
00011000
00000000
00000000
00000000
00000000
00000110
00000000
00000000
00001001
00000000
00000000
00002010
00000000
,  // measure 24
00000000
00000000
00000000
00000000
00000000
00000000
00000000
00000000
00000000
00000000
00003001
00000010
00000100
00000000
00010000
00000000
,  // measure 25
00001000
00000000
00010000
00000000
00001000
00000010
00000000
00000010
00000000
00000000
00000100
00000000
00001000
00000000
00000100
00000000
,  // measure 26
00000010
00000000
00000000
00000001
00000000
00000000
00000001
00000000
00000000
00000100
00000010
00001000
00000001
00000000
00000100
00000010
,  // measure 27
00010000
00000000
00001000
00100000
00000000
01000000
00000000
00100000
00000000
00000000
00010000
00000000
10000000
00100000
01000000
00010000
,  // measure 28
10000000
00000000
00000000
02000000
00000000
00000000
00010000
00000000
00000000
10000000
00000000
00000000
03100000
00000000
00001000
00010000
,  // measure 29
00001000
00000000
00001000
00010000
00000000
00010000
00000020
00000000
00000000
00000000
00000130
00000000
00000001
00000000
00000010
00000000
,  // measure 30
00001000
00000000
00010000
00000000
00001000
01000000
00000000
00200000
00000000
00000000
10300000
00000000
00000000
00000000
01000000
00100000
,  // measure 31
00001000
00010000
00001000
00010000
00000010
00001000
00000010
00001000
00000001
00000100
00000001
00000100
00000001
00000010
00000001
00000010
,  // measure 32
00000100
00010000
00001000
01000000
00000000
00000000
00001000
00010000
00000100
00000010
00000000
00000000
00000001
00000000
00000100
00000000
,  // measure 33
00001000
00000000
00010000
00000000
00001000
00100000
00000000
00100000
00000000
00000000
01000000
00000000
00010000
00000000
01000000
00000000
,  // measure 34
10000000
00000000
00000000
00100000
00000000
00000000
00010000
00000000
00100000
01000000
00000000
01000000
00001000
00000000
00010000
00001000
,  // measure 35
00000010
00000000
00000100
00001000
00000000
00000001
00000000
00000100
00000000
00000000
00000010
00000000
00000100
00001000
00010000
00001000
,  // measure 36
02000000
00000000
00000000
00100000
00000000
00000000
03020000
00000000
00000000
10030000
01000000
00100000
00010000
00000000
01000000
00001000
,  // measure 37
00010000
00000000
00001000
00010000
00000000
00000010
00000000
00000100
00000000
00000000
00001000
00000000
00000100
00000000
00000001
00000010
,  // measure 38
00000100
00000000
00010000
00001000
00000000
00100000
00000000
00010000
00000000
00000000
01000000
00000000
00100000
00010000
00001000
00010000
,  // measure 39
00000010
00000000
00000100
00001000
00000000
00010000
00000000
01000000
00000000
00000000
00100000
00010000
10000000
00100000
01000000
00010000
,  // measure 40
01000000
01000000
00000000
00000000
00001000
00001000
00000000
00000000
00010000
00000000
00010000
00000100
00000000
00000100
00001000
00000001
,  // measure 41
00001000
00000010
00000100
00000001
00000000
00001000
00000000
00000200
00000000
00000000
00000310
00000000
00000100
00002000
00000000
00000000
,  // measure 42
00003001
00000000
00000100
00000100
00000000
00001000
00000000
00020000
00000000
00000000
00030000
00001000
00100000
01000000
10000000
00010000
,  // measure 43
01000000
00000000
00100000
00100000
00000000
10000000
00000000
00020000
00000000
00000000
00130000
01000000
10000000
00000000
01000000
00100000
,  // measure 44
00020000
00000000
00000000
00000000
01030000
00100000
10000000
00000000
01000000
00100000
00001000
00000000
00010000
00000000
00000010
00000000
,  // measure 45
00001000
00000100
00000010
00000001
00000000
00001000
00000000
00000020
00000000
00000000
00000130
00000000
00000010
00002000
00000000
00000000
,  // measure 46
00003001
00000000
00000010
00000010
00000000
00001000
00000000
00020000
00000000
00000000
00030000
00001000
01000000
00100000
10000000
00010000
,  // measure 47
00100000
01000000
10000000
00010000
01000000
00000000
00100000
20000000
00000000
00000000
31000000
00020000
00000000
00000000
00031000
00000000
,  // measure 48
00010000
00000010
00001000
00000010
00000100
00000010
00001000
00000000
00001010
00000000
00000000
00000011
00000000
00000000
00000000
00000000
,  // measure 49
00001100
00000000
00000000
00000000
00001000
00000100
00000000
00010100
00000000
00000000
00000000
00010000
00001000
01000000
00000000
01100000
,  // measure 50
00000000
00020000
00000000
00000000
00130000
01000000
10000000
01000000
00100000
00000000
00010000
10000000
00100000
00000000
01000000
00000000
,  // measure 51
01001000
00000000
00000000
00001000
00010000
00000100
00000010
00000000
00000011
00000000
00000011
00000000
00000001
00001000
00000000
00001010
,  // measure 52
00000000
00000010
00000000
00001000
00000010
00000000
00000100
00000010
00000000
00000001
00000010
00000000
00000100
00000000
00000001
00000000
,  // measure 53
00001000
00000001
00000000
00001000
00000000
00010100
00000000
01001000
00000000
01000000
00010000
00100000
01000000
10000000
00000000
10100000
,  // measure 54
00000000
00100000
01000000
00010000
10000000
01000000
00000000
01000000
00100000
00001000
01000000
00001000
00010000
00000000
00000100
00000000
,  // measure 55
00000020
00000000
00000000
00000000
00000031
00001000
00000010
00000200
00000000
00000000
00000010
00000000
00000001
00000000
00000010
00000000
,  // measure 56
00000301
00000000
00001000
00000100
00000010
00000100
00001000
00000002
00000000
00000103
00000010
00000000
00001000
00000000
00000000
00000000
,  // measure 57
00000200
00000000
00000000
00000000
00000000
00010000
00000000
00010000
00000000
00010000
00000000
00010300
00001000
00010000
00000000
00000000
,  // measure 58
00001000
00010000
00100000
00010000
00001000
00000010
00000001
00000010
00001000
00010000
00000000
00000000
,  // measure 59
00001000
00010000
00000010
00010000
00001000
00100000
00010000
10000000
00000000
00000000
00100000
01000000
00010000
00000000
10000000
01000000
,  // measure 60
00100000
01000000
10000000
00010000
01000000
00100000
00010000
00002000
00000000
00000000
00013000
00000000
00000100
00000000
00001000
00000000
,  // measure 61
00000010
00000000
00000100
00001000
00000000
00010000
00000000
00002000
00000000
00000000
00003010
00000100
00001000
00000010
00000100
00000001
,  // measure 62
00000000
00000011
00000000
00001000
00000010
00000000
00010000
00001000
00100000
00000000
00010000
10000000
00000000
00010000
01000000
00100000
,  // measure 63
10000000
00010000
00100000
01000000
10000000
00010000
01000000
00200000
00000000
00000000
10300000
01000000
00100000
00000000
00010000
01000000
,  // measure 64
00100000
01000000
00010000
10000000
01000000
00100000
01000000
00020000
00000000
00000000
00031000
00010000
00000010
00000200
00000000
00000000
,  // measure 65
00000310
00000000
00000001
00000010
00000000
00010000
00000000
00002000
00000000
00000000
00003010
00001000
00010000
00100000
10000000
00010000
,  // measure 66
00100000
01000000
10000000
00010000
00000000
01010000
00000000
11000000
00000000
00000000
10000000
00000000
10000000
00100000
00000000
01000000
,  // measure 67
00001000
00010000
00000010
00010000
00001000
00100000
00010000
00100000
00001000
00010000
00000010
00001000
00000001
00000010
00000100
00001000
,  // measure 68
00000010
00000000
00000010
00000100
00000000
00000100
00001000
00000000
00001000
00020000
00000000
00000000
00000000
00000000
00000000
00000000
,  // measure 69
00000000
00000000
00000000
00000000
,  // measure 70
00000000
00000000
00000000
00000000
,  // measure 71
00000000
00000000
00030000
00000000
;
