#TITLE:Celestial Horizon;
#SUBTITLE:;
#ARTIST:Fractal Dreamers;
#TITLETRANSLIT:;
#SUBTITLETRANSLIT:;
#ARTISTTRANSLIT:;
#GENRE:Artcore;
#CREDIT:;
#BANNER:Celestial Horizon.png;
#BACKGROUND:Celestial Horizon-bg.png;
#LYRICSPATH:;
#CDTITLE:../_YSD cdtitles/ysd sc2022 cdtitle.png;
#MUSIC:Celestial Horizon.ogg;
#OFFSET:-0.080000;
#SAMPLESTART:110.480003;
#SAMPLELENGTH:19.200001;
#SELECTABLE:YES;
#BPMS:0.000000=200.000000
;
#STOPS:
;
#BGCHANGES:;
#KEYSOUNDS:;
#ATTACKS:;

//---------------dance-single - ----------------
#NOTES:
     dance-single:
     :
     Beginner:
     3:
     0.138968,0.242232,0.048989,0.153965,0.000000,139.000000,132.000000,7.000000,22.000000,0.000000,0.000000,0.138968,0.242232,0.048989,0.153965,0.000000,139.000000,132.000000,7.000000,22.000000,0.000000,0.000000:
0000
0000
0000
0000
,
0000
0000
0000
0000
,
0000
0000
0000
0000
,
0000
0000
0000
0000
,
0000
0000
0000
0000
,
0000
0000
0000
0000
,
0000
0000
0000
0000
,
0000
0000
0000
0000
,
2000
0000
3000
0000
,
0001
0000
0000
0000
,
0200
0000
0300
0000
,
0010
0000
0000
0000
,
2000
0000
3000
0000
,
0001
0000
0000
0000
,
0020
0000
0030
0000
,
0001
0000
0000
0000
,
2002
0000
3003
0000
,
1000
0000
0000
0000
,
0002
0000
0003
0000
,
0100
0000
0000
0000
,
0020
0000
0030
0000
,
1000
0000
0000
0000
,
0002
0000
0003
0000
,
0010
0000
0000
0000
,
1001
0000
0000
0000
,
1000
0000
0000
0010
,
0010
0000
0000
0000
,
0100
0000
0001
0001
,
0001
0000
0000
0000
,
1000
0000
0000
0000
,
1001
0000
0000
0000
,
0010
0010
0010
0000
,
1000
0000
0000
0000
,
0001
0000
0000
0000
,
0010
0000
0000
0000
,
0001
0000
0000
0000
,
1000
0000
0000
0000
,
0010
0000
0000
0000
,
0100
0000
0000
0000
,
0001
0000
0000
0000
,
1000
0000
0000
0000
,
0100
0000
0000
0000
,
0010
0000
0000
0000
,
0001
0000
0000
0000
,
1000
0000
0000
0000
,
0010
0000
0000
0000
,
0100
0000
0000
0000
,
0001
0000
0000
0001
,
0001
0000
0000
0000
,
1000
0000
0000
0000
,
0100
0000
0000
0000
,
0010
0000
0000
0000
,
0001
0000
0000
0000
,
1000
0000
0000
0000
,
0010
0000
0000
0000
,
0100
0000
0000
0000
,
0001
0000
0000
0000
,
0010
0000
0000
0000
,
0100
0000
0000
0000
,
1000
0000
0000
0000
,
0001
0000
0001
0000
,
0001
0000
0000
0000
,
1000
0000
1000
0000
,
1000
0000
0000
0000
,
0010
0000
0010
0000
,
0010
0000
0000
0000
,
0100
0000
0000
0000
,
0100
0000
0000
0000
,
1001
0000
0000
0000
,
0001
0000
0000
0000
,
0010
0000
0000
0000
,
0100
0000
0000
0000
,
1000
0000
0000
0000
,
0001
0000
0000
0000
,
0100
0000
0000
0000
,
0010
0000
0000
0000
,
1000
0000
0000
0000
,
0100
0000
0000
0000
,
0010
0000
0000
0000
,
0001
0000
0000
0000
,
1000
0000
0000
0000
,
0010
0000
0000
0000
,
0100
0000
0000
0000
,
0001
0000
0000
0000
,
2000
0000
0000
3000
,
0000
0000
0001
0000
,
0002
0000
0000
0003
,
0000
0000
0100
0000
,
0200
0000
0000
0300
,
0000
0000
0010
0000
,
0020
0000
0000
0030
,
0000
0000
1001
0000
,
1001
0000
0000
0000
,
1000
0000
1000
0000
,
1000
0000
0000
0000
,
0100
0100
0100
0100
,
0100
0000
0000
0000
,
0010
0000
0000
0000
,
0001
0000
0001
0000
,
0001
0001
0001
0000
,
0100
0000
0000
0000
,
0010
0000
0010
0010
,
0010
0000
0000
0000
,
1000
1000
1000
1000
,
1000
0000
0000
0000
,
0001
0000
0001
0000
,
0100
0000
0000
0000
,
0010
0010
0010
0000
,
2002
0000
0000
3003
0000
0000
0000
0000
,
2000
0000
0000
3000
0000
0000
0000
0000
,
0200
0000
0000
0300
0000
0000
0000
0000
,
0020
0000
0000
0030
0000
0000
0000
0000
,
0002
0000
0000
0003
0000
0000
0000
0000
,
2000
0000
0000
3000
0000
0000
0000
0000
,
0020
0000
0000
0030
0000
0000
0000
0000
,
2000
0000
0000
3000
0000
0000
0000
0000
;

//---------------dance-single - ----------------
#NOTES:
     dance-single:
     :
     Easy:
     6:
     0.244944,0.324375,0.069984,0.265939,0.000000,245.000000,235.000000,10.000000,38.000000,0.000000,0.000000,0.244944,0.324375,0.069984,0.265939,0.000000,245.000000,235.000000,10.000000,38.000000,0.000000,0.000000:
0000
0000
0000
0000
,
0000
0000
0000
0000
,
0000
0000
0000
0000
,
0000
0000
0000
0000
,
0000
0000
0000
0000
,
0000
0000
0000
0000
,
0000
0000
0000
0000
,
0000
0000
0000
0000
,
2000
0000
3001
0000
,
0100
0000
0010
0000
,
2000
0000
3100
0000
,
0010
0000
0001
0000
,
2000
0000
3010
0000
,
0100
0000
0001
0000
,
2000
0000
3100
0000
,
0010
0000
0001
0000
,
2001
0000
3000
0001
,
0100
0000
0000
0010
,
2000
0000
3000
0001
,
0010
0000
0000
0100
,
2000
0000
3001
0100
,
0000
0000
0000
0010
,
2000
0000
3000
0001
,
0010
0000
0000
0100
,
1001
0000
0001
0000
,
1000
0000
0010
0100
,
0001
0000
1000
0000
,
0100
0100
0010
0010
,
0001
0000
1000
0000
,
0010
0000
0100
0001
,
1000
0000
0001
0000
,
0010
0010
0001
1000
,
0000
0010
0000
0100
,
0000
0001
0000
1001
,
0000
1000
0000
0100
,
0000
0010
0000
1001
,
0000
0001
0000
0100
,
0000
0010
0000
0110
,
0000
0100
0000
0001
,
0000
1000
0000
1001
,
0000
0001
0000
0010
,
0000
0100
0000
1001
,
0000
0001
0000
1000
,
0010
0000
0000
0100
,
0100
0000
0000
0001
,
1000
0000
0100
0000
,
1000
0000
0000
0001
,
0100
0100
0010
0010
,
1000
0000
0001
0000
,
0010
0000
0100
0000
,
1000
0000
0001
0000
,
0100
0100
0010
0010
,
1000
0000
0001
0000
,
0010
0000
0001
1000
,
0010
0000
0100
0000
,
0001
0000
1000
0100
,
0010
0000
0100
0000
,
1000
0000
0001
0100
,
0010
0000
1000
0000
,
0001
0000
0010
0001
,
1000
0000
0010
0000
,
0100
0100
0001
1000
,
0100
0000
0010
0000
,
0100
0100
1000
0001
,
0100
0000
0010
0000
,
1000
1000
0001
0010
,
0100
0000
0000
0000
,
1000
0000
0000
0000
,
2002
0000
0000
0000
,
3003
0000
0000
0000
,
0002
0000
0000
0000
,
0023
0000
0000
0000
,
0230
0000
0000
0000
,
2300
0000
0000
0000
,
3002
0000
0000
0000
,
0203
0000
0000
0000
,
0320
0000
0000
0000
,
2030
0000
0000
0000
,
3002
0000
0000
0000
,
0023
0000
0000
0000
,
0230
0000
0000
0300
0000
0000
1000
0000
,
0002
0000
0000
0003
0000
0000
0100
0000
,
0020
0000
0000
0030
0000
0000
1000
0000
,
0002
0000
0000
0003
0000
0000
0010
0000
,
0100
0000
0000
2000
,
0000
0000
0001
0000
,
3001
0000
0000
0200
,
0000
0000
0010
0010
,
0320
0000
0000
2030
,
0000
0000
0100
0000
,
3200
0000
0000
0320
,
0000
0031
1001
0000
,
1001
0000
0001
0000
,
1000
0010
0100
0010
,
1000
0000
0001
0000
,
1000
0100
0010
0100
,
1000
0000
0001
0000
,
1000
0010
0100
0001
,
1000
0000
0001
0000
,
1000
0100
0010
0001
,
1000
0000
0001
0000
,
1000
0010
0100
0001
,
1000
0000
0100
0000
,
0010
0001
1000
0010
,
0100
0000
0001
0000
,
1000
0001
0010
0100
,
1000
0000
0001
0000
,
0100
0010
1000
0001
,
0020
0000
0000
0030
0000
0000
0001
0000
,
0200
0000
0000
0300
0000
0000
0010
0000
,
2000
0000
0000
3000
0000
0000
0001
0000
,
0200
0000
0000
0300
0000
0000
0001
0000
,
2000
0000
0000
3000
0000
0000
0100
0000
,
0020
0000
0000
0030
0000
0000
0001
0000
,
2000
0000
0000
3000
0000
0000
0010
0000
,
0200
0000
0000
0300
0000
0000
0000
0001
;

//---------------dance-single - ----------------
#NOTES:
     dance-single:
     :
     Medium:
     13:
     0.616858,0.689298,0.188957,0.160963,0.020995,617.000000,590.000000,27.000000,23.000000,0.000000,0.000000,0.616858,0.689298,0.188957,0.160963,0.020995,617.000000,590.000000,27.000000,23.000000,0.000000,0.000000:
0000
0000
0000
0000
,
0000
0000
0000
0000
,
0000
0000
0000
0000
,
0000
0000
0000
0000
,
0000
0000
0000
0000
,
0000
0000
0000
0000
,
0000
0000
0000
0000
,
0000
0000
0000
0000
,
1000
0000
0001
0010
0000
0001
0010
0000
,
0001
0000
1000
0010
0000
1000
0010
0000
,
1000
0000
0001
0100
0000
0001
0100
0000
,
0001
0000
1000
0100
0000
1000
0100
0000
,
1000
0000
0001
0100
0000
0001
1000
0000
,
0100
0000
1000
0001
0000
1000
0010
0000
,
0100
0000
0001
1000
0000
0001
0010
0000
,
0100
0000
1000
0001
0000
1000
0010
0100
,
0002
0000
1003
0100
1000
0000
0001
0100
,
0001
0000
0000
0010
0000
0000
0100
0000
,
2000
0000
3001
0100
,
0010
0000
0000
1000
0000
0000
0001
0000
,
0020
0000
0000
0000
0130
1000
0100
0000
,
1000
0001
1000
0010
0000
0000
0100
0000
,
0002
0000
0000
0000
0013
0100
1000
0100
,
0010
0000
0000
0001
0000
0000
0010
0000
,
0001
0000
1000
0010
0000
1000
0001
0000
,
0100
0001
0000
1000
0000
0100
0010
0100
,
1000
0000
0001
0100
0010
0000
1000
0001
,
0010
0000
0100
1000
0001
1000
0100
0010
,
0001
0000
1000
0010
0000
1000
0001
0010
,
0100
1000
0001
0100
0000
0010
1000
0001
,
0011
0000
0000
0000
0010
0000
0001
1000
0001
0000
0000
0000
0100
0000
0010
0000
,
4000
3000
0004
0003
0010
0100
0010
0001
,
1000
1010
0010
0110
,
0100
0101
0001
1001
,
1000
1100
0100
0110
,
0010
0000
0011
0001
0001
1000
0010
1000
,
0001
0011
0010
0110
,
0100
1100
1000
1010
,
0010
0110
0100
0101
,
0001
0000
1001
1000
1000
0001
0100
0001
,
1000
1100
0001
0101
,
1000
0110
0001
0110
,
1000
0011
0001
1100
,
1000
0000
0000
0010
0000
0000
0100
0000
,
0001
1000
0010
1000
0000
0001
0010
0100
,
0000
0000
0010
0000
0001
0000
0000
1000
0000
0000
1000
0000
0010
0000
0000
0000
,
0100
0001
1000
0100
0000
0010
0100
1000
,
0001
0100
0010
1000
0001
0010
0100
0010
,
0001
0000
1000
0010
0000
0100
0001
1000
,
0000
0000
0100
0000
0010
0000
0000
0001
0000
0000
0001
0000
1000
0000
0001
0000
,
0100
0010
1000
0001
0000
0010
0001
1000
,
0010
0100
0001
1000
0100
0010
0100
1000
,
0001
0100
0010
1000
0000
0001
0010
0100
,
0000
1000
0001
0100
0010
0000
1010
0000
,
1000
0001
0010
0100
0000
0010
0001
1000
,
0000
0000
0010
0000
0100
0000
0000
0001
0000
0000
0001
0000
1000
0000
0000
0000
,
0010
0100
0001
1000
0000
0100
0010
0001
,
0000
1000
0010
0100
0001
0000
1001
0000
,
1000
0100
0010
0001
0000
1000
0010
0100
,
0000
0001
1000
0100
0010
0000
0011
0000
,
0001
0000
1000
0010
0100
0000
0001
0010
,
0100
0010
0001
1000
0000
0001
0100
0010
,
1000
0000
0001
0010
0000
0001
0000
1000
,
0000
0000
0010
0000
0100
0000
0000
0001
0000
0000
0001
0000
1000
0000
0100
0000
,
0010
0000
0001
0000
1000
0010
0100
0000
,
0001
0000
1000
0000
0100
0000
0000
0010
0000
0000
0010
0000
0001
0000
1000
0000
,
0010
0000
0000
0100
0000
0000
0001
1000
,
0000
0000
0100
0000
0010
0001
0000
0000
,
1001
0000
0000
1000
0000
0000
0001
0010
,
0100
0000
0010
0002
0000
0000
1003
0010
,
0200
0000
0301
2000
0000
3200
0000
0320
,
0000
0130
1000
0002
0000
0203
0000
0310
,
1000
0000
0000
0001
0000
0000
0100
0001
,
1000
0000
0000
0100
0000
0000
0010
0100
,
1000
0000
0000
0001
0000
0000
0010
0001
,
1000
0000
0000
0010
0000
0100
0001
1000
,
0100
0000
0010
0001
0000
1000
0001
0000
,
1000
0000
0100
0010
0000
0100
1000
0000
,
0001
0000
0100
0010
0000
1000
0001
0000
,
0010
0000
0001
1000
0000
0010
0100
0001
,
1000
0000
0001
0100
0000
0001
1000
0000
,
0100
0000
0010
0001
0000
1000
0010
0000
,
0100
0000
0001
1000
0000
0100
0010
0001
,
1000
0000
0010
0100
0000
0001
1000
0001
,
0020
0000
0000
0230
0000
0000
2300
0000
,
0000
0000
0010
0000
0001
0000
3100
1000
,
0002
0000
0000
0203
0000
0000
0320
0000
,
0000
1030
0001
0100
0001
0000
1000
0100
,
0020
0000
0000
0032
0000
0000
0203
0000
,
0000
0000
1000
0000
0010
0000
0301
0100
,
0002
0000
0000
2003
0000
0000
3200
0000
,
0000
0310
0001
1000
1001
0000
0001
0100
,
0101
0000
0001
1000
0000
0001
0010
0001
,
1000
0010
0100
0001
0010
0100
1000
0001
,
0100
0000
0010
1000
0000
0001
0010
0100
,
1000
1000
0010
0010
0100
0100
0001
0001
,
1000
0000
0001
0010
0000
0001
1000
0010
,
0100
0001
0010
0100
1000
0010
0100
0001
,
1000
0000
0001
1000
0000
0010
0100
0001
,
1000
0001
0010
0100
1000
0010
0100
0001
,
1000
0000
0001
0100
0000
0001
1000
0000
,
0100
0010
0000
0001
0000
1000
0010
0100
,
0001
1000
0100
0010
0000
0001
0000
1000
,
0010
0000
0100
0001
1000
0100
0010
0001
,
0100
0000
0010
1000
0000
0001
0010
0001
,
1000
0010
0100
0001
0010
0100
0010
0001
,
1000
0010
0100
0001
0010
0100
0010
0001
,
1000
0010
0100
0010
1000
0001
0010
0100
,
1000
0000
0001
0100
0000
0001
1000
0100
,
0010
0000
0100
1000
0000
0001
0100
0010
,
1000
0000
0001
0010
0000
0001
1000
0010
,
0100
0000
0001
1000
0000
0100
0010
0100
,
1000
0000
0001
0100
0000
0010
1000
0001
,
0010
0000
0100
0010
0000
0001
1000
0010
,
0100
0000
0001
1000
0000
0100
0010
0001
,
1000
0000
0010
0100
0000
0001
1000
0100
;

//---------------dance-single - ----------------
#NOTES:
     dance-single:
     :
     Hard:
     15:
     0.780820,0.892032,0.202953,0.258940,0.220449,781.000000,752.000000,29.000000,37.000000,0.000000,0.000000,0.780820,0.892032,0.202953,0.258940,0.220449,781.000000,752.000000,29.000000,37.000000,0.000000,0.000000:
// measure 0
0000
0000
0000
0000
,  // measure 1
0000
0000
0000
0000
,  // measure 2
0000
0000
0000
0000
,  // measure 3
0000
0000
0000
0000
,  // measure 4
0000
0000
0000
0000
,  // measure 5
0000
0000
0000
0000
,  // measure 6
0000
0000
0000
0000
,  // measure 7
0000
0000
0000
0000
,  // measure 8
1000
0100
0010
0001
0000
1000
0010
0000
,  // measure 9
0100
0001
1000
0100
0000
0010
0001
0000
,  // measure 10
1000
0010
0100
0001
0000
1000
0001
0000
,  // measure 11
0010
0100
1000
0001
0000
0100
0010
0000
,  // measure 12
1000
0001
0010
0100
0000
0010
0001
0000
,  // measure 13
1000
0010
0100
0001
0000
1000
0001
0000
,  // measure 14
0010
0100
1000
0100
0000
0010
0001
0000
,  // measure 15
1000
0000
0010
0000
0100
0000
0001
0000
0000
0000
1000
0000
0001
0010
0001
0000
,  // measure 16
0200
0000
0310
1000
0001
0020
0130
1000
,  // measure 17
0000
0001
0200
0300
0010
0000
1000
0000
,  // measure 18
0002
0000
1003
0100
,  // measure 19
0010
0000
0000
0001
0000
0000
0100
0000
,  // measure 20
0020
0000
1030
0001
0010
0200
1300
0001
,  // measure 21
0000
0100
0020
0030
1000
0000
0001
0000
,  // measure 22
0020
0000
0000
0000
0031
0000
1000
0010
,  // measure 23
0100
0002
0003
1000
,  // measure 24
0001
0000
1000
0010
0000
0100
0001
1000
,  // measure 25
0100
0000
0010
0000
0100
0000
1000
0000
0000
0000
0001
0100
0001
0000
1000
0000
,  // measure 26
0100
0000
0010
0000
0001
0000
1000
0000
0010
0000
0100
0000
0001
0000
1000
0001
,  // measure 27
0000
0000
1000
0000
0001
0100
0001
0000
1000
0100
1000
0000
0001
0100
0001
0100
,  // measure 28
0001
0000
0000
0000
1000
0000
0100
0000
0000
0000
0010
0000
0001
0000
1000
0010
,  // measure 29
1000
0001
0010
0100
1000
0001
0100
0010
,  // measure 30
1010
0000
0000
0000
1000
0000
0001
0010
0001
0000
1000
0000
0010
0000
0100
0000
,  // measure 31
0004
0000
1003
0000
0040
0000
1030
0000
0001
0100
0001
0000
1000
0100
1000
0100
,  // measure 32
1000
0000
1100
0100
0010
0000
0011
0001
,  // measure 33
1000
0000
1010
1000
0001
0000
0101
0001
,  // measure 34
1000
0000
1100
0100
0010
0000
0011
0001
,  // measure 35
1000
0000
0000
0000
1010
0000
0010
1000
0010
0000
0100
0000
0001
0000
1000
0000
,  // measure 36
0100
0010
0011
0000
0001
1000
1010
0000
,  // measure 37
0010
0100
0101
0000
0001
1000
1100
0000
,  // measure 38
0100
0010
0011
0000
0001
1000
1001
0000
,  // measure 39
0001
0000
0100
0000
0101
0000
0001
0100
0001
0000
1000
0000
0100
0000
0010
0000
,  // measure 40
0001
1000
1010
0010
0100
0001
0101
0000
,  // measure 41
0100
0001
1001
1000
0100
0010
0110
0000
,  // measure 42
0100
1000
1001
0001
0100
0010
0110
0000
,  // measure 43
1010
0000
0000
1000
0000
0000
1001
0000
,  // measure 44
0101
0000
0001
0000
1000
0000
0100
0000
0000
0000
0010
0000
0100
0000
1000
0001
,  // measure 45
1000
0000
0001
0000
0100
0000
0010
1000
0000
0000
1000
0000
0001
0000
0000
0000
,  // measure 46
0010
0100
1000
0001
0000
0100
0000
0010
,  // measure 47
1000
0001
1000
0001
1000
0000
0010
0000
0100
0001
0100
0001
0100
0000
0001
0000
,  // measure 48
1000
0000
0100
0010
0000
0001
1000
0010
,  // measure 49
0000
0000
0100
0000
0001
0000
1000
0100
0000
0000
0100
0000
1000
0000
0001
0000
,  // measure 50
0100
0000
0010
0000
1000
0000
0001
0000
0000
0000
0010
0000
0100
0000
1000
0001
,  // measure 51
1000
0001
1000
0001
1000
0000
0000
0000
0001
0100
0001
0100
0001
0000
0000
0000
,  // measure 52
1000
0100
0010
0001
0000
1000
0010
0100
,  // measure 53
0000
0001
1000
0100
0010
0001
1000
0010
,  // measure 54
0100
0001
1000
0100
0000
1000
0001
0100
,  // measure 55
0000
0000
0010
0000
1000
0000
0001
0010
0000
0000
0010
0000
0100
0000
1000
0000
,  // measure 56
0001
0100
0010
1000
0000
0001
0010
0100
,  // measure 57
0000
1000
0001
0100
0010
1000
0001
1000
,  // measure 58
0100
0010
0001
1000
0000
0010
0100
0001
,  // measure 59
1000
0100
0010
0001
1000
0000
1010
0000
,  // measure 60
0010
0100
0001
1000
0100
0010
0001
1000
,  // measure 61
0010
0000
0100
0000
0010
0000
1000
0001
0000
0000
0001
0000
0010
0000
0100
0000
,  // measure 62
1000
0000
0001
0100
0000
0010
0000
1000
,  // measure 63
0000
0000
0001
0000
0010
0000
0001
1000
0000
0000
1000
0000
0010
0000
0100
0000
,  // measure 64
0001
1000
0100
0010
0000
0100
1000
0001
,  // measure 65
0000
0000
0100
0000
0000
0000
0010
1000
0000
0000
1000
0000
0001
0000
0000
0000
,  // measure 66
0011
0000
0010
0100
0000
1000
0001
0100
,  // measure 67
0000
0010
1000
0001
0010
0100
0010
0001
,  // measure 68
1001
0000
1000
0010
0100
0000
0001
0010
,  // measure 69
0100
0010
0001
1000
0000
0001
0100
0010
,  // measure 70
2000
0000
3100
0020
0000
0230
0000
2300
,  // measure 71
0000
3001
0100
0002
0000
2003
0000
3100
,  // measure 72
0020
0000
0000
0032
0000
0000
2003
0000
,  // measure 73
0000
3020
0000
0000
0230
0000
0302
0000
,  // measure 74
2003
0000
0000
3200
0000
0000
0320
0000
,  // measure 75
0000
0000
0230
0000
1300
0001
0100
0010
,  // measure 76
1000
0100
1000
0001
0100
0001
1000
0001
,  // measure 77
1000
0010
1000
0001
0010
0001
1000
0001
,  // measure 78
1000
0100
0010
0001
0100
0010
1000
0001
,  // measure 79
1000
0010
0100
0001
0010
0100
1000
0001
,  // measure 80
1000
0010
1000
0001
0010
0001
1000
0001
,  // measure 81
1000
0100
1000
0001
0100
0001
1000
0001
,  // measure 82
1000
0001
0100
0010
1000
0100
0010
0001
,  // measure 83
1000
0001
0010
0100
1000
0010
0100
0001
,  // measure 84
2000
0000
0000
3200
0000
0000
0320
0000
,  // measure 85
0000
0000
0000
0000
1000
0000
0000
0000
0100
0000
0000
0000
0031
0000
0010
0001
,  // measure 86
2000
0000
0000
3020
0000
0000
0230
0000
,  // measure 87
0000
0310
1000
0001
0010
0100
1000
0000
,  // measure 88
0002
0000
0000
0203
0000
0000
0320
0000
,  // measure 89
0000
0000
0000
0000
0001
0000
0000
0000
0100
0000
0000
0000
1030
0000
0010
1000
,  // measure 90
0002
0000
0000
0023
0000
0000
0230
0000
,  // measure 91
0000
1300
0001
0100
0101
0001
1000
0001
,  // measure 92
1001
0000
1000
0000
0100
0000
0010
0000
0000
0000
0001
0000
1000
0000
0010
0100
,  // measure 93
0001
0000
1000
0000
0100
0000
0010
0100
1000
0000
0001
0000
0100
0000
0010
1000
,  // measure 94
0001
0000
1000
0000
0100
0000
0010
0000
0000
0000
0001
0000
1000
0000
0010
0100
,  // measure 95
0001
0100
0001
0000
1000
0100
1000
0000
0001
0010
0001
0000
1000
0010
1000
0000
,  // measure 96
0001
0000
0010
0000
0100
0000
1000
0000
0000
0000
0001
0000
0100
0000
0001
0010
,  // measure 97
0100
0010
0001
0000
1000
0000
0010
0000
0100
0001
1000
0001
0100
0000
0010
0000
,  // measure 98
1000
0000
0100
0000
0010
0000
0001
0000
0000
0000
1000
0000
0010
0000
0100
0001
,  // measure 99
1000
0100
0010
0000
0001
1000
0010
0000
0100
0001
1000
0000
0100
0010
0001
1000
,  // measure 100
0010
0000
0100
0001
0000
1000
0010
1000
,  // measure 101
0100
0000
0010
0000
0100
0000
1000
0000
0000
0000
0001
0100
0010
0000
1000
0100
,  // measure 102
0010
0000
0100
0000
1000
0000
0010
0000
0100
0000
0001
0000
1000
0000
0001
0010
,  // measure 103
0100
0000
1000
0000
0001
0100
0010
0000
1000
0001
0100
0000
0001
0010
0100
1000
,  // measure 104
0001
0000
0000
0000
1000
0000
0010
0000
0000
0000
0100
0000
0001
0000
1000
0100
,  // measure 105
0010
0000
0001
1000
0010
0000
0100
0000
0010
0000
1000
0000
0100
0000
0010
0000
,  // measure 106
0001
1000
0010
0100
0001
1000
0100
0010
,  // measure 107
0001
0000
1000
0000
0010
0000
1000
0000
0001
0010
0001
0010
0100
1000
0100
1000
,  // measure 108
0001
0100
0001
1000
0100
1000
0010
0100
,  // measure 109
0001
0010
0001
1000
0010
1000
0001
0010
,  // measure 110
0001
1000
0010
0100
0001
0010
0100
1000
,  // measure 111
0001
1000
0010
0100
0001
0010
0100
1000
,  // measure 112
0001
0100
0001
1000
0100
1000
0001
1000
,  // measure 113
0001
0010
0001
1000
0010
1000
0001
1000
,  // measure 114
0001
1000
0010
0100
0001
0010
0100
1000
,  // measure 115
0001
1000
0100
0010
0001
1000
0010
0100
;

//---------------dance-single - ----------------
#NOTES:
     dance-single:
     :
     Challenge:
     18:
     0.876798,1.054220,0.034992,0.167961,0.381412,877.000000,872.000000,5.000000,24.000000,10.000000,0.000000,0.876798,1.054220,0.034992,0.167961,0.381412,877.000000,872.000000,5.000000,24.000000,10.000000,0.000000:
0000
0000
0000
0000
,
0000
0000
0000
0000
,
0000
0000
0000
0000
,
0000
0000
0000
0000
,
0000
0000
0000
0000
,
0000
0000
0000
0000
,
0000
0000
0000
0000
,
0000
0000
0000
0000
,
1000
0100
0010
0001
0000
0010
0001
1000
,
0001
0100
0010
1000
0000
0010
1000
0001
,
1000
0100
0010
0001
0000
0010
0001
1000
,
0001
0100
0010
1000
0000
0010
1000
0001
,
1000
0100
0010
0001
0000
1000
0001
0100
,
0010
1000
0001
1000
0000
0100
1000
0001
,
0100
0010
1000
0001
0000
1000
0100
0010
,
0001
0000
1000
0000
0001
0000
0100
0000
0000
0000
0010
0000
0100
0010
1000
0010
,
0100
0010
0100
0001
0100
0040
1030
1000
,
0001
1000
4000
3000
0100
0000
0010
0000
,
0021
0000
0130
0010
,
0001
0001
0000
1000
0010
0000
1000
0000
,
2001
0000
0000
0000
3001
0400
0310
0010
,
1000
0001
0004
0003
0100
0000
0010
0000
,
1020
0000
0000
0000
1030
0001
0010
0100
,
2000
0000
0000
3020
0000
0000
2030
0000
,
3001
0100
0001
1000
0100
1000
0010
0100
,
0001
0000
1000
0000
0100
0000
0010
0001
0000
0010
0001
1000
0010
0100
0001
1000
,
0100
0000
0010
0000
0100
0000
0001
0000
0100
0000
0010
0000
0001
0000
0010
0100
,
1000
0000
0001
0000
1000
0100
0010
0100
1000
0001
0100
0010
1000
0010
0100
0001
,
1000
0000
0100
0000
0010
0000
0100
0000
1000
0000
0001
0000
0100
0000
0010
1000
,
0001
1000
0100
0010
0001
1000
0010
0100
,
0101
0000
0000
0001
0000
0000
1000
0000
0000
0001
0100
0001
0100
0000
0000
0010
0000
0000
1000
0000
0000
0001
0000
0000
,
0040
0000
0130
0000
0004
0000
0103
0000
0010
0001
1000
0010
0100
0001
0010
0100
,
1000
0010
0100
1000
0100
0010
1000
0001
,
0010
0100
0010
1000
0010
0100
1000
0001
,
0100
0010
0100
1000
0100
0010
0100
0001
,
1000
0000
0000
0100
0000
0000
0010
0000
0000
0001
1000
0001
1000
0000
0000
0010
0000
0000
0100
0000
0000
0001
0000
0000
,
1000
0100
1000
0001
0100
0001
0010
0100
,
1000
0010
0100
1000
0100
0010
1000
0001
,
1000
0010
1000
0001
0010
0001
0100
0010
,
1000
0000
0000
0001
0000
0000
0010
0000
0000
0100
1000
0100
1000
0000
0000
0001
0000
0000
0100
0000
0000
0010
0000
0000
,
1000
0010
0100
0001
0010
0100
1000
0001
,
0100
0010
0100
1000
0100
0010
1000
0001
,
1000
0100
0010
0001
0100
0010
1000
0001
,
0010
0000
0000
0001
0000
0000
0100
0000
,
0010
0000
1000
0000
0001
0000
0010
0000
0000
0000
0100
0000
1000
0000
0001
0100
,
0010
1000
0010
0100
0001
0100
0010
1000
,
0001
0000
0010
0000
0100
0000
1000
0000
0000
0000
0010
0000
0100
0000
0001
1000
,
0100
0010
0001
1000
0010
0100
0010
1000
0001
0010
0100
1000
0001
0100
0010
0100
,
0001
0000
1000
0010
0000
1000
0001
0010
,
0000
0000
10M0
0000
0001
0000
0010
0100
1000
0001
0100
0010
1000
0010
0100
0001
,
1000
0000
0100
0000
0010
0000
0001
0000
0000
0000
0100
0000
0010
0000
0100
0001
,
1000
0001
0010
0100
1000
0001
0100
0010
1000
0001
1000
0100
0010
0001
1000
0010
,
0100
0001
1000
0010
0000
00M1
1000
0100
,
0000
0M01
1000
0100
1000
0010
0100
0001
,
1000
0001
1000
0100
0000
0M01
1000
0100
,
0000
0000
0M01
0000
1000
0000
0010
1000
0000
0010
1000
0000
0001
0000
0010
0000
,
0100
1000
0001
0100
0000
1M00
0001
0010
,
0000
10M0
0100
0010
0100
1000
0001
0100
,
0010
1000
0001
0100
0000
1M00
0001
0100
,
0000
1M00
0001
0010
0100
0010
0001
0100
,
0001
1000
0001
0010
0100
0010
0001
0010
,
0100
1000
0100
1000
0001
0100
0010
1000
,
0001
1000
0100
0001
0100
0010
0001
1000
,
0001
0000
0010
0000
0100
0000
0010
0001
0000
0010
0001
0000
1000
0000
0010
0000
,
0010
0100
0001
1000
0100
0010
0100
1000
,
0001
0000
0100
0000
0010
0000
1000
0001
0000
1000
0001
0000
1000
0000
0100
0000
,
0010
0001
1000
0010
0000
0100
0001
1000
,
0000
0001
1000
0010
0100
0001
0010
0100
,
1001
0000
0001
0100
0010
0000
00M1
0100
,
0010
1000
0010
1000
0000
0001
0010
0100
,
2000
0000
3100
0002
0000
0203
0000
0320
,
0000
0031
1000
0002
0000
0203
0000
0310
,
1000
0001
0001
1000
0001
0001
0010
0100
,
0010
0100
0100
0010
0100
0100
1000
0001
,
1000
0001
0001
1000
0001
0001
0100
0010
,
0100
0010
0010
0100
0010
1000
0001
0010
,
0100
1000
1000
0100
1000
1000
0001
0100
,
0010
1000
1000
0010
1000
1000
0001
1000
,
0100
0010
0010
0100
0010
0010
0100
1000
,
0001
0010
0010
0001
0010
0001
1000
0010
,
0100
0001
0001
0100
0001
0001
1000
0100
,
0010
0100
0100
0010
0100
0100
1000
0001
,
0100
0010
0010
0100
0010
0010
1000
0001
,
0010
0100
0100
0010
0100
1000
0001
0100
,
0020
0000
0000
2030
0000
0000
3002
0000
,
0000
0000
0000
0000
0013
0000
0000
0000
0100
0000
0000
0000
1000
0000
0001
1000
,
0200
0000
0000
2300
0000
0000
3020
0000
,
0000
0130
0001
1000
0100
0010
0001
0100
,
0020
0000
0000
2030
0000
0000
3200
0000
,
0000
0000
0000
0000
0310
0000
0000
0000
0100
0000
0000
0000
1000
0000
0001
1000
,
0200
0000
0000
2300
0000
0000
3002
0000
,
0000
1003
0010
1000
0001
0010
0100
0010
,
0001
0000
1000
0000
0010
0000
1000
0000
0000
0000
0001
0000
0010
0000
0001
0100
,
0010
1000
0001
1000
0100
0010
0001
1000
0010
0100
0010
1000
0001
0010
0100
1000
,
0001
0000
0100
0000
0010
0000
1000
0000
0000
0000
0001
0000
1000
0000
0100
0010
,
0001
1000
0010
0100
0001
1000
0100
0010
0001
1000
0001
0100
0010
1000
0001
0010
,
0100
0000
1000
0000
0001
0000
0100
0000
0000
0000
0010
0000
1000
0000
0001
0010
,
0100
0010
0001
1000
0010
0100
0001
1000
0001
0010
0100
1000
0001
0100
0010
1000
,
0001
0000
1000
0000
0100
0000
0010
0000
0000
0000
0001
0000
0100
0000
0010
1000
,
0001
0010
0100
1000
0001
1000
0010
0100
0001
1000
0100
0010
0100
1000
0001
0100
,
0001
0100
0010
1000
0100
0010
0001
1000
,
0001
0000
0010
0000
0100
0000
1000
0000
0001
0000
0100
0010
1000
0001
0010
0100
,
1000
0000
0001
0000
0010
0000
1000
0000
0010
0000
0100
0000
1000
0000
0001
0100
,
0010
0000
1000
0000
0001
0100
0010
0100
0001
0010
0100
0010
0001
1000
0010
0100
,
0001
0000
0100
0000
0010
0000
1000
0000
0100
0000
0010
0000
0001
0000
1000
0001
,
0010
0000
0001
1000
0010
0000
0100
0000
0001
0000
1000
0000
0100
0000
1000
0000
,
0001
0100
0010
0001
0010
1000
0001
0010
,
0100
0000
1000
0000
0001
0000
0100
0000
1000
0100
0010
1000
0001
0010
0100
1000
,
0001
0100
0100
0001
0100
0100
0010
1000
,
0001
0010
0010
0001
0010
0010
0100
1000
,
0010
0100
0100
0010
0100
0100
0001
1000
,
0100
0010
0010
0100
0010
0001
1000
0010
,
0100
0001
0001
0100
0001
0001
1000
0100
,
0010
0001
0001
0010
0001
0001
1000
0010
,
0100
0001
0001
0100
0001
0001
1000
0100
,
0010
0001
0001
0010
0001
1000
0010
0100
;
