#VERSION:0.83;
#TITLE:Capitalism Cannon;
#SUBTITLE:;
#ARTIST:O2i3;
#TITLETRANSLIT:;
#SUBTITLETRANSLIT:;
#ARTISTTRANSLIT:;
#GENRE:;
#ORIGIN:MÚSECA;
#TAGS:;
#CREDIT:;
#BANNER:Capitalism Cannon.png;
#BACKGROUND:Capitalism Cannon-bg.png;
#PREVIEWVID:;
#JACKET:Capitalism Cannon-jacket.png;
#CDIMAGE:;
#DISCIMAGE:;
#LYRICSPATH:;
#CDTITLE:../_YSD cdtitles/ysd hypo-scvip cdtitle.png;
#MUSIC:Capitalism Cannon.ogg;
#OFFSET:-0.053000;
#SAMPLESTART:31.637651;
#SAMPLELENGTH:20.210524;
#SELECTABLE:YES;
#DISPLAYBPM:95.000000:190.000000;
#BPMS:0.000000=95.000000
,15.000000=190.000000
,23.000000=95.000000
,31.000000=190.000000
,43.000000=95.000000
,51.000000=190.000000
,63.000000=95.000000
,65.000000=190.000000
,125.000000=380.000000
,127.000000=190.000000
,128.000000=95.000000
,129.000000=190.000000
,184.000000=95.000000
,186.000000=380.000000
,191.000000=190.000000
,191.500000=95.000000
,192.000000=190.000000
,218.000000=95.000000
,220.000000=380.000000
,222.500000=190.000000
,222.750000=95.000000
,223.000000=190.000000
,248.000000=95.000000
,250.000000=190.000000
,310.000000=95.000000
;
#STOPS:10.000000=0.632000
,144.000000=0.157894
,159.000000=0.315792
,186.000000=0.078949
,186.500000=0.078949
,187.000000=0.078949
,187.500000=0.078949
,188.000000=0.078949
,188.500000=0.078949
,189.000000=0.078949
,189.500000=0.078949
,220.000000=0.118423
,220.750000=0.118416
,221.500000=0.078941
;
#DELAYS:;
#WARPS:144.500000=0.500000
;
#TIMESIGNATURES:0.000000=4=4
,8.000000=3=4
,11.000000=4=4
,63.000000=2=4
,65.000000=4=4
,157.000000=3=4
,160.000000=4=4
,184.000000=2=4
,186.000000=4=4
,218.000000=2=4
,220.000000=4=4
,248.000000=2=4
,250.000000=4=4
,310.000000=4=6
,316.000000=4=4
;
#TICKCOUNTS:0.000000=4
;
#COMBOS:0.000000=1
;
#SPEEDS:0.000000=1.000000=0.000000=0
;
#SCROLLS:0.000000=1.000000
,144.500000=0.000000
,145.000000=1.000000
;
#FAKES:;
#LABELS:0.000000=Song Start
,10.000000=This would earn a SOFLAN point but NOOOOOOOOOOOOOO... >
;
#BGCHANGES:;
#KEYSOUNDS:;
#ATTACKS:
;

//---------------dance-single - ----------------
#NOTEDATA:;
#CHARTNAME:;
#CHARTHASH:1575420744;
#STEPSTYPE:dance-single;
#BANNER:;
#DESCRIPTION:;
#CHARTSTYLE:;
#DIFFICULTY:Easy;
#METER:10;
#METERF:10.000000;
#LASTSECONDHINT:115.000824;
#RADARVALUES:0.405903,0.537639,0.467882,0.493403,0.017014,334.000000,279.000000,55.000000,58.000000,0.000000,0.000000,0.000000,0.000000,0.000000,0.405903,0.537639,0.467882,0.493403,0.017014,334.000000,279.000000,55.000000,58.000000,0.000000,0.000000,0.000000,0.000000,0.000000;
#CREDIT:YOSEFU;
#NOTES:
// measure 0
0000
0000
0000
0000
,  // measure 1
0000
0000
0000
0000
,  // measure 2
0000
0000
0000
0000
0000
0000
0000
0000
0000
0000
0000
0000
1000
0000
0000
0001
,  // measure 3
0000
0000
0000
0010
0000
0000
0000
0100
0000
0000
1000
0000
1001
0000
0000
0000
,  // measure 4
0000
0101
0000
0000
0000
2002
0000
0000
,  // measure 5
0000
0000
3003
0000
0000
0000
1000
0010
,  // measure 6
0100
0000
0001
0010
0100
0000
1000
0001
,  // measure 7
0010
0100
0010
0001
1000
0000
0010
0000
,  // measure 8
0100
0101
0000
0001
,  // measure 9
1000
1100
0000
0100
,  // measure 10
0010
0001
1000
2020
,  // measure 11
0000
0000
0000
0000
,  // measure 12
0000
0000
3030
1000
,  // measure 13
0100
0001
0100
0010
,  // measure 14
0001
1000
0001
0100
,  // measure 15
1000
0100
0001
2002
,  // measure 16
3003
0202
0303
0001
,  // measure 17
0001
1000
0001
0000
1000
0000
2200
0000
,  // measure 18
3300
0100
0100
0010
,  // measure 19
1000
0010
0001
1000
,  // measure 20
1000
2002
3003
0101
,  // measure 21
2002
0000
3003
2000
,  // measure 22
0000
3100
0010
1000
,  // measure 23
0010
0011
0001
2002
,  // measure 24
3003
2020
3030
0010
,  // measure 25
0010
0100
0001
0022
,  // measure 26
0033
0000
0001
0100
0001
0000
1000
0100
,  // measure 27
1000
0102
0000
1000
,  // measure 28
0003
2200
3300
1001
,  // measure 29
0001
0000
0000
0000
0000
0100
0000
0000
0000
0110
0000
0000
,  // measure 30
0000
1010
1000
0100
,  // measure 31
0010
0022
0000
0000
,  // measure 32
0033
0001
1000
0001
,  // measure 33
0100
0001
1000
0200
,  // measure 34
0000
0000
0310
0000
0001
1000
0001
0000
,  // measure 35
0100
1000
0100
0002
,  // measure 36
0003
1000
0010
0001
,  // measure 37
0010
0100
0001
2000
,  // measure 38
0000
3100
0001
0100
,  // measure 39
1000
0001
0100
0110
,  // measure 40
0000
0001
0000
0001
0000
1000
0000
1000
,  // measure 41
0000
0001
0000
0001
0000
0100
0100
0000
,  // measure 42
0000
0010
0000
0010
0000
0100
0000
0100
,  // measure 43
0000
0010
0000
0010
0020
0000
0030
0000
,  // measure 44
1000
0100
0001
0100
,  // measure 45
1000
0010
0001
0010
,  // measure 46
0200
0000
0301
0010
,  // measure 47
0100
1000
0002
0000
,  // measure 48
1003
0100
1000
0000
0001
0100
0001
0000
,  // measure 49
1000
0100
2000
0000
3001
0000
1000
0010
,  // measure 50
1000
0001
0010
1000
,  // measure 51
0010
0100
0020
0000
0031
0001
1000
0010
,  // measure 52
1000
0000
0002
0000
1003
0100
1000
0000
,  // measure 53
0001
0100
0001
0000
0101
0000
1001
0000
,  // measure 54
1100
0110
0022
0033
,  // measure 55
0002
0000
0000
0000
0003
0000
1000
0001
,  // measure 56
0100
0000
0001
1000
0100
0000
0020
0000
,  // measure 57
0031
0000
1000
0001
0010
0000
0001
1000
,  // measure 58
0010
0000
0100
0000
0001
1000
0200
0000
,  // measure 59
0310
0010
0100
1000
0001
0000
0200
0000
,  // measure 60
0301
1000
0100
0000
0010
0001
1000
0000
,  // measure 61
1010
0011
0101
1100
,  // measure 62
2002
3003
1010
1000
,  // measure 63
2002
0000
3003
0000
0001
0010
0100
0000
,  // measure 64
1100
0001
0101
1000
,  // measure 65
1100
0000
0100
1000
0001
0000
0100
0000
,  // measure 66
0010
0010
2020
3030
,  // measure 67
1001
0001
0022
0033
,  // measure 68
0110
0000
1001
0001
,  // measure 69
0101
1001
1000
0100
,  // measure 70
0020
0000
0031
1000
,  // measure 71
1010
0000
0001
0000
0010
0100
1000
0000
,  // measure 72
2002
3003
0101
1000
,  // measure 73
1100
0001
0100
0010
,  // measure 74
1000
1000
2200
3300
,  // measure 75
1001
0100
0022
0033
,  // measure 76
1100
0000
1001
0001
,  // measure 77
0100
0000
0220
0000
,  // measure 78
0000
0000
0000
0000
,  // measure 79
0330
0000
0000
0000
;

//---------------dance-single - ----------------
#NOTEDATA:;
#CHARTNAME:;
#CHARTHASH:4157802408;
#STEPSTYPE:dance-single;
#BANNER:;
#DESCRIPTION:;
#CHARTSTYLE:;
#DIFFICULTY:Medium;
#METER:13;
#METERF:13.000000;
#LASTSECONDHINT:115.000824;
#RADARVALUES:0.516493,0.571241,0.229688,0.484896,0.114844,425.000000,398.000000,27.000000,57.000000,0.000000,0.000000,0.000000,0.000000,0.000000,0.516493,0.571241,0.229688,0.484896,0.114844,425.000000,398.000000,27.000000,57.000000,0.000000,0.000000,0.000000,0.000000,0.000000;
#CREDIT:YOSEFU;
#NOTES:
// measure 0
0000
0000
0000
0000
,  // measure 1
0000
0000
0000
0000
,  // measure 2
0000
0000
0000
0000
0000
0000
0000
0000
0000
0000
0000
0000
1000
0000
0000
0001
,  // measure 3
0000
1000
0000
0100
0000
0000
0010
0001
0000
0000
1000
0000
1010
0000
0000
0000
,  // measure 4
0000
0110
0000
0000
0000
2002
0000
0000
,  // measure 5
0000
0000
3003
0000
0000
0000
1000
0100
,  // measure 6
0010
0000
0000
0000
0001
1000
0001
0000
1000
0000
0000
0000
0010
0000
0100
0000
,  // measure 7
0001
0000
0000
0000
1000
0100
1000
0000
0001
0000
0000
0000
0100
0000
0000
0000
,  // measure 8
0010
1000
0010
0000
1000
0001
1000
0000
,  // measure 9
0100
0010
0001
0000
0000
0000
1000
0000
,  // measure 10
0001
0010
0100
0000
0000
0000
2100
0000
,  // measure 11
0000
0001
0100
0001
,  // measure 12
0000
0100
3010
1000
,  // measure 13
0001
0100
0001
1000
,  // measure 14
0100
0000
0010
0000
0001
0000
1000
0010
,  // measure 15
0100
1000
0100
0010
1000
0001
0020
0000
,  // measure 16
0000
0230
0000
1300
,  // measure 17
1000
0001
0100
0000
0010
1000
2002
0000
,  // measure 18
3003
0000
0002
0000
0023
0000
0031
0001
,  // measure 19
1000
1010
1001
0001
,  // measure 20
0001
0010
0220
0000
0330
0000
0100
0000
,  // measure 21
1000
0100
0001
0100
1000
0001
0200
0000
,  // measure 22
0000
0000
0320
0000
2030
0000
3001
0001
,  // measure 23
0010
0110
0100
2200
,  // measure 24
3300
2002
3003
0001
,  // measure 25
0001
0000
0100
0000
0010
1000
2002
0000
,  // measure 26
3003
0000
1000
0010
0001
0010
1000
0010
,  // measure 27
0001
0010
1000
0100
0010
0001
0100
0010
,  // measure 28
1000
2200
3300
1001
,  // measure 29
0001
0000
0000
0000
0100
0000
0000
0000
0000
0000
0001
0000
1000
0000
0000
0000
0000
0000
0100
0000
0000
1000
0000
0000
,  // measure 30
0000
0000
0200
0000
2300
0000
3001
0100
,  // measure 31
0010
0220
0000
0000
,  // measure 32
0330
0000
1000
0001
1000
0000
0100
0010
,  // measure 33
0100
0000
1000
0001
1000
0001
0200
0000
,  // measure 34
0000
0000
0310
1000
0010
0000
0100
0001
,  // measure 35
0010
0100
1000
0001
0100
0001
2000
0000
,  // measure 36
3000
0000
0001
0010
0001
0000
1000
0010
,  // measure 37
1000
0000
0001
0010
0100
1000
0020
0000
,  // measure 38
0000
0000
0130
0001
0100
0000
0001
1000
,  // measure 39
0001
0010
0100
1000
0001
0100
0010
0000
,  // measure 40
1000
0100
0000
0100
0000
0100
0000
0100
,  // measure 41
1000
0001
0000
0001
0000
0100
0100
0000
,  // measure 42
0010
1000
0000
1000
0000
1000
0000
1000
,  // measure 43
0001
0010
0000
0010
0100
0001
0100
0000
,  // measure 44
1000
0100
0010
0001
1000
0010
0100
0001
,  // measure 45
1000
0100
0001
0100
1000
0001
0100
0010
,  // measure 46
2000
0000
0000
0000
3001
0100
0001
0100
,  // measure 47
0001
0100
0010
1000
0002
0000
0000
0000
,  // measure 48
1003
0100
0001
0100
1000
0100
0001
0100
,  // measure 49
1000
0100
0002
0000
0103
0000
1000
0010
,  // measure 50
0001
0000
0010
0000
1000
0000
0001
0000
0000
0010
0000
0000
0100
0000
0100
0000
,  // measure 51
0001
0100
1000
0000
1001
0001
1000
0010
,  // measure 52
0001
0010
2000
0000
3001
0010
1000
0010
,  // measure 53
0001
0000
0100
0000
2000
0000
0000
0000
3100
0000
0000
0100
0010
0000
0000
0010
,  // measure 54
1000
0000
0000
1000
0001
0000
0000
0001
0020
0000
0000
0000
0000
0000
0000
0000
,  // measure 55
0031
0000
0000
1000
0000
0000
1001
0000
0000
0000
0000
0000
0001
0000
0100
0000
,  // measure 56
1000
0001
0010
1000
0001
0010
0200
0000
,  // measure 57
1300
0000
0001
0010
1000
0001
0100
1000
,  // measure 58
0000
0100
0000
0000
0010
0000
0010
0000
1000
0000
0010
0000
0001
0000
0000
0000
,  // measure 59
1001
1000
0010
0001
1000
0100
0002
0000
,  // measure 60
1003
0100
0001
1000
0010
0001
2000
0000
,  // measure 61
3010
0000
0000
0100
0010
0000
0000
1000
0010
0000
0000
1000
0001
0000
0000
0010
,  // measure 62
0002
0000
1003
0010
,  // measure 63
0202
0000
0303
0000
0001
0100
1000
0100
,  // measure 64
0001
0010
1000
0010
0200
0000
2300
0000
,  // measure 65
3020
0000
0031
1000
0100
0010
2000
0000
,  // measure 66
3100
0000
0100
0010
0022
0000
0033
0000
,  // measure 67
1001
0001
0202
0303
,  // measure 68
0100
0000
0000
0000
0000
0000
0000
0000
0100
0000
0000
0000
0000
0000
0000
0000
0100
0000
0000
0000
0000
0000
0000
0000
0010
0000
0000
0000
0000
0000
0000
0000
0000
1000
0000
0000
0010
0000
0000
0000
0000
0000
0000
0000
0000
1000
0000
0000
,  // measure 69
0001
0010
1000
0010
0100
0001
0100
1000
,  // measure 70
0002
0000
0103
0010
,  // measure 71
1000
0010
0000
0000
1000
0001
0000
0000
0010
0000
1000
0000
0010
0000
0010
0000
,  // measure 72
0002
0000
1003
0010
,  // measure 73
0001
0010
0100
1000
0000
0100
0001
1000
,  // measure 74
0100
0000
0100
0010
0022
0000
0033
0000
,  // measure 75
0110
1000
2020
3030
,  // measure 76
0010
0000
0010
0000
0010
0000
0110
0000
0000
0100
0000
0000
,  // measure 77
0001
0010
0100
0000
2200
0000
0000
0000
,  // measure 78
0000
0000
0000
0000
,  // measure 79
3300
0000
0000
0000
;

//---------------dance-single - ----------------
#NOTEDATA:;
#CHARTNAME:A Tank Named ''Sheila'';
#CHARTHASH:1608193004;
#STEPSTYPE:dance-single;
#BANNER:;
#DESCRIPTION:;
#CHARTSTYLE:;
#DIFFICULTY:Hard;
#METER:15;
#METERF:15.000000;
#LASTSECONDHINT:115.000824;
#RADARVALUES:0.682986,0.772856,0.272222,0.586979,0.493403,562.000000,530.000000,32.000000,69.000000,0.000000,0.000000,0.000000,0.000000,0.000000,0.682986,0.772856,0.272222,0.586979,0.493403,562.000000,530.000000,32.000000,69.000000,0.000000,0.000000,0.000000,0.000000,0.000000;
#CREDIT:YOSEFU;
#NOTES:
// measure 0
0000
0000
0000
0000
,  // measure 1
0000
0000
0000
0000
,  // measure 2
0000
0000
0000
0000
0000
0000
0000
0000
0000
0000
0000
0000
1000
0000
0100
0010
,  // measure 3
0000
0001
1000
0010
0000
0100
0001
2000
0000
0000
3100
0000
0110
0000
0000
0000
,  // measure 4
0000
0000
0011
0000
0000
0000
0000
0000
1000
0020
0200
0000
0000
0000
0000
0000
,  // measure 5
0000
0000
0330
0000
0000
0000
0001
1000
,  // measure 6
0100
0000
0010
1000
0010
0001
1000
0010
0100
0000
0000
0000
0001
1000
0100
0000
,  // measure 7
0010
0000
0100
1000
0010
0000
0001
0000
0010
0000
0000
0000
1010
0000
1000
0000
,  // measure 8
0001
0000
0011
0000
0010
0100
1100
1000
,  // measure 9
0010
0000
0100
0000
0001
1000
0001
0000
0000
0000
0000
0000
0011
0000
0000
0000
,  // measure 10
0010
0000
0000
0100
0000
0000
1000
0000
0000
0000
0001
0000
0000
0000
0100
0000
0000
0000
0210
0000
0000
0000
0000
0000
,  // measure 11
0000
0000
0000
0000
0302
0000
0000
0103
1000
0100
0001
0010
0200
0000
0000
0000
,  // measure 12
0000
0000
1300
0001
0200
0000
0000
0310
1010
0000
0000
0000
1000
0000
0000
0100
,  // measure 13
0010
0000
0000
0100
1000
0000
0000
0000
0010
0000
0100
0000
1000
0000
0000
0000
,  // measure 14
0100
0000
0001
1000
0001
0000
0000
0000
1000
0000
0000
0000
0100
0000
0010
0000
,  // measure 15
1000
0000
0010
0000
0001
1000
0001
1000
0010
0100
0010
0100
0002
0000
0000
0000
,  // measure 16
0000
0003
0022
0000
0000
0033
1002
0000
,  // measure 17
0103
0000
0001
0100
0002
0000
0000
0000
1003
0000
0100
0010
0002
0000
0000
0000
,  // measure 18
0000
0000
2003
0000
3020
0000
0130
0001
,  // measure 19
1000
1000
0100
0001
0100
1000
0001
0000
,  // measure 20
0001
0000
1000
0010
2000
0000
0000
0000
0000
0000
0000
0000
3001
0000
0010
0000
,  // measure 21
1000
0000
0001
0000
0100
0000
1000
0000
0001
0100
0010
1000
0002
0000
0000
0000
,  // measure 22
0000
0000
0023
0000
0230
0000
1300
0001
,  // measure 23
0100
0010
1010
0000
2000
0000
3200
0000
,  // measure 24
0301
0000
0201
0000
0000
0000
2300
3000
,  // measure 25
2000
0000
3000
0000
0001
0000
0000
0000
0001
0000
0100
0010
2000
0000
0000
0000
,  // measure 26
0000
0000
0000
0000
3001
0000
1000
0100
1000
0000
0001
0100
0001
0000
1000
0010
,  // measure 27
1000
0000
0001
0010
0001
0000
0010
0000
1000
0000
0001
0000
0100
0010
0100
0010
,  // measure 28
0002
0003
2002
0000
0000
3003
1100
0000
,  // measure 29
1000
0000
0000
0000
0100
0000
0010
0000
0000
0000
0001
0000
1000
0000
0000
0000
0010
0000
0100
0000
0000
0002
0000
0000
,  // measure 30
0000
0000
0003
0000
2100
0000
0000
0000
3002
0000
0000
0000
0103
0000
0010
1000
,  // measure 31
0010
0202
0000
0000
,  // measure 32
0000
0303
1001
1000
1000
0100
0010
0100
,  // measure 33
1000
0001
0100
1000
0100
0010
2000
0000
,  // measure 34
0000
0000
3000
0000
1001
0000
0001
0000
0001
0010
0100
1000
0001
0000
1000
0000
,  // measure 35
0001
0100
0010
1000
0001
0000
0010
0000
1000
0000
0010
0100
2000
0000
0000
0000
,  // measure 36
3000
0000
1001
1000
1000
0010
0001
0010
,  // measure 37
0100
0001
0010
0100
0001
0100
2000
0000
,  // measure 38
0000
3000
1001
0001
0001
0100
0010
0001
,  // measure 39
0010
0000
1000
0000
1100
0000
0100
0000
0010
0000
0010
0000
0022
0033
0000
0000
,  // measure 40
0001
0001
0001
0100
0000
0100
0000
0100
,  // measure 41
0010
0010
0010
1000
0000
0001
0001
0000
,  // measure 42
0010
0010
0010
0100
0000
0100
0000
0100
,  // measure 43
1000
0000
1000
0000
1000
0000
0001
0000
1000
0010
1000
0010
1000
0000
0000
0000
,  // measure 44
0001
0100
1000
0100
0010
1000
0100
0010
,  // measure 45
0001
1000
0001
0000
1000
0100
1000
0000
0001
0100
0001
0000
1000
0100
0010
0001
,  // measure 46
2000
0000
0000
0000
3001
0100
0010
1000
,  // measure 47
0100
0010
0001
1000
0002
0000
0000
0000
,  // measure 48
1003
0100
1000
0000
0001
0100
0001
0000
1000
0010
1000
0000
0001
0010
0001
0000
,  // measure 49
1000
0100
1000
0000
0020
0000
0000
0000
0130
0000
0000
0000
0001
0100
0001
0000
,  // measure 50
1000
0100
1000
0000
0001
0000
0100
0001
0100
0001
0000
1000
0100
0000
0100
0000
,  // measure 51
0010
0001
0010
0001
2000
0000
0000
0000
3001
0000
0001
0000
0100
0001
0100
0000
,  // measure 52
0001
1000
0001
0000
2000
0000
0000
0000
3001
0010
0001
0000
1000
0100
1000
0000
,  // measure 53
0001
0100
0001
0000
0020
0000
0000
0000
0130
0000
1000
0001
0100
0000
0001
1000
,  // measure 54
0100
0000
0010
0001
1000
0000
0010
1000
0002
0000
0000
0000
0000
0000
0000
0000
,  // measure 55
0013
0000
0000
0110
0000
0000
1100
0000
2000
3000
0000
0000
0001
1000
0010
0000
,  // measure 56
1000
0001
0010
0000
0001
1000
0100
0000
1000
0001
0100
0000
0020
0000
0000
0000
,  // measure 57
1030
0000
0000
0000
0001
1000
0100
0000
1000
0001
0100
0000
0010
0000
1000
0010
,  // measure 58
1000
0010
0000
0100
1000
0000
1000
0000
0100
0010
0100
0010
1000
0000
0000
0000
,  // measure 59
0001
0000
0001
0000
0010
0100
1000
0000
0001
0100
0010
0000
2000
0000
0000
0000
,  // measure 60
3100
0010
0001
0000
1000
0010
0100
0000
0010
1000
0001
0000
0020
0000
0000
0000
,  // measure 61
0130
0000
0010
0001
0100
0000
0010
1000
0100
0000
0010
0001
0100
0000
0010
1000
,  // measure 62
0200
0000
0000
0300
0110
0000
0010
0000
,  // measure 63
0012
0000
0000
0000
0000
0000
0000
0000
1003
0010
0100
0000
0001
0000
1000
0000
,  // measure 64
0100
0010
0001
0000
1000
0000
0001
0000
0200
0000
0000
0000
2300
0000
0000
0000
,  // measure 65
3100
0000
0001
0000
1000
0000
0100
0010
0001
0000
0100
0000
1000
0000
0100
0000
,  // measure 66
0001
0000
0000
0000
0001
0000
0010
0100
2000
0000
0000
0000
0000
0000
3000
0000
,  // measure 67
1200
0010
2300
0000
,  // measure 68
3001
0000
0000
0000
0000
0000
0000
0000
0001
0000
0000
0000
0000
0000
0000
0000
0001
0000
0000
0000
0000
0000
0000
0000
0100
0000
0000
0010
0000
0000
0000
0000
0000
0010
0000
0000
1000
0000
0000
0000
0000
0000
0100
0000
0000
0010
0000
0000
,  // measure 69
0001
0000
0100
0000
1000
0000
0100
0000
0001
0000
0010
0000
0100
1000
0001
0100
,  // measure 70
0020
0000
0000
0030
2010
0000
3002
0000
,  // measure 71
0013
0100
1000
0000
0010
0100
0001
0000
1000
0000
0100
0000
0001
0000
0001
0000
,  // measure 72
0200
0000
0000
0300
2100
0000
3002
0000
,  // measure 73
0103
0010
1000
0000
0001
0000
0010
0000
1000
0000
0010
0000
0001
0000
1000
0000
,  // measure 74
0010
0000
0000
0000
0010
0000
0100
0001
2000
0000
0000
0000
0000
0000
3000
0000
,  // measure 75
1200
0010
2300
0000
,  // measure 76
3010
0000
0010
0000
0010
0000
1020
0000
0000
2030
0000
0000
,  // measure 77
3001
0000
0100
0001
0100
0000
0000
0000
0202
0000
0000
0000
0000
0000
0000
0000
,  // measure 78
0000
0000
0000
0000
,  // measure 79
0303
0000
0000
0000
;

//---------------dance-single - ----------------
#NOTEDATA:;
#CHARTNAME:''Bitches Love Canons'';
#CHARTHASH:783425497;
#STEPSTYPE:dance-single;
#BANNER:;
#DESCRIPTION:;
#CHARTSTYLE:;
#DIFFICULTY:Challenge;
#METER:17;
#METERF:17.000000;
#LASTSECONDHINT:115.000824;
#RADARVALUES:0.808160,1.041675,0.391320,0.663542,0.825174,665.000000,619.000000,46.000000,78.000000,0.000000,0.000000,0.000000,0.000000,0.000000,0.808160,1.041675,0.391320,0.663542,0.825174,665.000000,619.000000,46.000000,78.000000,0.000000,0.000000,0.000000,0.000000,0.000000;
#CREDIT:Yosefu Fires ''Main Canon'';
#NOTES:
// measure 0
0000
0000
0000
0000
,  // measure 1
0000
0000
0000
0000
,  // measure 2
0000
0000
0000
0000
0000
0000
0000
0000
0000
0000
0000
0000
1000
0001
0100
0010
,  // measure 3
0000
0100
1000
0100
0000
0001
0010
0200
0000
0000
0300
0000
1100
0000
0000
0000
,  // measure 4
0000
0000
1001
0000
0000
0000
0000
0000
0001
0200
0020
0000
0000
0000
0000
0000
,  // measure 5
0000
0000
0000
0000
0330
0000
2000
3002
,  // measure 6
0013
0000
0000
0000
1000
0000
0010
0000
0001
0000
1000
0010
0100
0000
0001
0000
2000
0000
0000
0000
0000
0000
0000
0000
3001
0000
0100
0000
0010
0000
0000
0000
,  // measure 7
0001
0000
0000
0000
0010
0000
0100
0001
1000
0000
0000
0000
0001
0000
0000
0000
0020
0000
0000
0000
0030
0000
0000
0000
0100
0000
0000
0000
1000
0000
0000
0000
,  // measure 8
0001
0000
0010
0001
1000
0000
0000
0000
0100
0000
1000
0001
0100
0000
0010
0000
,  // measure 9
0100
0000
1000
0000
0100
0001
0100
0000
0010
0000
1000
0000
0001
0000
0000
0000
,  // measure 10
0010
0000
0000
1000
0000
0000
0010
0000
0000
0000
0001
0000
0000
0000
1000
0000
0000
0000
2020
0000
0000
0000
0000
0000
,  // measure 11
0030
0000
0000
0000
3001
0000
0000
0010
0100
0001
0100
1000
0020
0000
0000
0000
,  // measure 12
0000
0000
0000
0000
0130
0000
0001
0000
2000
0000
0000
0000
0000
0000
3010
0100
0002
0000
0000
0000
0000
0000
0000
0000
0013
0000
0000
0000
0100
0000
1000
0000
,  // measure 13
0001
0000
0100
0000
0010
0000
0100
0000
1000
0000
0100
0000
0001
0000
1000
0100
,  // measure 14
0010
0000
0001
0100
0010
0000
0000
0000
1010
0000
0000
0000
1000
0100
0010
0001
,  // measure 15
0100
0001
1000
0100
0010
0000
1000
0000
0010
0000
0001
0000
2002
0000
0000
0000
,  // measure 16
0000
3003
2200
0000
0000
3300
2010
0000
,  // measure 17
3010
0100
0010
0100
0002
0000
0000
0000
0013
0000
0100
1000
0020
0000
0000
0000
,  // measure 18
0000
0000
2030
3001
0020
0030
0110
0100
,  // measure 19
1000
0010
0001
0010
1000
0010
0100
0000
,  // measure 20
0100
0000
0001
1000
0200
0000
0000
0000
0000
0000
0000
0000
0301
0100
0010
0001
,  // measure 21
1000
0010
0100
0001
1000
0100
0010
0001
1000
0010
0100
0001
0200
0000
0000
0000
,  // measure 22
0000
0000
0301
0000
0200
0300
0101
0001
,  // measure 23
0010
0100
1100
0000
1000
0100
0102
0000
,  // measure 24
0103
0000
1200
0000
0000
0300
2010
3000
,  // measure 25
2000
0000
3000
0000
1100
0000
0000
0000
0100
0000
1000
0001
0200
0000
0000
0000
,  // measure 26
0000
0000
0000
0000
0301
0010
0100
1000
0001
0100
0010
1000
0001
0010
0100
1000
,  // measure 27
0001
0100
0010
1000
0010
0001
0010
0100
0001
1000
0100
0010
1000
0010
0001
1000
,  // measure 28
0020
0030
0202
0000
0000
0303
1010
0000
,  // measure 29
0010
0000
0000
0000
0001
0000
0010
0000
0000
0000
1000
0000
0001
0000
0000
0000
0000
0000
0011
0000
0000
0020
0000
0000
,  // measure 30
0000
0000
0030
0000
0120
0000
0000
0000
0032
0000
0000
0000
0103
0010
1000
0001
,  // measure 31
0020
0030
0202
0000
0000
0000
0000
0000
,  // measure 32
0000
0303
1001
0001
0001
0010
0100
0001
,  // measure 33
0100
0000
1000
0001
0100
0000
0010
0000
1000
0000
0001
0000
0020
0000
0000
0000
,  // measure 34
0000
0000
0030
0000
1100
0000
0100
0000
0100
0010
0001
1000
0010
0100
0001
1000
,  // measure 35
0100
1000
0001
0000
0010
0000
0100
0000
0001
0000
0100
1000
0002
0000
0000
0000
,  // measure 36
0003
0000
0101
0100
0100
0001
0010
1000
,  // measure 37
0010
0100
1000
0001
0100
0010
2000
0000
,  // measure 38
0000
3000
1010
0010
0010
0100
1000
0100
,  // measure 39
0001
0000
1000
0000
1001
0000
0001
0000
0010
0000
0010
0000
0220
0330
0000
0000
,  // measure 40
1100
1000
1000
0001
0000
0001
0000
0001
,  // measure 41
0101
0100
0100
0001
0000
0010
0010
0000
,  // measure 42
1100
0100
0100
0010
0000
0010
0000
0001
,  // measure 43
1001
0000
1000
0000
1000
0000
0010
0000
0100
0001
0100
0001
0100
0000
0000
0000
,  // measure 44
0010
0100
0001
1000
0100
0001
0100
0010
,  // measure 45
0001
0010
0100
1000
0010
1000
0001
1000
0010
0100
0010
1000
0001
0010
0100
1000
,  // measure 46
0002
0000
0000
0000
1003
0100
0001
0100
,  // measure 47
0010
0001
1000
0001
0200
0000
0000
0300
,  // measure 48
0001
0100
0010
1000
0001
0010
0100
1000
0001
0100
0010
1000
0001
0010
0100
1000
,  // measure 49
0001
0100
0010
0100
2000
0000
0000
0000
3100
0000
0000
0000
0001
0010
0100
1000
,  // measure 50
0001
0100
0010
1000
0001
0010
0100
1000
0001
0100
0010
0100
1000
0100
0010
1000
,  // measure 51
0100
0010
0001
1000
0020
0000
0030
0000
1010
0000
1010
0000
1000
0010
0100
0001
,  // measure 52
1000
0100
0010
0001
0200
0000
0000
0000
0301
0010
0100
1000
0001
0100
0010
1000
,  // measure 53
0001
0010
0100
0010
2000
0000
0000
0000
3010
0100
1000
0001
1000
0100
0010
0001
,  // measure 54
0100
0001
1000
0100
0010
0001
0100
0010
2000
0000
0000
0000
0000
0000
3000
0000
,  // measure 55
1001
0000
0000
1001
0000
0000
1001
0000
0002
0003
0000
0000
1000
0010
0100
0001
,  // measure 56
0010
0100
1000
0001
0100
0010
1000
0100
0010
0001
1000
0010
0002
0000
0000
0000
,  // measure 57
0013
0000
0000
0000
1000
0001
0010
0100
1000
0010
1000
0001
0010
0100
1000
0010
,  // measure 58
0100
0001
1000
0100
0010
1000
0010
0001
1000
0010
1000
0100
0020
0000
0030
0000
,  // measure 59
0011
0000
0011
0000
0001
0010
0100
0001
0100
0010
0001
1000
0020
0000
0000
0000
,  // measure 60
0130
1000
0100
0010
1000
0100
0010
0001
1000
0010
0100
0010
0002
0000
0000
0000
,  // measure 61
0013
1000
0001
0010
0100
0001
0100
1000
0001
0100
0010
1000
0100
0010
0001
1000
,  // measure 62
0020
0000
0000
0030
0201
0000
0310
0000
,  // measure 63
2002
0000
0000
0000
3000
0000
0000
0000
0013
0100
0001
0100
1000
0001
0100
0010
,  // measure 64
1000
0100
0010
0001
1000
0010
0100
0001
2000
0000
0000
0000
3200
0000
0000
0000
,  // measure 65
0302
0000
0000
0000
0103
0010
0001
1000
0010
0000
0100
0001
2000
0000
0000
0000
,  // measure 66
0010
0000
0000
0000
0010
0000
3001
0100
0020
0000
0000
0000
0000
0000
0030
0000
,  // measure 67
0210
0000
1000
0000
0302
1000
0000
0003
,  // measure 68
0101
0000
0000
0000
0000
0000
0000
0000
0001
0000
0000
0000
0000
0000
0000
0000
0001
0000
0000
0000
0000
0000
0000
0000
1000
0000
0000
0000
0000
0000
0010
0000
0000
0100
0000
0000
0001
0000
0000
0000
0000
0000
0010
0000
0000
0100
0000
0000
,  // measure 69
1000
0100
0010
1000
0010
0001
1000
0010
0100
0001
0010
0100
1000
0001
0100
0010
,  // measure 70
2000
0000
0000
3000
0012
0000
2003
0000
,  // measure 71
3001
0100
1000
0000
1000
0100
0001
0000
0010
0000
0100
0000
1000
0000
1000
0000
,  // measure 72
1020
0000
0031
0020
,  // measure 73
1030
0001
0010
0100
0010
0000
1000
0000
0010
0000
0001
0000
1000
0000
0010
0000
,  // measure 74
0100
0000
0000
0000
0100
0000
0010
1000
0002
0000
0000
0000
0000
0000
0003
0000
,  // measure 75
0021
0000
1000
0000
0230
1000
0000
0300
,  // measure 76
1001
0000
1000
0000
1000
0000
1020
0000
0000
0230
0000
0000
,  // measure 77
0301
1000
0001
1000
0001
0000
0000
0000
2002
0000
0000
0000
0000
0000
0000
0000
,  // measure 78
0000
0000
0000
0000
,  // measure 79
3003
0000
0000
0000
;

//---------------dance-single - ----------------
#NOTEDATA:;
#CHARTNAME:;
#CHARTHASH:1083488837;
#STEPSTYPE:dance-single;
#BANNER:;
#DESCRIPTION:;
#CHARTSTYLE:;
#DIFFICULTY:Beginner;
#METER:6;
#METERF:6.000000;
#LASTSECONDHINT:0.053000;
#RADARVALUES:0.269792,0.428537,0.399826,0.076563,0.004253,222.000000,175.000000,47.000000,9.000000,0.000000,0.000000,0.000000,0.000000,0.000000,0.269792,0.428537,0.399826,0.076563,0.004253,222.000000,175.000000,47.000000,9.000000,0.000000,0.000000,0.000000,0.000000,0.000000;
#CREDIT:YOSEFU;
#NOTES:
// measure 0
0000
0000
0000
0000
,  // measure 1
0000
0000
0000
0000
,  // measure 2
0000
0000
0000
1000
,  // measure 3
0000
0000
0000
0001
0000
0000
0000
0000
0000
0000
0000
0000
1001
0000
0000
0000
,  // measure 4
0000
0000
0000
0000
0000
0110
0000
0000
,  // measure 5
0000
0000
0000
1000
,  // measure 6
0000
0001
0000
0100
,  // measure 7
0000
0010
0010
0010
,  // measure 8
0000
1001
0000
0010
,  // measure 9
0000
1001
0000
0100
,  // measure 10
0000
1001
0000
1001
,  // measure 11
0000
0100
0100
0100
,  // measure 12
0000
0010
0110
1000
,  // measure 13
0000
1000
0000
0001
,  // measure 14
0000
0001
0000
0100
,  // measure 15
0100
0100
0000
1001
,  // measure 16
0000
1001
0000
0010
,  // measure 17
0010
0000
0000
1001
,  // measure 18
0000
1000
1000
0000
,  // measure 19
0010
0010
0010
0010
,  // measure 20
0000
0110
0000
0000
,  // measure 21
1001
0000
0000
0001
,  // measure 22
0000
1000
0000
1001
,  // measure 23
0000
0110
0000
1001
,  // measure 24
0000
0110
0000
0010
,  // measure 25
0010
0000
0000
1001
,  // measure 26
0000
1000
1000
1000
,  // measure 27
1000
1000
0000
1001
,  // measure 28
0000
0110
0000
0010
,  // measure 29
0000
1000
0000
1001
,  // measure 30
0000
0110
0000
1001
,  // measure 31
0000
1001
0000
0000
,  // measure 32
0000
0001
0001
0001
,  // measure 33
0000
1000
0000
0010
,  // measure 34
0000
0100
0100
0100
,  // measure 35
0000
0001
0000
1001
,  // measure 36
0000
1000
1000
1000
,  // measure 37
0000
0100
0000
0010
,  // measure 38
0000
0001
0001
0001
,  // measure 39
0000
1000
1000
1000
,  // measure 40
0001
0001
0000
0000
,  // measure 41
1000
1000
0000
0000
,  // measure 42
0010
0010
0000
0000
,  // measure 43
0100
0100
0000
0000
,  // measure 44
0001
0000
0001
0000
,  // measure 45
1000
0000
1000
0000
,  // measure 46
1001
0000
0020
0000
,  // measure 47
0000
0000
0030
0000
,  // measure 48
1000
1000
1000
1000
,  // measure 49
1000
2000
3000
0001
,  // measure 50
0001
0001
0001
0001
,  // measure 51
0001
0002
0003
0010
,  // measure 52
0020
0030
0100
0100
,  // measure 53
0200
0300
1001
1001
,  // measure 54
0110
0110
1001
0000
,  // measure 55
0110
0000
0000
0001
,  // measure 56
0001
1000
1000
0002
,  // measure 57
0003
0010
0010
0100
,  // measure 58
0100
1000
1000
0002
,  // measure 59
0003
0100
0100
0020
,  // measure 60
0030
1000
2000
3000
,  // measure 61
1001
0110
1001
0110
,  // measure 62
1001
0000
0001
0000
,  // measure 63
1001
0000
1000
0000
,  // measure 64
0110
0000
0100
0000
,  // measure 65
1001
0000
0001
0001
,  // measure 66
0000
0000
1000
0000
,  // measure 67
0110
0000
0001
0000
,  // measure 68
0110
0000
1000
0000
,  // measure 69
0001
0001
0000
0000
,  // measure 70
1000
0000
0010
0000
,  // measure 71
0110
0000
0001
0000
,  // measure 72
1001
0000
1000
0000
,  // measure 73
0110
0000
0001
0001
,  // measure 74
0000
0000
0100
0000
,  // measure 75
1001
0000
0010
0000
,  // measure 76
1001
0000
0010
0000
,  // measure 77
0110
0000
0100
0000
;
