#TITLE:Candy Crack Curtain Call;
#SUBTITLE:;
#ARTIST:t+pazolite;
#TITLETRANSLIT:;
#SUBTITLETRANSLIT:;
#ARTISTTRANSLIT:;
#GENRE:;
#CREDIT:;
#BANNER:Candy Crack Curtain Call.png;
#BACKGROUND:Candy Crack Curtain Call-bg.png;
#LYRICSPATH:;
#CDTITLE:../_YSD cdtitles/ysd tEYEcoon cdtitle.png;
#MUSIC:Candy Crack Curtain Call.ogg;
#OFFSET:1.000000;
#SAMPLESTART:64.000000;
#SAMPLELENGTH:15.000000;
#SELECTABLE:YES;
#BPMS:0.000000=240.000000
;
#STOPS:
;
#BGCHANGES:;
#KEYSOUNDS:;
#ATTACKS:;

//---------------dance-single - ----------------
#NOTES:
     dance-single:
     :
     Beginner:
     6:
     0.278384,0.487171,0.213672,0.179484,0.000000,228.000000,203.000000,25.000000,21.000000,0.000000,0.000000,0.278384,0.487171,0.213672,0.179484,0.000000,228.000000,203.000000,25.000000,21.000000,0.000000,0.000000:
// measure 0
0000
0000
0000
0000
,  // measure 1
0000
0000
0000
0000
,  // measure 2
0000
0000
0000
0000
,  // measure 3
0000
0000
0000
0000
,  // measure 4
0000
0000
0000
0000
,  // measure 5
0000
0000
0000
0000
,  // measure 6
0000
0000
0000
0000
,  // measure 7
0000
0000
0000
0000
,  // measure 8
0000
0000
0000
0000
,  // measure 9
1000
0000
0001
0000
,  // measure 10
1000
0000
0001
0000
,  // measure 11
0100
0000
0010
0000
,  // measure 12
0100
0000
0010
0000
,  // measure 13
1000
0000
0001
0000
,  // measure 14
0100
0000
0010
0000
,  // measure 15
1000
1000
1000
0000
,  // measure 16
0002
0000
0003
0000
,  // measure 17
1001
0000
1000
0000
,  // measure 18
0001
0001
0001
0000
,  // measure 19
1000
0000
0010
0000
,  // measure 20
0100
0100
0100
0000
,  // measure 21
0001
0000
1000
0000
,  // measure 22
0100
0100
0100
0100
,  // measure 23
0100
0000
0010
0000
,  // measure 24
0020
0000
0030
0000
,  // measure 25
1001
0000
0001
0000
,  // measure 26
1000
1000
1000
0000
,  // measure 27
0010
0000
1000
0000
,  // measure 28
0001
0001
0001
0000
,  // measure 29
1000
0000
0001
0000
,  // measure 30
1000
0000
0001
0000
,  // measure 31
1000
1000
1000
1000
,  // measure 32
2000
0000
3000
0000
,  // measure 33
2002
0000
0000
0000
,  // measure 34
0000
0000
3003
0000
,  // measure 35
0002
0000
0000
0000
,  // measure 36
0000
0000
0003
0000
,  // measure 37
0200
0000
0000
0000
,  // measure 38
0000
0000
0300
0000
,  // measure 39
0020
0000
0000
0000
,  // measure 40
0000
0000
0030
0000
,  // measure 41
2002
0000
0000
0000
,  // measure 42
0000
0000
3003
0000
,  // measure 43
2000
0000
0000
0000
,  // measure 44
0000
0000
3000
0000
,  // measure 45
0200
0000
0000
0000
,  // measure 46
0000
0000
0300
0000
,  // measure 47
0020
0000
0000
0000
,  // measure 48
0000
0000
0030
0000
,  // measure 49
1001
0000
0000
0000
0000
0000
0000
0001
,  // measure 50
0000
0000
0001
0000
,  // measure 51
1000
0000
0000
0000
0000
0000
0000
1000
,  // measure 52
0000
0000
1000
0000
,  // measure 53
0001
0000
0000
0000
0000
0000
0000
0001
,  // measure 54
0000
0000
0001
0000
,  // measure 55
1000
0000
0000
0000
0000
0000
0000
1000
,  // measure 56
0000
0000
1000
0000
,  // measure 57
1001
0000
0001
0000
,  // measure 58
1000
0000
0001
0000
,  // measure 59
0110
0000
0100
0000
,  // measure 60
0010
0000
0100
0000
,  // measure 61
1001
0000
0001
0000
,  // measure 62
1000
0000
0001
0000
,  // measure 63
0100
0100
0100
0100
,  // measure 64
0000
0000
0000
0000
,  // measure 65
1001
0000
0001
0000
,  // measure 66
1000
0000
0001
0000
,  // measure 67
0100
0100
0100
0000
,  // measure 68
0010
0010
0010
0000
,  // measure 69
1000
0000
0100
0000
,  // measure 70
1000
0000
0001
0000
,  // measure 71
2002
0000
0000
0000
3003
0000
0000
1001
,  // measure 72
0000
0000
0110
0000
,  // measure 73
1000
0000
0001
0000
,  // measure 74
1000
0000
0010
0000
,  // measure 75
0100
0100
0100
0000
,  // measure 76
0001
0001
0001
0000
,  // measure 77
1000
0000
1000
0000
,  // measure 78
1000
1000
1000
0000
,  // measure 79
0001
0001
0001
0001
,  // measure 80
0000
0200
0000
0300
,  // measure 81
0110
0000
0010
0000
,  // measure 82
0100
0000
0010
0000
,  // measure 83
1000
1000
1000
0000
,  // measure 84
0100
0100
0100
0000
,  // measure 85
0010
0000
0100
0000
,  // measure 86
1000
0000
0001
0000
,  // measure 87
2002
0000
0000
0000
3003
0000
0000
0110
,  // measure 88
0000
0000
1001
0000
,  // measure 89
0001
0000
0100
0000
,  // measure 90
0001
0000
0100
0000
,  // measure 91
0010
0010
0010
0000
,  // measure 92
1000
1000
1000
0000
,  // measure 93
0001
0001
0001
0000
,  // measure 94
1000
1000
1000
0000
,  // measure 95
0100
0100
0100
0100
,  // measure 96
0100
0100
0100
0100
,  // measure 97
0100
0000
0010
0000
,  // measure 98
0001
0000
0100
0000
,  // measure 99
0010
0000
1000
0000
,  // measure 100
0001
0000
0010
0000
,  // measure 101
1001
0000
1001
0000
,  // measure 102
0110
0000
0110
0000
,  // measure 103
1001
0000
1001
0000
,  // measure 104
0110
0000
0020
0030
,  // measure 105
1001
0000
1000
0000
,  // measure 106
0001
0000
1000
0000
,  // measure 107
0010
0000
0100
0000
,  // measure 108
0010
0000
0100
0000
,  // measure 109
0001
0001
0001
0000
,  // measure 110
1000
1000
1000
0000
,  // measure 111
0100
0100
0100
0100
,  // measure 112
0000
0000
0000
0000
,  // measure 113
2002
0000
0000
0000
,  // measure 114
3003
0000
0000
0000
;

//---------------dance-single - ----------------
#NOTES:
     dance-single:
     :
     Easy:
     11:
     0.467635,0.584605,0.059828,0.299140,0.000000,383.000000,376.000000,7.000000,35.000000,0.000000,0.000000,0.467635,0.584605,0.059828,0.299140,0.000000,383.000000,376.000000,7.000000,35.000000,0.000000,0.000000:
0000
0000
0000
0000
,
0000
0000
0000
0000
,
0000
0000
0000
0000
,
0000
0000
0000
0000
,
0000
0000
0000
0000
,
0000
0000
0000
0000
,
0000
0000
0000
0000
,
0000
0000
0000
0000
,
0000
0000
0000
0000
,
1000
0100
1000
0000
,
0001
0100
0001
0000
,
1000
0010
1000
0000
,
0001
0010
0001
0000
,
1000
0100
0010
0001
,
0100
0010
1000
0001
,
0010
0100
1000
0001
,
0100
0000
0000
0000
,
0101
0001
1000
0100
,
0010
0001
1000
0000
,
0101
0001
1000
0010
,
0100
0010
1000
0001
,
0011
0010
0100
1000
,
0001
0100
0010
1000
,
1001
0001
0010
0100
,
1000
0000
0001
0100
,
0101
0001
0010
0100
,
1000
0001
0100
0000
,
0110
0010
1000
0001
,
0010
0100
1000
0100
,
0010
0001
1000
0010
,
0100
0001
1000
0100
,
0010
0010
0100
0100
,
1000
0001
1000
0001
1000
0002
0000
1003
,
0020
0000
0000
0230
0000
0000
0000
0000
,
0000
0000
0000
0000
,
0302
0000
0000
2003
0000
0000
0000
0000
,
0000
0000
3200
0000
0310
0200
0000
1300
,
0200
0000
0000
0320
0000
0000
0000
0000
,
0000
0000
0000
0000
,
0032
0000
0000
0203
0000
0000
0000
0000
,
0000
0000
0302
0000
1000
0203
0000
1300
,
0002
0000
0000
0203
0000
0000
0000
0000
,
0000
0000
0000
0000
,
0320
0000
0000
2030
0000
0000
0000
0000
,
0000
0000
3002
0000
0013
0002
0000
1003
,
0002
0000
0000
0203
0000
0000
0000
0000
,
0000
0000
0000
0000
,
0320
0000
0000
2030
0000
0000
0000
0000
,
0000
0000
3002
0000
0013
0002
0000
1003
,
0010
0000
0100
0000
0000
0001
0000
1000
,
0000
0100
0010
0100
,
1000
0000
0001
0000
1000
0000
0000
0010
,
0000
0100
0001
1000
,
0100
0000
0010
0000
0000
0100
0000
1000
,
0000
0001
0100
0010
,
1000
0000
0000
0001
0000
0010
0000
0100
,
0000
0010
0001
0000
,
1000
0000
0010
0000
0000
0100
0000
0001
,
0000
1000
0100
0010
,
0001
0000
0100
0000
0000
0010
0000
1000
,
0000
0001
0010
0100
,
1000
0001
0100
0001
,
1000
0100
0010
0001
,
1000
0010
0100
0001
,
0000
0000
0000
0000
,
1000
0100
0010
0100
,
1000
0000
0001
0000
0100
0001
0100
0000
,
0001
0000
1000
0000
0100
0000
0010
0001
,
0000
0001
1000
0000
0010
0000
0100
0000
,
0001
1000
0100
0010
,
0100
0000
1000
0000
0001
0100
0001
0000
,
2000
0000
0000
0000
0000
3020
0000
0130
,
0000
0001
0100
0000
0002
0000
1003
0000
,
0001
0010
0100
1000
,
0010
0000
0100
0000
0001
1000
0001
0000
,
1000
0000
0100
0000
0010
0000
0001
1000
,
0000
1000
0010
0000
0100
0010
0100
0000
,
0001
0000
1000
0010
0000
1000
0001
1000
,
0000
0001
0100
0000
0001
0000
1000
0100
,
0000
1000
0100
0000
0010
0000
0001
1000
,
0001
0200
0000
0300
,
0001
0010
0100
1000
,
0001
0000
0100
0000
0010
1000
0010
0000
,
0100
0000
0001
0000
1000
0000
0100
0010
,
0000
0010
0100
0000
1000
0000
0001
0000
,
0100
0010
1000
0001
,
0010
0000
0100
0000
1000
0001
1000
0000
,
0020
0000
0000
0000
0000
0000
0000
0230
,
0000
0301
1000
0000
0200
0000
0310
0000
,
0001
1000
0010
0100
,
0010
0000
1000
0000
0001
0010
0001
0000
,
1000
0000
0100
0000
0010
0000
0001
1000
,
0000
1000
0010
0000
0100
0001
0100
0000
,
0001
0000
1000
0100
0000
1000
0001
1000
,
0000
0001
0100
0000
0010
0000
1000
0001
,
2000
0000
0000
0000
,
3001
0000
0100
0000
0010
1000
0010
1000
,
0010
0100
0001
0000
,
1000
0100
0010
0000
,
0001
0100
0010
0000
,
1000
0001
0010
0000
,
0100
1000
0001
0100
,
0001
0010
0001
1000
,
0010
0100
0001
0010
,
0100
0000
1000
0000
0001
1000
0001
1000
,
0001
0100
0001
0100
,
0010
1000
0010
1000
,
0001
0010
0100
1000
,
0010
0100
0001
1000
,
0100
0001
0100
1000
,
0010
0100
1000
0100
,
0001
0000
1000
0000
0100
0010
0100
0010
,
0000
0000
0000
0000
,
2002
0000
0000
0000
,
3003
0000
0000
0000
;

//---------------dance-single - ----------------
#NOTES:
     dance-single:
     :
     Medium:
     14:
     0.671539,0.828191,0.008547,0.683749,0.000000,550.000000,549.000000,1.000000,80.000000,0.000000,0.000000,0.671539,0.828191,0.008547,0.683749,0.000000,550.000000,549.000000,1.000000,80.000000,0.000000,0.000000:
0000
0000
0000
0000
,
0000
0000
0000
0000
,
0000
0000
0000
0000
,
0000
0000
0000
0000
,
0000
0000
0000
0000
,
0000
0000
0000
0000
,
0000
0000
0000
0000
,
0000
0000
0000
0000
,
0000
0000
0000
0000
,
1000
0001
1000
0001
,
0100
0010
0100
0010
,
1000
0001
1000
0001
,
0010
0100
0010
0100
,
1000
0001
1000
0000
0001
0100
0001
0000
,
1000
0100
1000
0000
0001
0010
0001
0000
,
1000
0100
0010
0001
0100
0010
1000
0100
,
0010
0000
0000
0000
,
0001
0100
0001
0000
2000
0000
3200
0000
,
0310
0001
0010
0000
0001
0000
1000
0000
,
0010
0100
0010
0000
2000
0000
3200
0000
,
0310
0001
0010
0001
1000
0010
0000
0100
,
0001
1000
0001
0000
2000
0000
3200
0000
,
0310
0001
0010
0001
0100
0001
1000
0100
,
0010
0100
0010
0000
0002
0000
2003
0000
,
3010
0100
0010
0000
1000
0000
0100
0000
,
0010
0001
1000
0000
0020
0000
0230
0000
,
0301
1000
0001
0000
0010
0000
0100
0000
,
0010
0001
0010
0000
0002
0000
2003
0000
,
3010
0100
0010
0100
0001
1000
0000
0100
,
0010
0001
0010
0000
0001
1000
0001
0000
,
1000
0100
1000
0000
0001
0100
0001
0000
,
1000
0100
1000
0100
0010
0001
0010
0001
,
1000
0010
0100
0001
0010
0100
1000
0010
,
0200
0000
0000
0302
0000
0000
0000
0000
,
0000
0000
0000
0000
,
0023
0000
0000
0230
0000
0000
0000
0000
,
0000
0320
0000
0000
0031
0200
0000
0310
,
2000
0000
0000
3200
0000
0000
0000
0000
,
0000
0000
0000
0000
,
0320
0000
0000
0032
0000
0000
0000
0000
,
0000
0000
2003
0000
3010
0100
0010
1000
,
0200
0000
0000
0320
0000
0000
0000
0000
,
0000
0000
0000
0000
,
0032
0000
0000
0203
0000
0000
0000
0000
,
0000
0000
0302
0000
1003
0200
0000
1300
,
0020
0000
0000
0230
0000
0000
0000
0000
,
0000
0000
0000
0000
,
0302
0000
0000
0023
0000
0000
0000
0000
,
0000
0000
0230
0000
1300
0001
0100
0010
,
1000
0000
2000
0000
3001
0010
0000
0002
,
0000
1003
0100
1000
0010
0100
0001
1000
,
0100
0001
0100
1000
0100
0010
0001
0200
,
0300
0100
0001
0010
0100
1000
0100
0010
,
0001
0000
0002
0000
1003
0010
0000
0200
,
0000
0301
0010
0100
1000
0010
0100
0001
,
2000
0000
3100
0010
0000
2000
0000
3010
,
0000
0001
0100
0010
2000
0000
3100
0000
,
0010
0000
0020
0000
0031
1000
0000
0020
,
0000
0130
0001
0010
0100
1000
0010
1000
,
0001
0000
0002
0000
0013
0100
0000
2000
,
0000
3001
0100
0001
0010
0100
1000
0001
,
0100
0001
0100
0001
1000
0100
1000
0100
,
0010
0001
0010
0001
1000
0010
1000
0010
,
0100
0001
0010
0100
1000
0010
0100
0001
,
1000
0000
0000
0000
,
0100
0010
0200
0000
1300
0001
0000
0200
,
0000
0301
1000
0100
0010
0100
1000
0001
,
0100
0010
1000
0100
0010
0001
0100
2000
,
3000
1000
0100
0010
1000
0100
0010
0001
,
0100
0001
0200
0000
0301
0010
0000
0200
,
0000
1300
0010
1000
0100
0010
0001
0100
,
0020
0000
0000
0000
0000
0100
0000
2030
,
0000
3001
0010
0100
2000
0000
3010
0000
,
0100
0001
0200
0000
0310
1000
0000
0200
,
0000
0310
0001
0010
0100
1000
0010
0100
,
0001
1000
0100
0010
0001
1000
0010
0002
,
0003
0001
0010
0100
0001
0010
0100
0010
,
1000
0010
0001
0100
0010
0001
0010
2000
,
3000
1000
0100
0010
0001
0100
0010
2000
,
0000
3100
0010
0100
1000
0001
0100
0020
,
1000
0230
0000
0300
,
0001
1000
0002
0000
0013
0100
0000
2000
,
0000
3001
0100
0001
0010
0100
1000
0001
,
0100
0010
1000
0100
0010
0001
0100
2000
,
3000
1000
0100
0010
1000
0100
0010
0001
,
0100
0001
0200
0000
0301
1000
0000
0200
,
0000
0310
0100
1000
0010
0100
0001
1000
,
0200
0000
0000
0000
0000
0001
0000
2300
,
0000
3001
1000
0001
0200
0000
0310
0000
,
1000
0001
2000
0000
3100
0010
0000
0200
,
0000
1300
0001
0010
0100
0010
0001
1000
,
0001
0010
0100
1000
0010
1000
0100
0002
,
0003
0001
0100
0010
0001
0100
0010
1000
,
0100
0001
0100
1000
0001
0100
0010
0002
,
0003
0001
0010
0100
0001
1000
0100
0010
,
0002
0000
0000
0000
,
0103
0010
1000
0100
0010
0001
0100
0010
,
1000
0000
2000
0000
3100
0010
0001
0000
,
1000
0000
2000
0000
3010
0100
0001
0000
,
0010
0000
0020
0000
0130
1000
0001
0000
,
0100
0000
0200
0000
0310
1000
0001
0000
,
0010
0001
1000
0000
0010
1000
0001
0000
,
0100
0001
1000
0000
0100
1000
0001
0000
,
0100
0010
1000
0000
0100
0010
0001
0000
,
0100
0010
1000
0000
0001
0010
0100
0001
,
0100
1000
0001
0100
,
0010
0100
1000
0100
,
0001
0010
0100
1000
,
0100
0001
0100
1000
,
0001
0100
0010
0000
1000
0100
0010
0000
,
0001
1000
0010
0000
0100
0001
1000
0000
,
0001
0100
1000
0100
0001
0010
1000
0010
,
0001
0000
0000
0000
,
2002
0000
0000
0000
,
3003
0000
0000
0000
;

//---------------dance-single - ----------------
#NOTES:
     dance-single:
     :
     Hard:
     17:
     0.807068,1.071777,0.068375,0.658108,0.226492,661.000000,653.000000,8.000000,77.000000,0.000000,0.000000,0.807068,1.071777,0.068375,0.658108,0.226492,661.000000,653.000000,8.000000,77.000000,0.000000,0.000000:
0000
0000
0000
0000
,
0000
0000
0000
0000
,
0000
0000
0000
0000
,
0000
0000
0000
0000
,
0000
0000
0000
0000
,
0000
0000
0000
0000
,
0000
0000
0000
0000
,
0000
0000
0000
0000
,
0000
0000
0000
0000
,
1000
0100
1000
0010
,
0100
0001
0010
0100
,
1000
0001
0100
0001
,
0010
0100
1000
0001
,
0100
0001
0010
0001
1000
0010
1000
0100
,
0010
0001
1000
0010
0100
0001
1000
0100
,
0010
0000
0001
0000
0100
0000
0010
0000
1000
0001
1000
0001
1000
0001
1000
0001
,
1000
0000
0000
0000
,
0010
0010
0100
0100
0002
0000
2003
0000
,
3100
0001
0100
1000
0010
0000
0100
0001
,
1000
1000
0001
0001
0020
0000
0230
0000
,
0301
0001
0100
1000
0010
0100
0001
0010
,
0100
0100
0010
0010
0002
0000
2003
0000
,
3001
0000
0100
0000
1000
0000
0100
0000
0001
1000
0001
1000
0001
0000
1000
0000
,
0100
0100
0010
0010
0002
0000
0203
0000
,
0310
0010
1000
0000
0100
1000
0010
1000
,
0100
0100
0010
0010
0002
0000
2003
0000
,
3010
0100
1000
0100
0001
0000
0010
0100
,
1000
1000
0010
0010
0200
0000
0302
0000
,
0013
0010
1000
0010
0001
1000
0010
0100
,
0001
0001
0010
0010
0001
0001
1000
1000
,
0001
0001
0010
0010
0001
0001
0100
0100
,
0010
1000
0100
0010
0001
0100
0010
0001
,
0010
0000
1000
0000
0001
0000
0010
0000
0001
1000
0001
1000
0001
1000
0001
1000
,
0020
0000
0000
0230
0000
0000
0000
0000
,
0000
0000
0000
0000
,
0302
0000
0000
0023
0000
0000
0000
0000
,
0000
0000
0032
0000
1003
0020
0000
0130
,
2000
0000
0000
3200
0000
0000
0000
0000
,
0000
0000
0000
0000
,
0302
0000
0000
0023
0000
0000
0000
0000
,
0000
0000
0230
0000
1300
0010
0100
0001
,
0020
0000
0000
0230
0000
0000
0000
0000
,
0000
0000
0000
0000
,
0302
0000
0000
0203
0000
0000
0000
0000
,
0000
0000
2300
0000
3001
0200
0000
0310
,
0002
0000
0000
0023
0000
0000
0000
0000
,
0000
0000
0000
0000
,
2030
0000
0000
3002
0000
0000
0000
0000
,
0000
0000
0023
0000
0130
1000
0010
0100
,
0001
0000
0001
0000
1000
0100
0000
1000
,
0000
0000
0001
0100
0001
0000
1000
0000
0100
0000
0010
0000
0001
0000
1000
0000
,
0010
1000
0010
0000
0100
0000
0001
0000
1000
0001
1000
0000
0010
0000
0002
0000
,
0003
0001
0010
0010
0100
0000
0001
0010
,
0100
0000
0200
0000
1300
0001
0000
0200
,
0000
0000
0301
1000
0001
0000
0010
0000
0100
0000
0010
0000
0001
0000
1000
0000
,
2000
0000
3010
1000
0000
0200
0000
0310
,
0000
0001
0100
0010
0002
0000
0013
0000
,
0100
0000
0200
0000
0301
1000
0000
0200
,
0000
0000
1300
0001
1000
0000
0100
0000
0010
0000
0100
0000
1000
0000
0001
0000
,
0001
0000
0002
0000
1003
0020
0000
1030
,
0000
0000
0100
0010
0100
0000
1000
0000
0010
0000
0100
0000
0001
0000
0001
0000
,
0010
0001
1000
0010
0100
0010
1000
0100
,
0010
0001
0100
0010
1000
0001
0010
0100
,
1000
1000
0010
0010
0001
0001
0010
0010
,
1000
0000
0002
0013
,
0001
0100
0002
0000
1003
0100
0000
2000
,
0000
0000
3001
0100
0001
0000
0010
0000
0100
0000
1000
0000
0001
0000
0100
0000
,
0010
1000
0010
0000
1000
0000
0001
0010
0001
0000
1000
0010
1000
0000
0200
0000
,
0300
0100
1000
1000
0010
0100
1000
0100
,
0001
1000
0002
0000
0013
0100
0000
0020
,
0000
0000
0031
1000
0001
0000
0010
0000
0100
0000
1000
0000
0100
0000
0010
0000
,
0020
0000
0000
1000
0000
0100
0000
0001
,
0000
0031
0001
1000
0020
0000
1030
0000
,
0001
0010
0002
0000
1003
0020
0000
1030
,
0000
0000
0001
1000
0001
0000
1000
0000
0100
0000
0010
0000
0100
0000
1000
0000
,
0001
0100
0001
0000
1000
0000
0100
1000
0100
0000
1000
0001
1000
0000
0020
0000
,
0030
0000
0010
0000
0100
0000
0100
0000
1000
0000
0100
0000
0001
1000
0001
0000
,
0010
0000
0001
1000
0001
0000
0100
0000
0001
1000
0001
0000
0010
0000
0200
0000
,
0300
0100
1000
1000
0010
0010
0100
2000
,
0000
3100
0001
0010
0100
1000
0010
0002
,
0000
0023
0000
0000
,
1030
0001
2000
0000
3100
0020
0000
0130
,
0000
0000
1000
0010
1000
0000
0100
0000
0001
0000
0100
0000
0010
0000
0001
0000
,
1000
0010
1000
0000
0001
0000
0010
0100
0010
0000
0001
1000
0001
0000
0200
0000
,
0300
0100
0010
0010
0001
0010
1000
0001
,
0010
0001
0020
0000
0031
0100
0000
0020
,
0000
0000
1030
0001
1000
0000
0100
0000
0010
0000
0001
0000
0100
0000
0010
0000
,
0020
0000
0000
0001
0000
0100
0000
1000
,
0000
1030
1000
0100
0020
0000
0031
0000
,
1000
0010
2000
0000
3001
0020
0000
0031
,
0000
0000
0100
0001
0100
0000
0010
0000
0001
0000
0010
0000
1000
0000
0100
0000
,
0010
0001
0010
0000
0001
0000
1000
0010
1000
0000
0001
0010
0001
0000
0200
0000
,
0300
0000
0100
0000
1000
0000
1000
0000
0100
0010
0100
0000
0001
0000
1000
0100
,
1000
0000
0001
0100
0001
0000
1000
0000
0001
0010
0001
0000
1000
0000
0020
0000
,
0030
0010
0100
0100
1000
1000
0100
0100
,
0002
0010
0100
1000
,
0013
0000
0100
0000
0001
0000
0100
0000
1000
0001
1000
0001
1000
0001
1000
0001
,
0100
0001
0100
0010
1000
0100
0010
0000
,
0001
1000
0010
1000
0100
0010
0001
0000
,
1000
0010
0100
0001
0010
0100
1000
0000
,
0001
0100
0010
1000
0100
0010
0001
0000
,
1001
1000
0010
0000
0110
0100
0001
0000
,
1001
1000
0100
0000
0110
0010
0001
0000
,
1010
1000
0001
0000
0101
0100
0010
0000
,
1010
0000
1000
0000
0001
0000
0100
0000
0001
0010
0001
0010
0100
1000
0100
1000
,
0001
0000
0100
0000
1000
0100
0001
0001
,
0020
0000
0130
0002
0000
0103
2000
0000
,
3001
0100
0010
1000
0100
1000
0010
0000
,
0001
0010
1000
0001
1000
0100
0010
0001
,
0100
0010
1000
0001
0010
0100
0010
0001
,
1000
0010
0001
0010
0100
0001
0010
0100
,
1000
0000
0010
0000
0100
0000
0001
0000
1000
0010
1000
0010
0100
0001
0100
0001
,
0000
0000
0020
0130
,
2002
0000
0000
0000
,
3003
0000
0000
0000
;
