#VERSION:0.83;
#TITLE:CHRØMA ĪMPŪLSE;
#SUBTITLE:;
#ARTIST:MEMODEMO;
#TITLETRANSLIT:CHROMA IMPULSE;
#SUBTITLETRANSLIT:;
#ARTISTTRANSLIT:;
#GENRE:Future Core;
#CREDIT:;
#MUSIC:CHROMA IMPULSE.ogg;
#BANNER:CHROMA IMPULSE.png;
#BACKGROUND:CHROMA IMPULSE-bg.png;
#CDTITLE:../_YSD cdtitles/ysd plat cdtitle.png;
#SAMPLESTART:50.364;
#SAMPLELENGTH:21.333333;
#SELECTABLE:YES;
#OFFSET:1.481;
#BPMS:0.000=180.000
,140.000=114.000
,141.000=128.000
,142.000=114.000
,143.000=104.000
,144.000=96.000
,145.000=132.000
,146.000=180.000
;
#STOPS:;
#SPEEDS:0.000=1.000=0.000=0;
#SCROLLS:0.000=1.000;
#TICKCOUNTS:0.000=4;
#TIMESIGNATURES:0.000=4=4;
#LABELS:0.000=Song Start;
#COMBOS:0.000=1;
#DISPLAYBPM:180.000;
#ORIGIN:Single Release (2020);
#TAGS:;
#PREVIEWVID:;
#JACKET:CHROMA IMPULSE-jacket.png;
#CDIMAGE:;
#DISCIMAGE:;
#BGCHANGES:;
#FGCHANGES:;

//--------------- dance-single - ----------------
#NOTEDATA:;
#STEPSTYPE:dance-single;
#DESCRIPTION:;
#DIFFICULTY:Beginner;
#METER:6;
#RADARVALUES:0.002121,0.074408,0.007422,0,0,2,1,1,0,0,0,0,0,0,0.002121,0.074408,0.007422,0,0,2,1,1,0,0,0,0,0,0;
#DISPLAYBPM:180.000;
#CHARTNAME:No Chrome Whatsoever;
#CHARTHASH:2872425500;
#BANNER:;
#CHARTSTYLE:;
#METERF:0.000000;
#CREDIT:YOSEFU;
#NOTES:
0000
0000
0000
0000
,
0000
0000
0000
0000
,
0000
0000
0000
0000
,
0000
0000
0000
0000
,
0000
0000
0000
0000
,
0000
0000
0000
0000
,
0000
0000
0000
0000
,
1000
0000
0000
0000
,
0000
0001
0000
0000
0000
0000
0000
0000
,
0100
0000
0000
0000
,
0000
0010
0000
0000
0000
0000
0000
0000
,
1000
0000
0001
0000
,
1000
0000
0001
0000
,
0100
0000
0001
0000
,
1000
0000
0100
0000
,
0010
0000
0001
0000
,
0100
0000
0010
0000
,
1000
0000
0000
1001
,
0000
0000
0001
0000
,
1001
0000
0000
0000
,
0000
0000
0000
1000
,
0000
0000
0000
0000
,
0000
0000
0000
0000
0000
0001
0000
0000
,
0001
0000
0000
0000
,
0000
0000
0000
0100
,
0000
0000
0000
0000
,
0020
0000
0000
0030
0000
0000
0000
0000
,
1001
0000
0001
0000
,
1000
0000
0001
0000
,
0110
0000
0100
0000
,
0010
0000
0100
0000
,
1000
1000
1000
0000
,
0001
0001
0001
0000
,
1001
0000
0000
0110
,
0000
0000
1001
0000
,
1001
0000
0000
0000
,
0000
0000
1000
0000
,
0001
0000
0100
0000
,
0001
0000
0000
0000
0000
0000
0000
1000
0000
0000
0000
0000
0000
0000
0000
0100
,
0000
0000
0000
0000
0000
0000
0000
0010
0000
0000
0000
0000
0000
0000
0000
0000
,
0001
0000
0000
0000
0000
0000
0000
1000
0000
0000
0000
0000
0020
0000
0030
0000
,
0010
0000
0000
0000
0000
0000
0000
0100
0000
0000
0000
0000
0000
0000
0000
0000
,
1001
0000
0000
0000
0000
0000
0000
0001
0000
0000
0000
0000
0000
0000
0000
1001
,
0000
0000
0110
0000
,
1001
0000
0000
0000
0000
0000
0000
1000
0000
0000
0000
0000
0000
0000
0000
0110
,
0000
0000
0000
0000
0000
1001
0000
0000
,
0001
0000
0000
0000
0000
0000
0000
0100
0000
0000
0000
0000
0000
0000
0000
0001
,
0000
0000
0000
0000
0000
0000
0000
1000
0000
0000
0000
0000
0000
0000
0000
0000
,
1001
0000
0000
0000
0000
0000
0000
0001
0000
0000
0000
0000
0000
0000
0000
0110
,
0000
0000
0110
0000
,
1001
0000
0000
0000
0000
0000
0000
1000
0000
0000
0000
0000
0000
0000
0000
0000
,
0001
0001
0001
0001
,
0001
0000
0000
0010
,
0000
1001
0000
0000
1000
0000
0000
0000
,
1001
0000
0000
0000
,
0000
0000
0002
0000
0000
0003
0001
0000
,
1000
0000
0000
0000
,
0000
0010
0000
0000
,
0100
0000
0000
0001
,
0000
0000
0010
0000
,
0100
0000
0000
0000
,
0000
0000
0000
1000
,
0000
0000
0000
0000
,
0001
0000
0000
0000
0000
0100
0000
0000
,
0100
0000
0001
0000
,
1000
0000
0001
0000
,
0110
0000
0100
0000
,
1000
0000
0001
0000
,
0100
0100
0100
0000
,
0001
0001
0001
0001
,
0002
0000
0003
0000
,
1000
0000
0000
0000
,
1001
0000
0000
0000
0000
0000
0000
0001
0000
0000
0000
0000
0000
0000
0000
1000
,
0000
0000
0000
0000
0000
0000
0000
0010
0000
0000
0000
0000
0000
0000
0000
0000
,
0110
0000
0000
0000
0000
0000
0000
0100
0000
0000
0000
0000
0000
0000
0000
0001
,
0000
0000
0000
0000
0000
0000
0000
1000
0000
0000
0000
0000
0000
0000
0000
0000
,
0001
0000
0000
0000
0001
0000
0000
0000
0000
0000
0001
0000
0000
0000
0000
0001
,
0000
0000
0000
0000
0000
0000
0000
1000
0000
0000
0000
0000
1000
0000
0000
0000
,
1000
0000
0001
0000
,
1001
1001
0000
0000
,
1001
0000
1000
0000
,
0001
0000
0100
0000
,
0001
0000
1000
0000
,
0100
0000
0010
0000
,
0001
0000
0100
0000
,
0010
0000
1000
0000
,
1001
0000
0000
0000
,
0001
0000
0000
0000
,
1001
0000
1000
0000
,
0010
0000
0100
0000
,
0001
0000
0010
0000
,
0100
0000
1000
0000
,
0001
0000
0100
0000
,
0001
0000
1000
0000
,
1001
0000
0000
0110
,
0000
0000
1001
0000
,
1001
0000
0000
0110
,
0000
0000
1001
0000
,
1001
0000
0000
0110
,
0000
0000
0000
0000
0000
0110
0000
0000
0000
0000
0000
0000
0000
0000
1001
0000
,
0000
1001
0000
0000
;

//--------------- dance-single - ----------------
#NOTEDATA:;
#STEPSTYPE:dance-single;
#DESCRIPTION:;
#DIFFICULTY:Easy;
#METER:10;
#RADARVALUES:0.013784,0.409755,0,0,0.018556,13,13,0,0,0,0,0,0,0,0.013784,0.409755,0,0,0.018556,13,13,0,0,0,0,0,0,0;
#DISPLAYBPM:180.000;
#CHARTNAME:Barely Any Chrome;
#CHARTHASH:2469771606;
#BANNER:;
#CHARTSTYLE:;
#METERF:0.000000;
#LASTSECONDHINT:133.530182;
#CREDIT:YOSEFU;
#NOTES:
0000
0000
0000
0000
,
0000
0000
0000
0000
,
0000
0000
0000
0000
,
0000
0000
0000
0000
,
0000
0000
0000
0000
,
0000
0000
0000
0000
,
0000
0000
0000
0000
,
1000
0000
0000
1000
0000
0000
1000
0000
,
0000
0010
0000
0000
0010
0000
0000
0000
,
0100
0000
0000
0100
0000
0000
0100
0000
,
0000
0001
0000
0000
0001
0000
0000
0000
,
1001
1000
0100
0010
,
0001
0100
0010
1000
,
0001
0000
0010
0100
,
1000
0010
0100
0001
,
1000
0100
0010
0001
,
0100
0010
1000
0000
,
1001
0000
0000
0011
0000
0000
1001
0000
,
0000
1100
0000
0000
1001
0000
0000
0000
,
0220
0000
0000
0000
,
0000
0000
0000
0000
,
0000
0000
0000
0000
,
0000
0000
0000
0330
,
1000
0001
0100
0001
,
1000
0100
0010
0100
,
1000
0001
0100
0010
,
2020
0000
0000
3030
0000
0000
1000
0000
,
0001
0100
0001
1000
,
0100
0010
0001
1000
,
0010
0000
0100
0000
0010
0000
1000
0001
,
1000
0001
0100
0001
,
1000
0100
1000
0000
0001
0100
0001
0000
,
1000
0010
1000
0000
0001
0010
0001
0000
,
1000
0000
0000
1000
0000
0000
1000
0000
0000
0000
0000
0000
0001
0000
0000
0001
,
0000
0000
0001
0000
0000
0000
0000
0000
0100
0000
0000
0100
0000
0000
0100
0000
,
0002
0000
0000
0000
,
0000
0000
0000
0000
1003
0001
1000
0000
,
0001
0100
0001
0000
1000
0100
1000
0000
,
1001
0000
0000
0000
0000
0000
0000
0001
0000
0000
0001
0000
0000
0000
0000
1000
,
0000
0000
1000
0000
0000
0000
0000
0010
0000
0000
0100
0000
0000
0100
0000
0000
,
0001
0000
0000
0000
0010
0000
0000
0020
0000
0000
0000
0000
0031
0000
1000
0000
,
0001
0000
0000
0000
0100
0000
0000
0001
0000
0000
0001
0000
0000
0001
0000
0000
,
1000
0000
0000
0000
0000
0000
0000
0100
0000
0000
0100
0000
0000
0000
0000
0010
,
0000
0000
0010
0000
0000
0001
0000
0000
0001
0000
0000
1000
0000
0000
1000
0000
,
0001
0000
0000
0000
0100
0000
0000
0010
0000
0000
0010
0000
1000
0000
0000
0001
,
0000
1001
0000
0000
0000
2100
0000
0000
,
3010
0000
0000
0000
1000
0000
0000
0001
0000
0000
0001
0000
0010
0000
0000
0100
,
0000
0000
0100
0000
1000
0000
0000
0001
0000
0000
0001
0000
0000
0001
0000
0000
,
0101
0000
0000
0000
0100
0000
0000
0001
0000
0000
0001
0000
1000
0000
0000
0100
,
0000
0000
0100
0000
0000
0100
0000
0000
0110
0000
0000
0000
0010
0000
0001
0000
,
1000
0000
0000
0000
0100
0000
0000
0010
0000
0000
0010
0000
0001
0000
0000
0000
,
1000
0000
0010
1000
0000
0001
1000
0001
,
0100
0000
0000
0001
0000
0000
1000
0000
0000
0000
0000
0000
2200
0000
0000
0000
,
3300
0000
0100
0000
0000
0010
0000
0000
0001
0000
0000
1000
0000
0000
0010
0000
,
0200
0002
0000
0000
,
0300
0000
2000
0000
0000
0003
0000
0000
,
3200
0000
0000
0000
,
0000
0000
0001
0000
0000
0010
0000
0000
,
1000
0000
0000
0010
0000
0000
0001
0000
,
0000
0010
0000
0000
0001
0000
0000
0000
,
2300
0000
0100
0000
,
0001
0000
0100
0000
,
0010
0000
0100
0000
,
0001
0000
0010
0000
,
3100
0010
0001
1000
,
0010
0000
0100
0000
0001
0000
1000
0001
,
1000
0000
0100
0000
0010
0000
0001
1000
,
0001
0000
0100
0000
0010
0000
1000
0001
,
1000
0000
0100
0000
0010
0000
0001
1000
,
0001
1000
0001
1000
0001
0000
0100
0000
,
0010
0000
1000
0002
0000
0000
0000
0000
,
0000
0000
0000
0003
,
1001
0000
0000
0000
1000
0000
0000
0001
0000
0000
0001
0000
1000
0000
0000
0100
,
0000
0000
0010
0000
0001
0000
0000
0100
0000
0000
0010
0000
1000
0000
0000
0000
,
1001
0000
0000
0000
0001
0000
0000
0010
0000
0000
0010
0000
0001
0000
0000
0100
,
0000
0000
0010
0000
1000
0000
0000
0001
0000
0000
0001
0000
0010
0000
0000
0000
,
0110
0000
0000
0000
0100
0000
0000
1000
0000
0000
1001
0000
0000
0000
0000
0001
,
0000
0000
0100
0000
0010
0000
0000
1000
0000
0000
1000
0000
0100
0000
0000
0000
,
0110
0000
0000
0000
0010
0000
0000
0010
0000
0000
0010
0000
0001
0000
0000
0000
,
1000
0010
0100
0000
0000
0102
0000
0000
,
0023
0000
0000
0000
0000
0032
0000
0203
,
0000
0000
0000
0000
0000
0000
0000
0000
0000
0000
0310
0000
0000
1000
0000
0000
,
0200
0000
0000
0000
0000
0320
0000
2030
,
0000
0000
0000
0000
0000
3010
0001
1000
,
0020
0000
0000
0000
0000
0000
0130
0000
0000
0001
0000
0000
2000
0000
0000
0000
,
0000
0000
3100
0010
0100
1000
0001
0000
,
0202
0000
0000
0000
,
0000
0000
0000
0303
,
0001
0000
0000
1000
0000
0000
0000
0000
0001
0000
0000
0100
0000
0000
0000
0000
,
0001
0000
0000
0010
0000
0000
1000
0000
0000
0000
0000
0000
0010
0000
0100
0000
,
1000
0000
0000
0001
0000
0000
0000
0000
1000
0000
0000
0010
0000
0000
0000
0000
,
1000
0000
0000
0100
0000
0000
0001
0000
0000
0000
0100
0000
0010
0000
0001
0000
,
1000
0000
0000
0000
0000
0000
0001
0000
0100
0000
0000
0010
0000
0000
0100
0000
,
0010
0000
0000
1000
0000
0000
0001
0000
0000
0000
0000
0000
0010
0000
0100
0000
,
1000
0000
0000
0001
0000
0000
0100
0000
0000
0000
0000
0000
0001
0000
0000
1000
,
0000
0000
0100
0000
0000
0000
0000
0000
0010
0000
0000
0100
0000
0000
1000
0000
,
0001
0000
0000
0100
0000
0000
0010
0000
0000
0000
0000
0000
1010
0000
0000
0000
,
0000
0000
0000
0000
0000
0000
0000
0000
0010
0000
0000
0001
0000
0000
0010
0000
,
1000
0000
0000
0001
0000
0000
0100
0000
0000
0100
0000
0000
0001
0000
0000
0010
,
0000
0000
0010
0000
0000
1000
0000
0000
0010
0000
0000
0001
0000
0000
1000
0000
,
0000
0000
0010
0010
0000
0000
0000
0000
;

//--------------- dance-single - ----------------
#NOTEDATA:;
#STEPSTYPE:dance-single;
#DESCRIPTION:;
#DIFFICULTY:Medium;
#METER:14;
#RADARVALUES:0.55985,0.85676,0.682847,0.489869,0.270912,528,436,92,66,0,0,0,0,0,0.55985,0.85676,0.682847,0.489869,0.270912,528,436,92,66,0,0,0,0,0;
#DISPLAYBPM:180.000;
#CHARTNAME:Even Less Chrome;
#CHARTHASH:2072943213;
#BANNER:;
#CHARTSTYLE:Pad;
#METERF:14.000000;
#LASTSECONDHINT:133.530182;
#CREDIT:YOSEFU;
#NOTES:
0000
0000
0000
0000
,
0000
0000
0000
0000
,
0000
0000
0000
0000
,
0000
0000
0000
0000
,
0000
0000
0000
0000
,
0000
0000
0000
0000
,
0000
0000
0000
0000
,
1000
0000
0000
1000
0000
0000
1000
0000
,
0000
0010
0000
0000
0010
0000
0000
0000
,
0100
0000
0000
0100
0000
0000
0100
0000
,
0000
0001
0000
0000
0001
0000
0000
0000
,
1000
0100
0010
0100
,
1000
0000
0001
0000
0100
0000
0010
1000
,
0001
0010
0100
1000
,
0010
0000
0100
0000
0001
0000
1000
0100
,
0010
0001
0010
0100
,
1000
0000
0000
0000
0010
0000
0000
0000
0100
0000
0000
0000
0001
1000
0001
0000
,
2002
0000
3003
0202
0000
0303
0220
0000
,
0330
2020
0000
3030
2002
0000
3003
0000
,
0202
0000
0000
0000
,
0000
0000
0000
0000
,
0000
0000
0000
0000
,
0000
0000
0000
0000
0000
0300
0003
0000
,
1000
0000
0000
0000
0000
0000
0000
0001
0000
0000
0100
0000
0000
0000
0000
0001
,
0000
0000
1000
0000
0000
0000
0000
0001
0000
0000
0010
0000
0001
0000
0000
0000
,
1000
0000
0000
0000
0000
0000
0000
0010
0000
0000
0000
0000
0000
0000
0000
0000
,
0200
0000
0000
0301
1000
0100
0010
0001
,
0100
0010
1000
0010
0100
0001
1000
0000
,
0100
0010
0001
0010
0100
1000
0001
0000
,
0100
0010
1000
0001
0010
0100
1000
0001
,
0100
0010
1000
0001
0010
0100
1000
0000
,
0001
0100
0001
0100
0010
1000
0010
1000
,
0001
0010
0100
1000
0010
0100
0001
1000
,
1001
0000
0000
1001
0000
0000
0202
0000
0000
0000
0303
0000
0110
0000
0000
0110
,
0000
0000
1010
0000
0000
0000
0000
0000
1001
0000
0000
1001
0000
0000
0001
0000
,
0200
0000
0000
0000
,
0000
0000
0000
0000
0301
1000
0100
0000
,
1000
0001
0100
0000
0010
1000
0001
0010
,
0100
0000
0000
0000
1000
0000
0000
0001
0000
0000
0101
0000
0000
0000
0000
1000
,
0000
0000
1100
0000
0000
0000
0000
1001
0000
0000
0110
0000
0000
1001
0000
0000
,
0001
0000
0000
0000
1000
0000
0000
0020
0000
0000
0000
0000
1030
0000
0010
0000
,
0100
0000
0001
0000
1000
0000
0000
1001
0000
0000
0110
0000
0000
1001
0000
0000
,
0001
0000
0000
0000
1000
0000
0000
0010
0000
0000
1010
0000
0000
0000
0000
1001
,
0000
0000
0101
0000
0000
1001
0000
0000
1100
0000
0000
1001
0000
0000
0001
0000
,
0100
0000
0000
0000
0001
0000
0000
1000
0000
0000
1010
0000
0000
0000
0000
0001
,
0000
0011
0000
0000
1000
1020
0000
0000
,
0130
0000
0000
0000
0001
0000
0000
1000
0000
0000
0110
0000
0000
0000
0000
0001
,
0000
0000
0110
0000
0000
0000
0000
1010
0000
0000
1001
0000
0000
0011
0000
0000
,
1001
0000
0000
0000
1000
0000
0000
0010
0000
0000
1100
0000
0000
0000
0000
1000
,
0000
0000
0101
0000
0000
1001
0000
0000
1100
0000
0000
0000
0000
0000
0000
0000
,
1001
0000
0000
0000
0001
0000
0000
0100
0000
0000
0011
0000
0000
0000
0000
0000
,
1000
0010
1000
0000
0001
0000
1000
0010
1000
0000
0001
0000
0000
0000
0000
0000
,
1010
0000
0000
1010
0000
0000
0220
0000
0000
0000
0330
0000
0202
0000
0000
0000
,
0303
0000
1001
0000
0000
1001
0000
0000
1100
0000
0000
1100
0000
0000
0110
0000
,
0002
0000
0000
0000
,
0000
0000
2003
0000
0000
3010
0100
0001
,
1000
0100
0010
0001
,
1000
0010
0100
0010
,
1000
0001
0010
0100
,
1000
0001
0100
0001
,
1000
0100
0010
0001
,
1000
0010
0100
0001
,
1000
0100
0010
0001
,
0100
0010
1000
0001
,
1000
0010
0100
0010
1000
0001
0010
0000
,
0100
1000
0001
0100
0010
1000
0001
0000
,
1000
0100
0010
0001
1000
0010
0100
0000
,
0001
1000
0100
0010
0001
0010
0100
1000
,
0001
0100
0010
1000
0001
0010
0100
0010
,
0001
1000
0010
0100
0001
0010
0100
1000
,
0001
0100
0010
2000
0000
0000
0000
0000
,
0000
0000
0000
3000
,
2001
0000
0000
0000
3010
0000
0000
0100
0000
0000
1001
0000
0010
0000
0000
0100
,
0000
0000
1001
0000
0010
0000
0000
0001
0000
0000
1000
0000
0001
1000
0000
0001
,
2000
0000
0000
0000
3100
0000
0000
0010
0000
0000
1001
0000
0100
0000
0000
0010
,
0000
0000
1100
0000
0001
0000
0000
1000
0000
0000
0101
0000
2000
0000
0000
0000
,
3000
0000
0000
0000
0011
0000
0000
1001
0000
0000
1010
0000
0000
0000
0000
0101
,
0000
0000
1001
0000
0000
0000
0000
1000
0100
0000
1000
0000
0001
0000
0100
0000
,
0102
0000
0000
0000
1003
0000
0000
0010
0000
1000
0001
0000
0010
0000
0100
0000
,
1000
0001
0202
0000
0303
2002
0000
3003
,
2010
0000
0000
0000
0001
0000
0000
0100
0000
0000
3200
0000
0000
0000
0320
0000
,
0000
0000
0000
0000
0001
0000
0000
0000
0000
0000
0032
0000
0000
2003
0000
0000
,
3020
0000
0000
0000
1000
0000
0000
0100
0000
0000
0230
0000
0000
0000
0302
0000
,
0000
0000
0000
0000
0000
0000
0000
1000
0000
0000
1003
0000
0100
0000
0010
0000
,
0001
0000
1000
0000
0010
0000
0200
0000
0000
0301
0000
0000
2000
0000
0000
0100
,
0000
0100
3001
0100
0010
1000
0100
0010
,
0002
0000
0000
0000
,
0000
0000
0000
0000
0000
0000
0000
0000
0000
0000
0000
0000
1003
0010
1000
0000
,
0200
0000
0000
0310
0000
0000
0002
0000
0203
0000
0000
0310
0000
0000
2000
0000
,
3200
0000
0000
0310
0000
0000
0002
0000
0000
0000
1003
0000
0100
0000
0010
0000
,
0002
0000
0000
0013
0000
0000
0200
0000
2300
0000
0000
3010
0000
0000
0200
0000
,
0302
0000
0000
0013
0000
0000
0200
0000
0000
0000
0310
0000
0001
0000
1000
0000
,
0002
0000
0000
0000
1003
0000
0100
0000
0020
0000
0000
0031
0000
0000
0100
0010
,
2000
0000
0000
3100
0000
0000
0020
0000
0000
0000
0031
0000
1000
0000
0100
0000
,
0110
0000
0000
0110
0000
0000
0022
0000
0000
0000
0033
0000
1001
0000
0000
1001
,
0000
0000
2020
0000
0000
0000
3030
0000
0110
0000
0000
0110
0000
0000
0100
0000
,
1001
0000
0000
1001
0000
0000
2200
0000
0000
0000
3300
0000
1001
0000
0000
0000
,
0001
0000
0000
0000
1000
0000
0100
0000
0110
0000
0000
0110
0000
0000
0010
0000
,
1001
0000
0000
1010
0000
0000
1001
0000
0000
0011
0000
0000
1001
0000
0000
1100
,
0000
0000
1001
0000
0000
0101
0000
0000
1001
0000
0000
0110
0000
0000
1001
0000
,
0000
0000
0100
0100
0000
0000
0000
0000
;

//--------------- dance-single - ----------------
#NOTEDATA:;
#STEPSTYPE:dance-single;
#DESCRIPTION:;
#DIFFICULTY:Hard;
#METER:16;
#RADARVALUES:0.754949,1.005762,0.541824,0.489869,0.616047,712,639,73,66,0,0,0,0,0,0.754949,1.005762,0.541824,0.489869,0.616047,712,639,73,66,0,0,0,0,0;
#DISPLAYBPM:180.000;
#CHARTNAME:Less Chrome;
#CHARTHASH:1491397326;
#BANNER:;
#CHARTSTYLE:;
#METERF:16.000000;
#LASTSECONDHINT:133.530182;
#CREDIT:YOSEFU;
#NOTES:
0000
0000
0000
0000
,
0000
0000
0000
0000
,
0000
0000
0000
0000
,
0000
0000
0000
0000
,
0000
0000
0000
0000
,
0000
0000
0000
0000
,
0000
0000
0000
0000
,
1000
0000
0000
1000
0000
0000
1000
0000
,
0000
0010
0000
0000
0010
0000
0000
0000
,
0100
0000
0000
0100
0000
0000
0100
0000
,
0000
0001
0000
0000
0001
0000
0000
0000
,
1000
0000
0010
0000
0100
0001
1000
0100
,
0010
0000
0001
0000
0010
0000
0100
0000
1000
0000
0010
0000
0010
0000
0100
0001
,
1000
0000
0100
0000
0010
0001
1000
0010
,
0100
0000
0001
0000
0010
0000
0100
0000
1000
0000
0001
0100
0010
0000
1000
0001
,
0010
0100
1000
0001
0000
0100
0010
0000
,
1000
0000
0001
0000
0000
0000
0010
0000
0100
0000
1000
0000
0001
0100
0001
0100
,
0020
0000
0030
2020
0000
3030
2002
0000
,
3003
0022
0000
0033
0220
0000
0330
0000
,
2002
0000
0000
0000
,
0000
0000
0000
3000
,
1003
0100
0010
0100
,
1000
0000
0001
0000
0100
0010
1000
0001
,
0010
0100
1000
0010
,
0100
0000
0001
0000
1000
0100
0010
0100
,
1000
0001
0100
0010
,
2000
0000
0000
0000
0000
0000
3001
0000
1000
0010
1000
0000
0001
0010
0001
0000
,
1000
0010
1000
0010
0100
0001
0100
0001
,
1000
0100
1000
0100
0010
0001
0010
0001
,
1000
0010
0100
0001
1000
0001
0010
0100
,
1000
0001
0010
0100
1000
0010
0100
0001
,
1000
0010
1000
0010
1000
0000
0001
0000
0010
0100
0010
0100
0010
0000
0001
0000
,
0100
0001
0100
0001
0100
0000
0010
0000
1000
0010
1000
0010
0100
0001
0100
0001
,
1000
0000
0000
1001
0000
0000
0022
0000
0000
0000
0033
0000
0110
0000
0000
1100
,
0000
0000
2002
0000
0000
0000
3003
0000
0101
0000
0000
0110
0000
0000
1010
0000
,
2000
0000
0000
0000
,
0000
0000
0000
0000
0000
0000
0000
0000
3001
0000
0020
0030
0001
0000
1000
0010
,
0100
0001
2000
3000
0002
0000
1003
0010
0000
0000
0100
0000
0001
1000
0001
0000
,
1001
0000
0000
0000
1000
0000
0001
0100
0000
0001
0100
0000
0001
0000
1000
0100
,
0000
1000
0100
0000
1000
0000
0001
0100
0000
0000
1001
0000
0000
1100
0000
0000
,
0110
0000
0000
0000
0001
0000
1000
0020
0000
0000
0000
0000
0130
0000
0001
1000
,
0010
1000
0000
0000
0001
0010
0001
1000
0000
0000
1010
0000
0000
0110
0000
0000
,
0101
0000
0000
0000
0001
0000
1000
0010
0000
1000
0010
0000
0100
0001
0100
0001
,
0000
0000
1001
0000
0000
1100
0000
0000
0110
0000
0000
0011
0000
0000
1001
0000
,
1010
0000
0000
0000
1000
0000
0001
0010
0000
0001
1000
0000
0001
0100
0001
0100
,
0000
0000
1001
0000
0001
0010
0001
0010
0001
0000
2100
0000
0000
0000
0000
0000
,
3010
0000
0000
0000
0100
0000
0001
2000
0000
0000
3010
0000
1000
0000
0001
0020
,
0000
0000
0130
1000
0100
1000
0100
1000
0000
0000
1001
0000
0000
0101
0000
0000
,
1001
0000
0000
0000
0001
0000
1000
0200
0000
0000
0310
0000
1000
0010
0100
1000
,
0000
0000
1001
0000
0000
0011
0000
0000
0110
0000
1000
0001
1000
0001
1000
0000
,
0002
0000
0000
0000
1003
0000
0100
0020
0000
0000
0031
1000
0100
1000
0001
0000
,
1000
0010
0100
0010
1000
0000
0001
0010
0100
0010
0001
0000
1000
0000
0010
0000
,
0110
0000
0000
0101
0000
0000
2200
0000
0000
0000
3300
0000
2002
0000
0000
0000
,
3003
0000
0101
0000
0000
0110
0000
0000
1010
0000
0000
1100
0000
0000
1001
0000
,
0001
0000
1000
0010
0100
0001
1000
0100
,
0010
0000
0001
0000
0200
0000
0000
0000
0000
0000
0310
0000
1000
0001
1000
0000
,
0001
0010
0100
1000
,
0001
0100
0010
1000
,
0100
0010
0001
1000
,
0010
0100
0001
0010
,
0100
0010
0001
1000
,
0010
0100
0001
0010
,
0100
1000
0010
0100
,
0001
1000
0100
0010
,
0001
0100
0001
0100
0010
1000
0010
1000
,
0001
0010
0001
0010
0100
1000
0100
1000
,
0001
0100
0010
1000
0001
1000
0100
0010
,
0001
0000
1000
0000
0010
0000
0100
0000
0001
1000
0001
1000
0001
0000
0100
0000
,
0010
1000
0010
1000
0010
0000
0100
0000
0001
1000
0001
1000
0010
0100
0010
0100
,
0010
0000
1000
0000
0100
0010
0100
0010
0001
1000
0001
1000
0001
0000
0100
0000
,
0010
1000
0001
0020
0000
0000
0000
0000
,
0000
0000
0000
0031
,
1002
0000
0000
0000
0103
0000
0001
1000
0000
0001
0010
0000
0100
0000
1000
0100
,
0000
1000
0001
0000
0100
0000
0001
0010
0000
0001
1000
0000
0010
0100
0000
0001
,
2000
0000
0000
0000
3001
0000
1000
0010
0000
1000
0001
0000
0010
0000
0001
0100
,
0000
0001
1000
0000
0100
0000
0010
0001
0000
1000
0010
0000
0200
0000
0000
0000
,
0320
0000
0000
0000
1030
0000
0001
0100
0000
0001
1000
0000
0100
1000
0100
1000
,
0000
0001
0100
0000
0001
0000
1000
0010
0000
0100
0001
0000
1000
0100
0000
0010
,
0002
0000
0000
0000
1003
0000
0010
0100
0000
0001
1000
0000
0100
0000
0010
0001
,
1000
0000
0001
0000
0202
0000
0303
0000
0100
0000
0001
1000
0010
1000
0001
0010
,
0200
0000
0000
0000
1300
0000
0001
0100
0000
0001
1000
0000
0100
0000
0010
0001
,
0000
1000
0010
0000
0100
0000
0001
1000
0000
0001
0100
0000
0010
1000
0001
0000
,
0020
0000
0000
0000
0130
0000
1000
0001
0000
0100
0010
0000
1000
0000
0001
0010
,
0000
0100
1000
0000
0001
0000
0100
0010
0000
1000
0001
0000
0010
0100
1000
0100
,
0020
0000
0000
0000
0031
0000
1000
0010
0000
1000
0001
0000
0010
0000
0100
1000
,
0000
0001
0100
0000
0010
1000
0001
1000
0010
0000
0100
0000
0001
0010
0100
1000
,
0002
0000
0000
0000
,
1003
0000
0000
0000
0010
0000
0000
0000
0100
0001
1000
0000
0001
0000
1000
0000
,
0020
0000
0000
0130
0000
0000
0002
0000
0023
0000
0000
0130
0000
0000
2000
0000
,
3020
0000
0000
0130
0000
0000
2000
0000
0000
0000
3100
0010
1000
0001
0010
0000
,
0002
0000
0000
0103
0000
0000
0020
0000
2030
0000
0000
3100
0000
0000
0020
0000
,
0032
0000
0000
0103
0000
0000
2000
0000
0000
0000
3100
0000
0001
1000
0100
0010
,
0002
0000
0000
0000
1003
0000
0010
0000
0200
0000
0000
0301
0000
0000
0010
0100
,
2000
0000
0000
3100
0000
0000
0002
0000
0000
0000
0103
0010
0001
1000
0001
0000
,
1001
0000
0000
1100
0000
0000
0220
0000
0000
0000
0330
0000
0011
0000
0000
0101
,
0000
0000
2200
0000
0000
0000
3300
0000
1010
0000
0000
0011
0000
0000
0101
0000
,
1001
0000
0000
1010
0000
0000
0202
0000
0000
0000
0303
0000
0001
0000
1000
0100
,
1000
0000
0001
0100
0001
0000
1000
0000
1010
0000
0000
0011
0000
0000
0101
0000
,
1100
0000
0000
1010
0000
0000
0110
0000
0000
0101
0000
0000
0011
0000
0000
0110
,
0000
0000
1100
0000
0000
0101
0000
0000
0011
0000
0000
1010
0000
0000
1100
0000
,
0100
1000
0001
0000
1001
0000
1001
0000
0000
0000
0000
0000
0000
0000
0000
0000
;

//--------------- dance-single - BU-- (32nd), FS-, XO, XMOD ----------------
#NOTEDATA:;
#STEPSTYPE:dance-single;
#DESCRIPTION:BU-- (32nd), FS-, XO, XMOD;
#DIFFICULTY:Challenge;
#METER:18;
#RADARVALUES:1.006245,1.266515,0.304312,0.408224,1.254361,949,908,41,55,10,0,0,0,0,1.006245,1.266515,0.304312,0.408224,1.254361,949,908,41,55,10,0,0,0,0;
#DISPLAYBPM:180.000;
#CHARTNAME:BECØME CHRØME;
#CHARTHASH:3094525374;
#BANNER:;
#CHARTSTYLE:Pad;
#METERF:18.000000;
#LASTSECONDHINT:133.530182;
#CREDIT:-YØSEFŪ-;
#NOTES:
0000
0000
0000
0000
,
0000
0000
0000
0000
,
0000
0000
0000
0000
,
0000
0000
0000
0000
,
0000
0000
0000
0000
,
0000
0000
0000
0000
,
0000
0000
0000
0000
,
1000
0010
0100
0001
0000
0010
0001
0000
,
0000
0100
0000
0000
0100
0010
1000
0001
,
0010
0001
0000
1000
0000
0000
1000
0010
,
0100
0001
0000
0010
0100
0000
1000
0000
,
0001
0000
0000
0000
1000
0000
0010
0000
1000
0010
1000
0010
0100
0001
0100
0001
,
1000
0100
1000
0100
0010
0001
0010
0001
1000
0010
0100
0001
1000
0001
0010
0100
,
1000
0000
0000
0000
0001
0000
0100
0000
0001
0100
0001
0100
0010
1000
0010
1000
,
0001
0010
0001
0010
0100
1000
0100
1000
0001
0100
0010
1000
0001
1000
0100
0010
,
0001
0010
0100
1000
0000
0010
0100
0000
,
0001
0000
0100
0000
0000
0000
0001
0000
0100
0000
0010
0000
1000
0100
0010
0001
,
0022
0033
0001
2002
3003
1000
2200
3300
,
0100
0220
0330
0010
0022
0033
0001
0000
,
2002
0000
0000
0000
,
0000
0000
0000
3000
,
1003
0010
0100
0000
0001
1000
0100
0000
,
1000
0100
0010
0000
0100
0001
0100
0000
,
1000
0001
0010
0000
0100
1000
0001
0000
,
0100
0010
1000
0000
0001
0010
0100
0000
,
1000
0001
0100
0000
0010
1000
0001
0000
,
0020
0000
0000
0000
0000
0000
1030
0000
0010
0100
1000
0001
0100
0010
1000
0001
,
0010
0000
0001
0000
1000
0000
0001
0000
0010
0000
0100
0000
1000
0000
0001
1000
,
0100
0000
0010
0000
0100
0000
1000
0000
0001
0000
0100
0000
0010
0100
0001
1000
,
0100
0000
0010
0000
0001
0000
1000
0000
0001
0000
0100
0000
1000
0100
0001
1000
,
0001
0000
1000
0000
0100
0000
0010
0001
0000
1000
0010
0000
0100
1000
0000
0100
,
0010
1000
0001
1000
0010
1000
0001
0010
0100
1000
0001
0100
0001
1000
0100
0010
,
0001
1000
0001
0100
0010
1000
0001
1000
0100
0010
0001
0100
0010
1000
0001
0010
,
0011
0000
0000
1001
0000
0000
1020
0000
0000
0000
1030
0100
1100
0000
0000
1001
,
0000
0000
0201
0000
0000
0000
0301
0000
0011
0000
1000
0001
0000
1000
0010
0000
,
0200
2300
3002
0023
,
2030
0000
0000
0000
3002
0000
0000
0000
0103
0000
0020
0030
1000
0000
0001
1000
,
0100
0000
0000
M100
0000
0000
0020
0000
0000
0030
0000
0000
1000
0000
0001
0000
1000
0000
0001
0000
0000
0000
0000
0000
0100
0000
0000
0000
0000
0000
0010
0000
0000
0000
0000
0000
1000
0000
0000
0100
0000
0000
0010
0000
0000
0001
0000
0000
,
0100
0000
0000
0000
0000
0000
0001
0000
1000
0000
0001
0000
1000
0000
0000
0100
0000
0000
0010
0000
0000
0001
0000
0000
0000
0000
0000
1000
0000
0000
0001
0000
0000
0000
0000
0000
0100
0000
0000
0010
0000
0000
1000
0000
0000
0001
0000
0000
,
0000
0010
0001
0000
2000
0000
3000
1001
0000
0000
0110
0000
0000
1010
0000
0000
,
1001
0000
0000
0000
1000
0001
0010
0200
0000
0000
1000
0000
0310
0000
0001
1000
,
0010
0100
0001
1000
0100
0010
0100
1000
0010
0100
0001
0010
0100
1000
0010
0100
,
0001
0000
0000
0000
1000
0100
0010
0001
0000
1000
0001
0100
0010
0100
0010
0001
,
0000
0010
1000
0000
0100
0010
0000
0100
0001
0000
0100
1000
0000
0001
0100
0010
,
1000
0001
0010
0100
1000
0001
0100
0010
0000
1000
0001
0000
0010
0100
1000
0010
,
0000
0100
0001
0000
1000
0010
M010
0001
1000
0010
2010
0000
0000
0000
0000
0000
,
3001
0000
0000
0000
0000
0000
1000
0000
0001
0000
1000
0000
0001
0000
0000
0100
0000
0000
0010
0000
0000
2000
0000
0000
0000
0000
0000
3001
0000
0000
0010
0000
0000
0000
0000
0000
0100
0000
0000
1000
0000
0000
0001
0000
0000
0100
0000
0000
,
0020
0000
1030
0001
1000
0001
1000
0200
0000
0310
0002
0000
1003
0020
0000
0030
,
1001
0000
0000
0000
1000
0010
0100
0002
0000
0000
0103
0000
1000
0100
0001
2000
,
0000
3100
1000
0000
0001
0100
0000
0010
1000
0000
0001
0010
0100
1000
0001
0000
,
1002
0000
0000
0000
0000
0000
0000
0000
1003
0000
0010
0000
0100
0001
0200
0000
0000
0000
0000
0000
0301
0000
1000
0000
0100
0000
0010
0000
0001
0000
0100
0000
,
0010
1000
0010
1000
0001
0010
0001
0100
0001
1000
0100
1000
0001
0010
0100
0000
,
1100
0000
1000
0001
0000
0000
0201
0000
0000
0000
0301
1000
2002
0000
0000
0000
,
3003
0000
0101
0000
0001
1000
0000
0010
0001
0000
0010
0100
0000
0001
1000
0000
,
1001
0000
0000
0000
0001
0010
0001
0010
0100
1000
0100
1000
0001
0100
0001
0100
,
0010
1000
0010
1000
0200
0000
0000
0010
0000
0000
0301
0000
0100
1000
0001
0100
,
0010
1000
0001
0010
,
0100
0000
1000
0000
0001
0100
0010
0000
,
1000
0000
0001
0010
0100
0000
0010
0000
,
0001
1000
0010
0000
0100
1000
0100
0000
,
0010
0100
0001
0000
1000
0100
0010
0000
,
0001
0100
0010
0000
1000
0001
0010
0000
,
0001
1000
0010
0000
0100
0001
1000
0000
,
0100
1000
0001
0000
0100
0010
1000
0001
,
0010
0100
1000
0001
0100
0010
1000
0001
,
1000
0100
0010
0001
1000
0010
1000
0001
,
0010
0100
1000
0010
1000
0100
0001
0100
,
0010
0000
0100
0000
1000
0000
0001
0000
0100
0010
1000
0001
1000
0100
0010
0001
,
0010
0100
1000
0001
0100
0001
1000
0100
0010
0001
1000
0010
1000
0100
0010
0100
,
1000
0010
0100
0001
1000
0100
0010
0100
0001
0100
0010
0001
1000
0010
0100
0001
,
1000
0000
0100
0000
0010
0000
0001
0000
1000
0010
1000
0010
0100
0001
0100
0001
,
1000
0100
1000
0100
0010
0001
0010
0001
1000
0010
0100
0001
1000
0000
0000
0000
,
1002
0000
0000
0000
0103
0010
1000
0001
0000
0010
0100
0000
1000
0001
0100
0010
,
0000
1000
0001
0000
0010
0100
1000
0010
0000
0100
0001
0000
0100
0010
0000
0001
,
0020
0000
0000
0000
0000
0000
0000
0000
1030
0000
0001
0000
0100
0000
010M
0000
0000
0000
1000
0001
1000
0000
0000
0000
0100
0000
0010
0000
0001
0000
0100
0000
,
0000
0010
1000
0000
0001
1000
0100
M100
0000
0001
0100
0000
0020
0000
0000
0000
,
2030
0000
0000
0000
3010
0000
1000
0100
0000
0010
0001
0000
1000
0010
0100
0001
,
0000
1000
0100
0000
0010
0001
1000
0100
M100
0000
0001
0000
1000
0010
0000
0100
,
0002
0000
0000
0000
0000
0000
0000
0000
1003
0000
0010
0000
0100
0000
0001
0000
0000
0000
1000
0001
1000
0000
0000
0000
0001
0000
0010
0000
0100
0000
1000
0000
,
0010
0000
0100
0000
0101
0000
0000
0000
0001
0000
1001
0000
1000
0100
0010
0001
,
0200
0000
0000
0000
0301
1000
0100
M100
0001
1000
0100
0010
0100
1000
0001
0100
,
0010
1000
0001
0010
0100
1000
0100
M100
0001
1000
0010
1000
0001
0010
0100
1000
,
0020
0000
0000
0000
1030
0001
0100
010M
1000
0010
0100
0001
0010
0100
0010
0001
,
1000
0010
0100
0001
1000
0001
0100
010M
1000
0100
0010
0001
1000
0010
0100
0010
,
1000
0001
0010
0001
1000
0001
0100
010M
1000
0010
0100
0001
1000
0100
0010
0100
,
1000
0001
0100
0010
1000
0010
1000
0010
0001
0010
0100
0001
1000
0100
0010
0001
,
0200
0000
0000
0000
,
0310
0000
1000
0000
0001
0000
1000
0010
0100
0001
0010
0100
1000
0001
0100
0000
,
0201
0000
0000
0000
0301
1000
0100
0010
0000
0001
1000
0000
0010
0100
0001
0010
,
0000
0100
1000
0000
0010
0100
1000
0100
0000
0010
1000
0001
0010
0100
1000
0100
,
0020
0000
0000
0000
0031
0100
0010
1000
0000
0100
0010
0000
0001
1000
0010
0100
,
0000
0001
0010
0000
0100
0010
1000
0010
0000
0100
1000
0010
0001
0010
0100
0001
,
2000
0000
0000
0000
3100
0000
0010
0001
0000
1000
0010
0000
0100
0001
1000
0100
,
0000
0010
0001
0000
1000
0010
0100
0001
0010
0100
1000
0001
0100
0010
1000
0001
,
1001
0000
0000
1010
0000
0000
0220
0000
0000
0000
0330
0000
1001
0000
0001
0100
,
0000
1000
0200
0000
0000
0000
0300
0000
0101
0000
0001
0010
0000
1000
0010
0000
,
0011
0000
0000
1001
0000
0000
2020
0000
0000
0000
3030
0000
1000
0000
0010
0100
,
0001
0000
1000
0100
0010
0001
1000
0010
1010
0000
0000
0110
0000
0000
0100
0001
,
1000
0000
0001
0100
0000
1000
0100
0000
0010
0100
0000
0001
1000
0000
0100
0001
,
0000
0100
1000
0000
0001
0100
0000
1000
0100
0000
0001
0010
0000
1000
0010
0000
,
0100
1000
0001
0000
1001
0000
1001
0000
0000
0000
0000
0000
0000
0000
0000
0000
;

//--------------- dance-single - BR+, BU-- (32nd), FS-, XO, XMOD ----------------
#NOTEDATA:;
#STEPSTYPE:dance-single;
#DESCRIPTION:BR+, BU-- (32nd), FS-, XO, XMOD;
#DIFFICULTY:Edit;
#METER:18;
#RADARVALUES:1.059261,1.266515,0.653158,0.408224,1.265494,999,911,88,55,10,2,0,0,0,1.059261,1.266515,0.653158,0.408224,1.265494,999,911,88,55,10,2,0,0,0;
#DISPLAYBPM:180.000;
#CHARTNAME:BRACKET ĪMPŪLSE;
#CHARTHASH:413162604;
#BANNER:;
#CHARTSTYLE:Pad I Guess;
#METERF:18.000000;
#LASTSECONDHINT:133.530182;
#CREDIT:YOSEFU feat. BR+;
#NOTES:
0000
0000
0000
0000
,
0000
0000
0000
0000
,
0000
0000
0000
0000
,
0000
0000
0000
0000
,
0000
0000
0000
0000
,
0000
0000
0000
0000
,
0000
0000
0000
0000
,
1000
0010
0100
0001
0000
0010
0001
0000
,
0000
0100
0000
0000
0100
0010
1000
0001
,
0010
0001
0000
1000
0000
0000
1000
0010
,
0100
0001
0000
0010
0100
0000
1000
0000
,
0001
0000
0000
0000
1000
0000
0010
0000
1000
0010
1000
0010
0100
0001
0100
0001
,
1000
0100
1000
0100
0010
0001
0010
0001
1000
0010
0100
0001
1000
0001
0010
0100
,
1000
0000
0000
0000
0001
0000
0100
0000
0001
0100
0001
0100
0010
1000
0010
1000
,
0001
0010
0001
0010
0100
1000
0100
1000
0001
0100
0010
1000
0001
1000
0100
0010
,
0001
0010
0100
1000
0000
0010
0100
0000
,
0001
0000
0100
0000
0000
0000
0001
0000
0100
0000
0010
0000
1000
0100
0010
0001
,
2020
3030
0001
2200
3300
0001
2020
3030
,
0100
2020
3030
0001
2200
3300
0001
0000
,
2002
0000
0000
0000
,
0000
0000
0000
3000
,
1003
0010
0100
0000
0001
1000
0100
0000
,
1000
0100
0010
0000
0100
0001
0100
0000
,
1000
0001
0010
0000
0100
1000
0001
0000
,
0100
0010
1000
0000
0001
0010
0100
0000
,
1000
0001
0100
0000
0010
1000
0001
0000
,
0020
0000
0000
0000
0000
0000
1030
0000
0010
0100
1000
0001
0100
0010
1000
0001
,
0010
0000
0001
0000
1000
0000
0001
0000
0010
0000
0100
0000
1000
0000
0001
1000
,
0100
0000
0010
0000
0100
0000
1000
0000
0001
0000
0100
0000
0010
0100
0001
1000
,
0100
0000
0010
0000
0001
0000
1000
0000
0001
0000
0100
0000
1000
0100
0001
1000
,
0001
0000
1000
0000
0100
0000
0010
0001
0000
1000
0010
0000
0100
1000
0000
0100
,
0010
1000
0001
1000
0010
1000
0001
0010
0100
1000
0001
0100
0001
1000
0100
0010
,
0001
1000
0001
0100
0010
1000
0001
1000
0100
0010
0001
0100
0010
1000
0001
0010
,
0101
0000
0000
1001
0000
0000
1020
0000
0000
0000
1030
0001
1010
0000
0000
1001
,
0000
0000
0201
0000
0000
0000
0301
0000
0011
0000
1000
0101
0000
1000
0011
0000
,
0200
2300
3002
0023
,
2030
0000
0000
0000
3002
0000
0000
0000
0103
0000
0020
0030
1000
0000
0001
1000
,
0100
0000
0000
010M
0000
0000
0020
0000
0000
0030
0000
0000
1000
0000
0001
0000
1000
0000
0001
0000
0000
0000
0000
0000
0100
0000
0000
0000
0000
0000
0010
0000
0000
0000
0000
0000
1000
0000
0000
0100
0000
0000
0010
0000
0000
0001
0000
0000
,
1100
0000
0000
0000
0000
0000
0001
0000
1000
0000
0001
0000
1000
0000
0000
0100
0000
0000
0010
0000
0000
0001
0000
0000
0000
0000
0000
1000
0000
0000
0001
0000
0000
0000
0000
0000
0100
0000
0000
0010
0000
0000
1000
0000
0000
0001
0000
0000
,
0000
0010
0001
0000
2000
0000
3000
1001
0000
0000
0110
0000
0000
1010
0000
0000
,
1001
0000
0000
0000
1000
0001
0010
0200
0000
0000
1000
0000
0310
0000
0001
1000
,
0010
0100
0001
1000
0100
0010
0100
1010
0100
1000
0101
1000
0010
0100
0001
1000
,
0101
0000
0000
0000
1000
0100
0010
0001
0000
1000
0001
0100
0001
1000
0010
1100
,
0000
0010
1100
0000
0001
1010
0000
0100
1010
0000
0001
1100
0000
0001
1010
0001
,
1100
0001
0010
0100
1000
0001
0100
0010
0000
1000
0001
0000
0010
0100
1000
0011
,
0000
0100
0011
0000
1000
0010
0M10
0001
1000
0010
2100
0000
0000
0000
0000
0000
,
3011
0000
0000
0000
0000
0000
1000
0000
0001
0000
1000
0000
0001
0000
0000
0100
0000
0000
0010
0000
0000
2000
0000
0000
0000
0000
0000
3001
0000
0000
0010
0000
0000
0000
0000
0000
0100
0000
0000
1000
0000
0000
0001
0000
0000
0100
0000
0000
,
0020
0000
1030
0001
1000
0001
1000
0201
0000
0310
0102
0000
1003
0021
0000
0030
,
1001
0000
0000
0000
1000
0010
0100
0002
0000
0000
0103
0000
1000
0100
0001
2100
,
0000
3001
1010
0000
0001
1100
0000
0001
1010
0000
0001
0010
0100
1000
0001
0000
,
1002
0000
0000
0000
0000
0000
0000
0000
1003
0000
0010
0000
0100
0000
0002
0000
0000
0000
0000
0000
1003
0000
0100
0000
0010
0000
0001
1000
0001
0000
0010
0000
,
0100
1000
0010
0100
0001
0010
0001
0100
0010
1000
0100
1000
0001
0010
0100
1000
,
0101
0000
1000
0011
0000
0000
0201
0000
0000
0000
0301
1000
0022
0000
0000
0000
,
0033
0000
1100
0000
0001
1010
0000
0001
1100
0000
0010
1100
0000
0001
1010
0000
,
1001
0000
0000
0000
0001
0010
0001
0010
0100
1000
0100
1000
0001
0100
0001
0100
,
0010
1000
0010
1000
0200
0000
0000
0010
0000
0000
0301
0000
0100
1000
0001
0100
,
0010
1000
0001
0010
,
0100
0000
1000
0000
0001
0100
0010
0000
,
1000
0000
0001
0010
0100
0000
0010
0000
,
0001
1000
0010
0000
0100
1000
0100
0000
,
0010
0100
0001
0000
1000
0100
0010
0000
,
0001
0100
0010
0000
1000
0001
0010
0000
,
0001
1000
0010
0000
0100
0001
1000
0000
,
0100
1000
0001
0000
0100
0010
1000
0001
,
0010
0100
1000
0001
0100
0010
1000
0001
,
1000
0100
0010
0001
1000
0010
1000
0001
,
0010
0100
1000
0010
1000
0100
0001
0100
,
0010
0000
0100
0000
1000
0000
0001
0000
0100
0010
1000
0001
1000
0100
0010
0001
,
0010
0100
1000
0001
0100
0001
1000
0100
0010
0001
1000
0010
1000
0100
0010
0100
,
1000
0010
0100
0001
1000
0100
0010
0100
0001
0100
0010
0001
1000
0010
0100
0001
,
1000
0000
0100
0000
0010
0000
0001
0000
1000
0010
1000
0010
0100
0001
0100
0001
,
1000
0100
1000
0100
0010
0001
0010
0001
1000
0010
0100
0001
1000
0000
0000
0000
,
1002
0000
0000
0000
0103
0010
1000
0001
0000
0010
0100
0000
1000
0001
0100
0010
,
0000
1000
0001
0000
0010
0100
1000
0010
0000
0100
0001
0000
0100
0010
0000
0001
,
0020
0000
0000
0000
0000
0000
0000
0000
1030
0000
0001
0000
0100
0000
01M0
0000
0000
0000
1000
0001
1000
0000
0000
0000
0100
0000
0010
0000
0001
0000
0100
0000
,
0000
0010
1000
0000
0001
1000
0100
01M0
0000
0001
0100
0000
0020
0000
0000
0000
,
2030
0000
0000
0000
3101
0000
1000
0011
0000
1000
0101
0000
1000
0010
0100
0001
,
0000
1000
0100
0000
0010
0001
1000
0100
01M0
0000
0001
0000
1000
0010
0000
0100
,
0002
0000
0000
0000
0000
0000
0000
0000
1003
0000
0010
0000
0100
0000
0001
0000
0000
0000
1000
0001
1000
0000
0000
0000
0001
0000
0010
0000
0100
0000
1000
0000
,
0010
0000
0100
0000
0011
0000
0000
0000
1000
0000
0101
0010
0001
0100
0010
1000
,
0201
0000
0000
0000
1300
0001
0100
01M0
1000
0001
0100
0010
0100
0001
1000
0100
,
0010
0001
1000
0010
0100
0001
0100
01M0
1000
0001
0010
0001
1000
0010
0100
0001
,
0020
0000
0000
0000
0031
1000
0100
01M0
0001
0010
0100
1000
0010
0100
0010
1000
,
0001
0010
0100
1000
0001
1000
0100
01M0
0001
0100
0010
1000
0001
0010
0100
0010
,
0001
1000
0010
1000
0001
1000
0100
01M0
0001
0010
0100
1000
0001
0100
0010
0100
,
0001
1000
0100
0010
0001
0010
0001
0010
1000
0010
0100
1000
0001
0100
0010
1000
,
0200
0000
0000
0000
,
0310
0000
0001
0000
1000
0000
0001
0010
0100
1000
0010
0100
0001
1000
0100
0010
,
0201
0000
0000
0000
1300
0001
0100
0010
0000
1000
0001
0000
0100
0010
1000
0100
,
0000
0010
0001
0000
0100
0010
0001
0010
0000
0100
0001
1000
0100
0010
0001
0010
,
0200
0000
0000
0000
1300
0010
0100
0001
0000
0010
0100
0000
1000
0001
0100
0010
,
0000
1000
0100
0000
0010
0100
0001
0100
0000
0010
0001
0100
1000
0100
0010
1000
,
0002
0000
0000
0000
0013
0000
0100
1000
0000
0001
0100
0000
0010
1000
0001
0010
,
0000
0100
1000
0000
0001
0100
0010
1000
0100
0010
0001
1000
0010
0100
0001
1000
,
0011
0000
0000
1001
0000
0000
0220
0000
0000
0000
0330
0000
1001
0000
1000
0101
,
0000
1000
0021
0000
0000
0000
0030
0000
1010
0000
1000
0011
0000
1000
0101
0000
,
1100
0000
0000
1001
0000
0000
0202
0000
0000
0000
0303
0000
0001
0000
0100
0010
,
1000
0000
0001
0010
0100
1000
0001
0100
0011
0000
0000
0110
0000
0000
0010
1000
,
0101
0000
1000
0011
0000
0100
0011
0000
1000
0101
0000
0010
0101
0000
1000
0011
,
0000
0100
0011
0000
1000
0101
0000
0010
0101
0000
1000
0101
0000
1000
0011
0000
,
1000
0001
0010
0000
0101
0000
0101
0000
0000
0000
0000
0000
0000
0000
0000
0000
;
