#VERSION:0.83;
#TITLE:チ・ー・ズ・バ・ク・ダ・ン;
#SUBTITLE:;
#ARTIST:かめりあ feat. ななひら;
#TITLETRANSLIT:C.H.E.E.S.E.B.O.M.B.;
#SUBTITLETRANSLIT:;
#ARTISTTRANSLIT:Camellia feat. nanahira;
#GENRE:Eurobeat;
#ORIGIN:ごーいん! [KCCD-007];
#TAGS:;
#CREDIT:skeleton made by Karl with a K;
#BANNER:CHEESEBOMB.png;
#BACKGROUND:CHEESEBOMB-bg.png;
#PREVIEWVID:;
#JACKET:CHEESEBOMB-jacket.png;
#CDIMAGE:;
#DISCIMAGE:;
#LYRICSPATH:;
#CDTITLE:../_YSD cdtitles/ysd sale4 cdtitle.png;
#MUSIC:CHEESEBOMB.ogg;
#OFFSET:-0.025000;
#SAMPLESTART:52.550999;
#SAMPLELENGTH:24.000000;
#SELECTABLE:YES;
#BPMS:0.000000=160.000000
;
#STOPS:;
#DELAYS:;
#WARPS:;
#TIMESIGNATURES:0.000000=4=4
;
#TICKCOUNTS:0.000000=4
;
#COMBOS:0.000000=1
;
#SPEEDS:0.000000=1.000000=0.000000=0
;
#SCROLLS:0.000000=1.000000
;
#FAKES:;
#LABELS:0.000000=Song Start
;
#BGCHANGES:;
#KEYSOUNDS:;
#ATTACKS:
;

//---------------dance-single - ----------------
#NOTEDATA:;
#CHARTNAME:;
#CHARTHASH:3360439211;
#STEPSTYPE:dance-single;
#BANNER:;
#DESCRIPTION:;
#CHARTSTYLE:;
#DIFFICULTY:Beginner;
#METER:5;
#METERF:0.000000;
#LASTSECONDHINT:109.525002;
#RADARVALUES:0.189143,0.256033,0.122755,0.131524,0.000000,151.000000,137.000000,14.000000,15.000000,0.000000,0.000000,0.000000,0.000000,0.000000,0.189143,0.256033,0.122755,0.131524,0.000000,151.000000,137.000000,14.000000,15.000000,0.000000,0.000000,0.000000,0.000000,0.000000;
#CREDIT:YOSEFU;
#NOTES:
// measure 0
0000
0000
0000
0000
,  // measure 1
0000
0000
0000
0000
,  // measure 2
0000
0000
0000
0000
,  // measure 3
0000
0000
0000
0000
,  // measure 4
0000
0000
0000
0000
,  // measure 5
2000
0000
0000
0000
3000
0000
0000
0002
,  // measure 6
0000
0000
0000
0003
0000
0000
0000
0200
,  // measure 7
0000
0000
0000
0300
0000
0000
0000
0000
,  // measure 8
0020
0000
0030
0000
,  // measure 9
2000
0000
0000
3000
0000
0000
0000
0000
,  // measure 10
0001
0000
1000
0000
,  // measure 11
0001
0001
0001
0000
,  // measure 12
0010
0000
0100
0000
,  // measure 13
1000
1000
1000
0000
,  // measure 14
0001
0000
0100
0000
,  // measure 15
0010
0010
0010
0000
,  // measure 16
1000
0000
0001
0000
,  // measure 17
0010
0100
1000
0000
,  // measure 18
1001
0000
0000
0000
0000
0000
0000
0110
,  // measure 19
0000
0000
0010
0000
,  // measure 20
0100
0000
0010
0000
,  // measure 21
1000
0000
0001
0000
,  // measure 22
1000
0000
0100
0000
,  // measure 23
0110
0000
0010
0000
,  // measure 24
0100
0000
1000
0000
,  // measure 25
0001
0000
1000
0000
,  // measure 26
0001
0000
0100
0000
,  // measure 27
0110
0000
0010
0000
,  // measure 28
0100
0000
0001
0000
,  // measure 29
1000
0000
0001
0000
,  // measure 30
1001
0000
0000
0000
0000
0000
0000
1001
,  // measure 31
0000
0000
0000
2000
0000
3000
0000
2000
,  // measure 32
0000
3000
0000
0000
0001
0000
0000
0000
,  // measure 33
0220
0000
0000
0000
,  // measure 34
0000
0000
0000
0330
0000
0000
0000
0000
,  // measure 35
2000
3000
2000
3000
,  // measure 36
0001
0000
0000
0100
0000
0100
0000
0000
,  // measure 37
0000
0010
0010
0010
,  // measure 38
1000
0000
0000
1000
0000
0000
0000
0000
,  // measure 39
0100
0000
1000
0000
,  // measure 40
0100
0000
1000
0000
,  // measure 41
0001
0000
1000
0000
,  // measure 42
0001
0000
1000
0000
,  // measure 43
2002
3003
0002
0003
,  // measure 44
1000
0000
0000
0010
0000
0010
0000
0000
,  // measure 45
0000
0100
0100
0100
,  // measure 46
0001
0000
0000
0001
0000
0000
0000
0000
,  // measure 47
1000
0000
0100
0000
,  // measure 48
1000
0000
0100
0000
,  // measure 49
0010
0000
0001
0000
,  // measure 50
0010
0000
0001
0000
,  // measure 51
1001
0000
0110
0000
,  // measure 52
1000
0000
0001
0000
,  // measure 53
0100
0100
0100
0000
,  // measure 54
0001
0000
0010
0000
,  // measure 55
0100
0100
0100
0000
,  // measure 56
1000
0000
0001
0000
,  // measure 57
0010
0010
0010
0000
,  // measure 58
0100
0000
1000
0000
,  // measure 59
0010
0100
0001
0000
,  // measure 60
1000
0000
0001
0000
,  // measure 61
1000
1000
1000
0000
,  // measure 62
0100
0000
0010
0000
,  // measure 63
0001
0001
0001
0000
,  // measure 64
0100
0000
0010
0000
,  // measure 65
1000
1000
1000
0000
,  // measure 66
0001
0000
1000
0000
,  // measure 67
0100
0010
0001
0000
,  // measure 68
1001
0000
0110
0000
,  // measure 69
0000
0000
1001
0000
0000
1001
0000
0000
,  // measure 70
0000
0200
0000
0000
,  // measure 71
0000
0000
0000
0000
,  // measure 72
0000
0000
0000
0000
,  // measure 73
0300
0000
0000
0000
;

//---------------dance-single - ----------------
#NOTEDATA:;
#CHARTNAME:;
#CHARTHASH:3786892327;
#STEPSTYPE:dance-single;
#BANNER:;
#DESCRIPTION:;
#CHARTSTYLE:;
#DIFFICULTY:Easy;
#METER:9;
#METERF:0.000000;
#LASTSECONDHINT:109.525002;
#RADARVALUES:0.378287,0.448057,0.219206,0.412107,0.035073,302.000000,277.000000,25.000000,47.000000,0.000000,0.000000,0.000000,0.000000,0.000000,0.378287,0.448057,0.219206,0.412107,0.035073,302.000000,277.000000,25.000000,47.000000,0.000000,0.000000,0.000000,0.000000,0.000000;
#CREDIT:YOSEFU;
#NOTES:
// measure 0
0000
0000
0000
0000
,  // measure 1
0000
0000
0000
0000
,  // measure 2
0000
0000
0000
0000
,  // measure 3
0000
0000
0000
0000
,  // measure 4
0000
0000
0000
0000
,  // measure 5
2000
0000
0000
0000
0000
3200
0000
0320
,  // measure 6
0000
0000
0000
0000
0000
0032
0000
0203
,  // measure 7
0000
0000
0000
0320
0000
0000
0000
0000
,  // measure 8
2030
0000
3200
0000
,  // measure 9
0310
0000
0000
0002
0000
0000
0000
0000
,  // measure 10
1003
0000
0010
0000
0100
0001
1000
0000
,  // measure 11
0001
0000
0010
0000
0100
0000
1000
0001
,  // measure 12
0100
0000
0010
0000
1000
0001
0010
0000
,  // measure 13
0100
0100
1000
1000
,  // measure 14
1001
0000
0001
0000
0100
0010
1000
0000
,  // measure 15
0001
0000
1000
0000
0100
0000
0010
0001
,  // measure 16
1000
0000
0010
0000
0100
0001
0010
0000
,  // measure 17
2200
3300
0022
0033
,  // measure 18
1001
0000
0000
1000
1000
0000
0001
0001
,  // measure 19
0000
0100
0000
0010
0000
0100
0000
0001
,  // measure 20
0000
1000
0000
0200
0000
0000
0310
0001
,  // measure 21
0000
1000
0000
0001
0000
1000
0000
0010
,  // measure 22
0000
0200
0000
0000
0301
0000
1000
0000
,  // measure 23
0001
0100
0000
0010
0000
0100
0000
0001
,  // measure 24
0000
0010
0000
0100
0000
0000
1000
0010
,  // measure 25
0000
0100
0000
0001
0000
1000
0000
0100
,  // measure 26
0000
0010
0000
0100
0000
1000
0000
0001
,  // measure 27
0100
0000
0110
0000
0010
1000
0000
0001
,  // measure 28
0000
1000
0000
0100
0010
0000
0001
0000
,  // measure 29
0110
0000
1001
0000
1000
0010
0000
0000
,  // measure 30
0100
0000
0001
1000
0000
1001
0000
0220
,  // measure 31
0000
0330
0000
2000
0000
3000
0000
0001
,  // measure 32
0100
0000
0010
0000
1000
0001
1000
0000
,  // measure 33
0200
0000
0300
0000
0110
0000
0000
0220
,  // measure 34
0000
0000
0000
0330
0000
0000
0000
0000
,  // measure 35
1001
0010
1001
0100
,  // measure 36
1001
0000
0001
0100
0000
0020
0000
0000
,  // measure 37
1030
0200
0302
0203
,  // measure 38
1300
0001
0100
0010
1000
0000
0100
0000
,  // measure 39
0020
0000
0031
2000
0000
3002
0000
0103
,  // measure 40
0010
0000
0100
0020
0000
0000
1030
0002
,  // measure 41
0000
0003
1000
0200
0000
0300
1000
0002
,  // measure 42
0000
0003
1000
0020
0000
0030
0100
0000
,  // measure 43
0101
0010
1100
0010
,  // measure 44
0101
0000
0001
1000
0000
0100
0000
0000
,  // measure 45
0010
0200
0302
0203
,  // measure 46
1300
0001
0100
0010
1000
0000
0100
0000
,  // measure 47
0020
0000
0031
2000
0000
3002
0000
1003
,  // measure 48
0010
0000
1000
0020
0000
0000
0130
0002
,  // measure 49
0000
0003
0010
0002
0000
0003
1000
0200
,  // measure 50
0000
0300
1000
0020
0000
0030
0100
0000
,  // measure 51
0101
0000
0000
1000
1000
0000
0001
0100
,  // measure 52
0001
0000
1000
0000
0100
0010
0001
0000
,  // measure 53
0100
0000
0010
0000
0001
0000
0010
1000
,  // measure 54
0001
0000
0010
0000
0100
1000
0010
0000
,  // measure 55
0100
0000
0001
0000
0100
0010
1000
0000
,  // measure 56
1001
0000
0001
0000
0010
0100
1000
0000
,  // measure 57
0001
0000
0100
0000
0010
0000
0001
0010
,  // measure 58
1000
0000
0100
0000
0010
0001
0100
0000
,  // measure 59
0010
0000
0000
1000
0000
1000
0000
2000
0000
0000
0000
0000
0000
0000
0000
0000
,  // measure 60
3001
0000
0010
0000
0100
1000
0010
0000
,  // measure 61
0100
0000
1000
0000
0100
0000
0001
0010
,  // measure 62
1000
0000
0010
0000
0001
0100
0010
0000
,  // measure 63
1010
0000
0101
0000
1000
0100
0010
0001
,  // measure 64
0100
0000
0001
0000
0010
0100
1000
0000
,  // measure 65
0001
0000
0100
0000
0010
0000
0001
0010
,  // measure 66
1000
0000
0001
0000
0010
0100
0001
0000
,  // measure 67
0100
0000
0000
0010
0000
0010
0000
0000
0001
0000
0000
1000
0000
1000
0000
0000
,  // measure 68
0010
0000
0000
0100
0000
0000
0001
0000
1000
0000
0000
0000
0100
0000
0010
0000
,  // measure 69
0000
0000
1001
0000
0000
0110
0000
0110
,  // measure 70
0000
2002
0000
0000
,  // measure 71
0000
0000
0000
0000
,  // measure 72
0000
0000
0000
0000
,  // measure 73
3003
0000
0000
0000
;

//---------------dance-single - ----------------
#NOTEDATA:;
#CHARTNAME:;
#CHARTHASH:4248668677;
#STEPSTYPE:dance-single;
#BANNER:;
#DESCRIPTION:;
#CHARTSTYLE:;
#DIFFICULTY:Medium;
#METER:13;
#METERF:0.000000;
#LASTSECONDHINT:109.525002;
#RADARVALUES:0.571188,0.608077,0.201669,0.359498,0.407723,456.000000,433.000000,23.000000,41.000000,0.000000,0.000000,0.000000,0.000000,0.000000,0.571188,0.608077,0.201669,0.359498,0.407723,456.000000,433.000000,23.000000,41.000000,0.000000,0.000000,0.000000,0.000000,0.000000;
#CREDIT:YOSEFU;
#NOTES:
// measure 0
0000
0000
0000
0000
,  // measure 1
0000
0000
0000
0000
,  // measure 2
0000
0000
0000
0000
,  // measure 3
0000
0000
0000
0000
,  // measure 4
0000
0000
0000
0000
,  // measure 5
2000
0000
0000
0000
0000
3002
0203
0320
,  // measure 6
0000
0000
0000
0000
0000
2030
3200
0320
,  // measure 7
0000
0000
0000
2030
0000
0000
0000
0000
,  // measure 8
3020
0000
0032
0000
,  // measure 9
1003
0000
0000
0002
0000
0000
0000
0000
,  // measure 10
1003
0000
0100
0010
0000
0010
0000
0001
0000
1000
0001
0000
0000
0000
0001
0000
,  // measure 11
0010
0000
0100
0000
0100
0000
1000
0010
0000
1000
0100
0000
0010
0000
0001
0000
,  // measure 12
0100
0000
0010
1000
0000
1000
0000
0100
0010
0000
0002
0000
0000
0000
0000
0000
,  // measure 13
1003
0010
0000
0010
0000
0010
0000
0000
0100
0001
1000
0000
0100
0000
0010
0000
,  // measure 14
0001
0000
1000
0010
0000
0010
0000
0100
0000
0001
1000
0000
0000
0000
1000
0000
,  // measure 15
0100
0000
0010
0000
0010
0000
0001
0100
0000
0001
0010
0000
0100
0000
1000
0000
,  // measure 16
0010
0000
0100
0001
0000
0001
0000
1000
0100
0000
0020
0000
0000
0000
0000
0000
,  // measure 17
0031
1000
0000
1000
0000
1000
0001
0000
0100
0010
0000
0010
0000
0010
0100
0000
,  // measure 18
0101
0000
0000
0100
0000
0000
0001
0000
1001
0000
0000
0000
1000
0000
1100
0000
,  // measure 19
0000
0100
0010
0010
0001
1000
1000
0010
,  // measure 20
0100
1000
0100
0002
1000
0000
0103
0020
,  // measure 21
0000
1030
0100
0100
0010
0001
0001
0100
,  // measure 22
0010
1000
0000
1000
0000
0100
0000
0100
,  // measure 23
0010
0001
0010
0100
0010
0001
1000
0010
,  // measure 24
0100
1000
0100
0002
0010
0000
0103
0020
,  // measure 25
0000
0130
1000
0100
0001
0020
0000
0230
,  // measure 26
0000
0301
0100
0010
0001
2000
0000
3000
,  // measure 27
1010
0000
0101
0000
1000
0010
0000
0200
,  // measure 28
0000
0301
1000
0001
0100
0002
0000
0003
,  // measure 29
0011
0000
1100
0000
0001
0010
0000
0001
,  // measure 30
0101
0100
0010
1010
0000
1001
0000
1100
,  // measure 31
0000
0100
1000
0020
0000
0130
0001
0010
,  // measure 32
0100
1000
0100
1000
0010
0001
0010
0100
,  // measure 33
0001
0000
1000
0000
0000
0000
1000
0000
0001
0000
0000
0110
0000
0000
2002
0000
,  // measure 34
0000
0000
0000
3003
0000
0000
0000
0000
,  // measure 35
1000
0010
0100
0000
1000
0010
0100
0000
,  // measure 36
1000
0100
0001
0100
1000
0010
0100
0000
,  // measure 37
0101
0000
0000
0000
0001
0010
0000
0000
0010
0100
0000
0000
0100
1000
0000
0000
,  // measure 38
0100
0000
0001
0000
0100
0000
1000
0000
0010
0000
0100
0000
0001
1000
0010
0000
,  // measure 39
0100
0001
1000
0200
0000
0310
0000
0100
,  // measure 40
1000
0001
1000
0010
0100
0000
0010
1000
,  // measure 41
0200
0000
0310
0001
0200
0000
0310
1000
,  // measure 42
0002
0000
0013
0100
2000
0000
3010
0000
,  // measure 43
0100
0001
0010
0000
0100
0001
0010
0000
,  // measure 44
0100
0001
0010
1000
0010
0001
1000
0000
,  // measure 45
0010
0000
0000
0000
0100
0001
0000
0000
0001
0010
0000
0000
0010
0100
0000
0000
,  // measure 46
1000
0000
0010
0000
0001
0000
0010
0000
0100
0000
0001
0000
1000
0100
0010
0000
,  // measure 47
0001
0100
0010
1000
0001
0020
0000
0130
,  // measure 48
0001
0100
0010
0001
1000
0000
0100
0010
,  // measure 49
2000
0000
3001
0010
2000
0000
3010
0001
,  // measure 50
0200
0000
1300
0100
0002
0000
0013
0000
,  // measure 51
0110
0000
0000
1100
0000
0000
1000
0000
0001
0000
0000
0000
0100
0000
0001
0000
,  // measure 52
1000
0000
0010
0100
0000
0100
0000
0001
0000
1000
0001
0000
0000
0000
0001
0000
,  // measure 53
0100
0000
0010
0000
0010
0000
1000
0100
0000
1000
0010
0000
0100
0000
0001
0000
,  // measure 54
0010
0000
0100
1000
0000
1000
0000
0010
0100
0000
0002
0000
0000
0000
0000
0000
,  // measure 55
1003
0100
0000
0100
0000
0100
0000
0000
0010
0001
1000
0000
0010
0000
0100
0000
,  // measure 56
0001
0000
1000
0100
0000
0100
0000
0010
0000
0001
1000
0000
0000
0000
1000
0000
,  // measure 57
0010
0000
0100
0000
0100
0000
0001
0010
0000
0001
0100
0000
0010
0000
1000
0000
,  // measure 58
0100
0000
0010
0001
0000
0001
0000
1000
0010
0000
0200
0000
0000
0000
0000
0000
,  // measure 59
0301
1000
0000
1000
0000
1000
0001
0000
0100
0000
0000
0000
0010
0000
1000
0000
,  // measure 60
0001
0000
0010
0100
0000
0100
0000
1000
0000
0001
1000
0000
0000
0000
1000
0000
,  // measure 61
0100
0000
0010
0000
0010
0000
0001
0100
0000
0001
0010
0000
0100
0000
1000
0000
,  // measure 62
0010
0000
0100
0001
0000
0001
0000
0010
0100
0000
2000
0000
0000
0000
0000
0000
,  // measure 63
3001
0100
0000
0100
0000
0100
0000
0000
0010
1000
0001
0000
0010
0000
0100
0000
,  // measure 64
1000
0000
0001
0100
0000
0100
0000
0010
0000
1000
0001
0000
0000
0000
0001
0000
,  // measure 65
0010
0000
0100
0000
0100
0000
1000
0010
0000
1000
0100
0000
0010
0000
0001
0000
,  // measure 66
0100
0000
0010
1000
0000
1000
0000
0001
0010
0000
0200
0000
0000
0000
0000
0000
,  // measure 67
1300
0001
0000
0001
0000
0001
1000
0000
0010
0100
0000
0100
0000
0100
0010
0000
,  // measure 68
1010
0000
0000
0001
0000
0000
0010
0000
0110
0000
0000
0000
1000
0000
1001
0000
,  // measure 69
0000
0000
0101
0000
0000
0110
0000
1010
,  // measure 70
0000
2002
0000
0000
,  // measure 71
0000
0000
0000
0000
,  // measure 72
0000
0000
0000
0000
,  // measure 73
3003
0000
0000
0000
;

//---------------dance-single - ----------------
#NOTEDATA:;
#CHARTNAME:;
#CHARTHASH:562335472;
#STEPSTYPE:dance-single;
#BANNER:;
#DESCRIPTION:;
#CHARTSTYLE:;
#DIFFICULTY:Hard;
#METER:17;
#METERF:0.000000;
#LASTSECONDHINT:109.525002;
#RADARVALUES:0.764089,0.832106,0.263047,0.254279,0.907513,610.000000,580.000000,30.000000,29.000000,0.000000,0.000000,0.000000,0.000000,0.000000,0.764089,0.832106,0.263047,0.254279,0.907513,610.000000,580.000000,30.000000,29.000000,0.000000,0.000000,0.000000,0.000000,0.000000;
#CREDIT:Yosefu with a Cheese Wheel;
#NOTES:
// measure 0
0000
0000
0000
0000
,  // measure 1
0000
0000
0000
0000
,  // measure 2
0000
0000
0000
0000
,  // measure 3
0000
0000
0000
0000
,  // measure 4
0000
0000
0000
0000
,  // measure 5
2000
0000
0000
0000
0000
3200
0320
0032
,  // measure 6
0000
0000
0000
0000
0000
0203
0302
0023
,  // measure 7
0000
0000
0000
2030
0000
0000
0000
0000
,  // measure 8
3020
0100
0032
0100
,  // measure 9
1003
0000
0000
0020
0000
0000
0000
0000
,  // measure 10
1030
0100
0010
0001
0000
0001
0000
0100
0000
0010
1000
0000
0001
0010
0100
0010
,  // measure 11
0001
0100
0010
0000
0010
0000
0100
1000
0000
0100
0001
0000
0100
1000
0100
0001
,  // measure 12
0010
0100
1000
0010
0000
0010
0000
0001
0010
1000
0002
0000
0000
0000
0000
0000
,  // measure 13
0013
0100
0000
0100
0000
0200
0000
0000
1300
0100
0010
0001
0010
0100
1000
0001
,  // measure 14
0100
0010
1000
0001
0000
0001
0000
0010
0000
0100
1000
0000
0001
0010
0001
1000
,  // measure 15
0010
1000
0100
0000
0100
0000
0001
0100
0000
1000
0100
0000
0001
0100
1000
0001
,  // measure 16
0100
0010
1000
0100
0000
0100
0000
0001
0100
1000
0002
0000
0000
0000
0000
0000
,  // measure 17
0103
0010
0000
0010
0000
1000
0010
0000
0100
0001
0000
0001
0000
0010
0001
0000
,  // measure 18
0011
0000
0000
0101
0000
0000
1010
0000
1100
0000
0000
0000
0011
0000
1100
0000
,  // measure 19
0000
0000
1000
0010
0100
0000
0001
0000
1000
0000
0100
0010
0001
0000
0100
0000
,  // measure 20
0010
0000
1000
0001
0010
0000
1000
0000
0010
0000
0100
0000
1000
0000
0020
0000
,  // measure 21
0000
0000
0130
0001
1000
0000
0100
0000
0010
0000
0001
1000
0010
0000
0100
0000
,  // measure 22
0001
0000
0010
0100
1000
0000
0100
0010
0001
0000
0100
0010
1000
0000
0001
0010
,  // measure 23
0100
0000
1000
0001
0100
0000
0010
0000
1000
0000
0001
0010
0100
0000
1000
0000
,  // measure 24
0010
0000
0100
0001
1000
0000
0100
0000
0001
0000
0100
0000
0010
0000
0002
0000
,  // measure 25
0000
0000
0103
0010
1000
0000
0001
0010
0100
0000
2000
0000
0000
0000
3020
0000
,  // measure 26
0000
0000
0130
0001
1000
0000
0100
0010
0001
0000
0100
0010
1000
0000
0001
0000
,  // measure 27
0010
0001
0000
0000
0001
1000
0000
0000
1000
0010
0100
0000
0001
0000
2000
0000
,  // measure 28
0000
0000
3100
0010
0001
0000
1000
0010
0100
0000
0001
0000
1000
0000
0000
0000
,  // measure 29
0001
0010
0000
0000
0010
0100
0000
0000
0100
1000
0001
0000
1000
0000
0010
0000
,  // measure 30
1010
1001
0011
1001
0000
1100
0000
1001
,  // measure 31
0000
0000
0001
0010
0100
0000
1000
0000
0100
0000
0010
0000
0001
0000
0100
0000
,  // measure 32
0010
1000
0001
0000
0010
0100
1000
0000
0010
0000
0001
0000
0010
0000
0100
0001
,  // measure 33
2000
0000
0100
0000
0000
0000
3100
0000
1001
0000
0000
0101
0000
0000
1001
0000
,  // measure 34
0000
0000
0000
0000
,  // measure 35
1000
0010
0100
0000
0001
0000
0000
0000
1000
0010
0100
0000
0001
0000
0000
0000
,  // measure 36
1000
0100
0010
0000
0001
0000
0100
0000
0010
0000
0001
0000
0010
0000
1000
0000
,  // measure 37
0100
0000
0000
0000
1000
0010
0000
0000
0010
0001
0000
0000
0001
0010
0000
0000
,  // measure 38
0010
0100
0001
0000
1000
0000
0100
0000
0010
0001
0010
0001
1000
0100
1000
0100
,  // measure 39
0010
0001
0100
0010
1000
0001
0010
0100
,  // measure 40
1000
0001
0100
0000
0010
1000
0001
0000
0010
0000
0100
0000
1000
0001
0100
0000
,  // measure 41
0010
0000
1000
0000
0001
0100
0010
0000
1000
0000
0001
0000
0010
0100
1000
0000
,  // measure 42
0001
0000
0100
0000
0010
1000
0001
0000
0010
0000
1000
0000
0010
0000
0001
0000
,  // measure 43
0100
0010
1000
0000
0001
0000
0000
0000
0100
0010
1000
0000
0001
0000
0000
0000
,  // measure 44
0100
0010
1000
0000
0001
0000
0010
0000
1000
0000
0010
0000
0100
0000
1000
0000
,  // measure 45
0001
0000
0000
0000
0100
1000
0000
0000
1000
0100
0000
0000
0100
0001
0000
0000
,  // measure 46
0001
0010
0100
0000
1000
0000
0010
0000
0100
0001
0100
0001
1000
0010
1000
0010
,  // measure 47
0100
0001
1000
0100
0010
0100
0001
0100
,  // measure 48
1000
0001
0100
0000
0010
1000
0100
0000
0010
0000
0100
0000
0001
0100
1000
0000
,  // measure 49
0001
0000
0100
0000
1000
0100
0001
0000
1000
0000
0100
0000
0001
0100
1000
0000
,  // measure 50
0001
0000
0100
0000
1000
0100
0001
0000
1000
0000
0000
0000
0010
0000
0000
0000
,  // measure 51
1010
0000
0000
0101
0000
0000
0011
0000
1100
0000
0000
0000
1010
0000
0000
0000
,  // measure 52
1000
0010
0100
0001
0000
0001
0000
0010
0000
0100
1000
0000
0001
0100
0010
0100
,  // measure 53
0001
0010
0100
0000
0100
0000
0010
1000
0000
0010
0001
0000
0010
1000
0010
0001
,  // measure 54
0100
0010
1000
0100
0000
0100
0000
0001
0100
1000
0002
0000
0000
0000
0000
0000
,  // measure 55
0103
0010
0000
0010
0000
0020
0000
0000
1030
0010
0100
0001
0100
0010
1000
0001
,  // measure 56
0010
0100
1000
0001
0000
0001
0000
0100
0000
0010
1000
0000
0001
0100
0001
1000
,  // measure 57
0100
1000
0010
0000
0010
0000
0001
0010
0000
1000
0010
0000
0001
0010
1000
0001
,  // measure 58
0010
0100
1000
0010
0000
0010
0000
0001
0010
1000
0002
0000
0000
0000
0000
0000
,  // measure 59
0013
0100
0000
0100
0000
1000
0100
0000
0010
0001
0100
0001
2000
0000
0000
0000
,  // measure 60
3001
0010
0100
1000
0000
1000
0000
0010
0000
0100
0001
0000
1000
0100
0010
0100
,  // measure 61
1000
0010
0100
0000
0100
0000
0010
0001
0000
0010
1000
0000
0010
0001
0010
1000
,  // measure 62
0100
0010
0001
0100
0000
0100
0000
1000
0100
0001
2000
0000
0000
0000
0000
0000
,  // measure 63
3100
0010
0000
0010
0000
0020
0000
0000
0031
0010
0100
1000
0100
0010
0001
1000
,  // measure 64
0010
0100
0001
1000
0000
1000
0000
0100
0000
0010
0001
0000
1000
0100
1000
0001
,  // measure 65
0100
0001
0010
0000
0010
0000
1000
0010
0000
0001
0010
0000
1000
0010
0001
1000
,  // measure 66
0010
0100
0001
0010
0000
0010
0000
1000
0010
0001
2000
0000
0000
0000
0000
0000
,  // measure 67
3010
0100
0000
0100
0000
0001
0100
0000
0010
1000
0000
1000
0000
0100
1000
0000
,  // measure 68
1010
0000
0000
1001
0000
0000
1100
0000
0101
0000
0000
0000
0011
0000
1100
0000
,  // measure 69
0000
0000
0101
0000
0000
1010
0000
0110
,  // measure 70
0000
2002
0000
0000
,  // measure 71
0000
0000
0000
0000
,  // measure 72
0000
0000
0000
0000
,  // measure 73
3003
0000
0000
0000
;
