#VERSION:0.83;
#TITLE:Burn;
#SUBTITLE:;
#ARTIST:Mike Orlando;
#TITLETRANSLIT:;
#SUBTITLETRANSLIT:;
#ARTISTTRANSLIT:;
#GENRE:Rock;
#ORIGIN:Single Release (2010);
#TAGS:;
#CREDIT:skeleton made by Peter;
#BANNER:Burn.png;
#BACKGROUND:Burn-bg.png;
#PREVIEWVID:;
#JACKET:Burn-jacket.png;
#CDIMAGE:;
#DISCIMAGE:;
#LYRICSPATH:;
#CDTITLE:../_YSD cdtitles/ysd sale4 cdtitle.png;
#MUSIC:Burn.ogg;
#OFFSET:-0.181000;
#SAMPLESTART:26.726000;
#SAMPLELENGTH:11.636000;
#SELECTABLE:YES;
#BPMS:0.000000=330.000000
;
#STOPS:;
#DELAYS:;
#WARPS:;
#TIMESIGNATURES:0.000000=4=4
;
#TICKCOUNTS:0.000000=4
;
#COMBOS:0.000000=1
;
#SPEEDS:0.000000=1.000000=0.000000=0
;
#SCROLLS:0.000000=1.000000
;
#FAKES:;
#LABELS:0.000000=Song Start
;
#BGCHANGES:;
#KEYSOUNDS:;
#ATTACKS:
;

//---------------dance-single - ----------------
#NOTEDATA:;
#CHARTNAME:;
#CHARTHASH:3586739628;
#STEPSTYPE:dance-single;
#BANNER:;
#DESCRIPTION:;
#CHARTSTYLE:;
#DIFFICULTY:Beginner;
#METER:6;
#METERF:0.000000;
#LASTSECONDHINT:89.635544;
#RADARVALUES:0.246507,0.331629,0.000000,0.032354,0.000000,160.000000,160.000000,0.000000,3.000000,0.000000,0.000000,0.000000,0.000000,0.000000,0.246507,0.331629,0.000000,0.032354,0.000000,160.000000,160.000000,0.000000,3.000000,0.000000,0.000000,0.000000,0.000000,0.000000;
#CREDIT:YOSEFU;
#NOTES:
// measure 0
0000
0000
0000
0000
,  // measure 1
0000
0000
0000
0000
,  // measure 2
0000
0000
0000
0000
,  // measure 3
0000
0000
0000
0000
,  // measure 4
0000
0000
0000
0000
,  // measure 5
0000
0000
0000
0000
,  // measure 6
0000
0000
0000
0000
,  // measure 7
0000
0000
0000
0000
,  // measure 8
0000
0000
1000
0000
,  // measure 9
0000
0000
0001
0000
,  // measure 10
0000
0000
1000
0000
,  // measure 11
0000
0000
0001
0000
,  // measure 12
0000
0000
0100
0000
,  // measure 13
0000
0000
0010
0000
,  // measure 14
0000
0000
1000
0000
,  // measure 15
0000
0000
0100
0000
,  // measure 16
0000
0000
0010
0000
,  // measure 17
0000
0000
0001
0000
,  // measure 18
0000
0000
0100
0000
,  // measure 19
0100
0000
0010
0000
,  // measure 20
0000
0000
0100
0000
,  // measure 21
0100
0000
0001
0000
,  // measure 22
0000
0000
1000
0000
,  // measure 23
1000
0000
0100
0000
,  // measure 24
0000
0000
0010
0000
,  // measure 25
0000
0000
0001
0000
,  // measure 26
0000
0000
1000
0000
,  // measure 27
1000
0000
0010
0000
,  // measure 28
0000
0000
0100
0000
,  // measure 29
0100
0000
0001
0000
,  // measure 30
0000
0000
1000
0000
,  // measure 31
1000
0000
0100
0000
,  // measure 32
0000
0000
0010
0000
,  // measure 33
0000
0000
0001
0000
,  // measure 34
0000
0000
0100
0000
,  // measure 35
0000
0000
0010
0000
,  // measure 36
0000
0000
1000
0000
,  // measure 37
0001
0000
1000
0000
,  // measure 38
0000
0000
0001
0000
,  // measure 39
0100
0000
0001
0000
,  // measure 40
0000
0000
1000
0000
,  // measure 41
0010
0000
1000
0000
,  // measure 42
0000
0000
0001
0000
,  // measure 43
0010
0000
0100
0000
,  // measure 44
1000
0000
0001
0000
,  // measure 45
0000
0000
1000
0000
,  // measure 46
0000
0000
0001
0000
,  // measure 47
0100
0000
0001
0000
,  // measure 48
0000
0000
0010
0000
,  // measure 49
1000
0000
0010
0000
,  // measure 50
0000
0000
0001
0000
,  // measure 51
0100
0000
0001
0000
,  // measure 52
0000
0000
1000
0000
,  // measure 53
0000
0000
0001
0000
,  // measure 54
0000
0000
0100
0000
,  // measure 55
0010
0000
0100
0000
,  // measure 56
0000
0000
0001
0000
,  // measure 57
0000
0000
1000
0000
,  // measure 58
0000
0000
0001
0000
,  // measure 59
0100
0000
0010
0000
,  // measure 60
0100
0000
0001
0000
,  // measure 61
0000
0000
1000
0000
,  // measure 62
0000
0000
0200
0000
,  // measure 63
0300
0000
0200
0000
,  // measure 64
0300
0000
0010
0000
,  // measure 65
0001
0000
1000
0000
,  // measure 66
0000
0000
0001
0000
,  // measure 67
1000
0000
0001
0000
,  // measure 68
1000
0000
0001
0000
,  // measure 69
0000
0000
1000
0000
,  // measure 70
0000
0000
0100
0000
,  // measure 71
0010
0000
0100
0000
,  // measure 72
0000
0000
1000
0000
,  // measure 73
0001
0000
0100
0000
,  // measure 74
0000
0000
0010
0000
,  // measure 75
0010
0000
1000
0000
,  // measure 76
1000
0000
0001
0000
,  // measure 77
0000
0000
1000
0000
,  // measure 78
0000
0000
0100
0000
,  // measure 79
0010
0000
0001
0000
,  // measure 80
0000
0000
1000
0000
,  // measure 81
1000
0000
0010
0000
,  // measure 82
0010
0000
0100
0000
,  // measure 83
0100
0000
0001
0000
,  // measure 84
0001
0000
1000
0000
,  // measure 85
0000
0000
0100
0000
,  // measure 86
0000
0000
0010
0000
,  // measure 87
0010
0000
0001
0000
,  // measure 88
0000
0000
1000
0000
,  // measure 89
0000
0000
0010
0000
,  // measure 90
0000
0000
0100
0000
,  // measure 91
0001
0000
1000
0000
,  // measure 92
0001
0000
1000
0000
,  // measure 93
0000
0000
0001
0000
,  // measure 94
0000
0000
1000
0000
,  // measure 95
0100
0000
0010
0000
,  // measure 96
0000
0000
0001
0000
,  // measure 97
0000
0000
1000
0000
,  // measure 98
0000
0000
0001
0000
,  // measure 99
0100
0000
0010
0000
,  // measure 100
0100
0000
0001
0000
,  // measure 101
0000
0000
1000
0000
,  // measure 102
0000
0000
0001
0000
,  // measure 103
1000
0000
0001
0000
,  // measure 104
0000
0000
0010
0000
,  // measure 105
0000
0000
0100
0000
,  // measure 106
0000
0000
1000
0000
,  // measure 107
0100
0000
0010
0000
,  // measure 108
0001
0000
1000
0000
,  // measure 109
0000
0000
0001
0000
,  // measure 110
0000
0000
0100
0000
,  // measure 111
0010
0000
1000
0000
,  // measure 112
0000
0000
0001
0000
,  // measure 113
0000
0000
1000
0000
,  // measure 114
0000
0000
0100
0000
,  // measure 115
0010
0000
0001
0000
,  // measure 116
0010
0000
0100
0000
,  // measure 117
0000
0000
1000
0000
,  // measure 118
0000
0000
0001
0000
,  // measure 119
0100
0000
0010
0000
,  // measure 120
1000
0000
0001
0000
,  // measure 121
0010
0000
0001
0000
,  // measure 122
1000
0000
0020
0000
,  // measure 123
0030
0000
0000
0000
;

//---------------dance-single - ----------------
#NOTEDATA:;
#CHARTNAME:;
#CHARTHASH:4211776195;
#STEPSTYPE:dance-single;
#BANNER:;
#DESCRIPTION:;
#CHARTSTYLE:;
#DIFFICULTY:Easy;
#METER:13;
#METERF:0.000000;
#LASTSECONDHINT:89.635544;
#RADARVALUES:0.585455,0.596933,0.000000,0.194125,0.000000,380.000000,380.000000,0.000000,18.000000,0.000000,0.000000,0.000000,0.000000,0.000000,0.585455,0.596933,0.000000,0.194125,0.000000,380.000000,380.000000,0.000000,18.000000,0.000000,0.000000,0.000000,0.000000,0.000000;
#CREDIT:YOSEFU;
#NOTES:
// measure 0
0000
0000
0000
0000
,  // measure 1
0000
0000
0000
0000
,  // measure 2
0000
0000
0000
0000
,  // measure 3
0000
0000
0000
0000
,  // measure 4
0000
0000
0000
0000
,  // measure 5
0000
0000
0000
0000
,  // measure 6
0000
0000
0000
0000
,  // measure 7
0000
0000
0000
0000
,  // measure 8
0000
0000
1000
0001
,  // measure 9
0000
0100
0000
0000
0010
0000
0000
0100
,  // measure 10
0000
0001
0000
1000
,  // measure 11
0000
1000
0000
0000
0100
0000
0000
1000
,  // measure 12
0000
1000
0000
0001
,  // measure 13
0000
0100
0000
0000
0010
0000
0000
1000
,  // measure 14
0000
0001
0010
0100
,  // measure 15
0010
0001
1000
0010
,  // measure 16
0100
0010
1000
0001
,  // measure 17
0010
0100
1000
0010
,  // measure 18
0100
0001
1000
0100
,  // measure 19
0000
0010
0000
0000
0100
0000
0000
1000
,  // measure 20
0000
0001
0000
0100
,  // measure 21
0000
0100
0000
0000
0010
0000
0000
0100
,  // measure 22
0000
0100
0000
0001
,  // measure 23
0000
0010
0000
0000
0100
0000
0000
1000
,  // measure 24
0000
0001
0100
0010
,  // measure 25
0100
0001
1000
0100
,  // measure 26
0010
0001
0100
0010
,  // measure 27
0000
1000
0000
0000
0001
0000
0000
1000
,  // measure 28
0000
0100
0000
0010
,  // measure 29
0000
0010
0000
0000
0001
0000
0000
0010
,  // measure 30
0000
0010
0000
0100
,  // measure 31
0000
1000
0000
0000
0010
0000
0000
0100
,  // measure 32
0000
0001
1000
0100
,  // measure 33
0010
0001
0100
0010
,  // measure 34
1000
0001
0010
0100
,  // measure 35
1000
0010
0100
0001
,  // measure 36
1000
0100
0010
0001
,  // measure 37
0000
0100
0000
0000
0010
0000
0000
1000
,  // measure 38
0000
0001
1000
0100
,  // measure 39
0000
0100
0000
0000
0001
0000
0000
0100
,  // measure 40
0000
0100
1000
0001
,  // measure 41
0000
0010
0000
0000
0100
0000
0000
1000
,  // measure 42
0000
0001
0100
0010
,  // measure 43
1000
0100
0010
0001
,  // measure 44
1000
0010
0100
0001
,  // measure 45
0000
1000
0000
0000
0100
0000
0000
1000
,  // measure 46
0000
0001
0010
0100
,  // measure 47
0000
0100
0000
0000
0001
0000
0000
0100
,  // measure 48
0000
0100
1000
0010
,  // measure 49
0000
0100
0000
0000
0001
0000
0000
0010
,  // measure 50
0000
0000
0100
0000
1000
0000
0000
0001
,  // measure 51
0000
0000
1000
0000
0000
0001
0000
0000
,  // measure 52
0200
0000
0310
2000
,  // measure 53
0000
3100
0020
0000
,  // measure 54
0000
0031
0100
1000
,  // measure 55
0100
0001
0010
1000
,  // measure 56
0010
0001
0100
0010
,  // measure 57
1000
0010
0100
0001
,  // measure 58
0010
0100
2000
0000
,  // measure 59
3010
0100
0002
0000
,  // measure 60
1003
0000
0100
0000
0010
0000
0002
0003
,  // measure 61
0000
0002
0003
0000
0002
0000
0000
0000
,  // measure 62
0000
1003
0010
0200
,  // measure 63
0000
0310
0200
0000
,  // measure 64
0301
1000
0100
0010
,  // measure 65
0100
1000
0010
0100
,  // measure 66
0001
1000
0100
0001
,  // measure 67
0100
1000
0001
0100
,  // measure 68
1000
0100
0001
0010
,  // measure 69
0000
0100
0000
0000
0010
0000
0000
0001
,  // measure 70
0000
1000
0010
0100
,  // measure 71
0000
0100
0000
0000
1000
0000
0000
0100
,  // measure 72
0000
0100
0001
0010
,  // measure 73
0000
0100
0000
0000
0010
0000
0000
0001
,  // measure 74
0000
0100
1000
0100
,  // measure 75
0001
0010
0100
0001
,  // measure 76
0100
1000
0001
0100
,  // measure 77
0000
0010
0000
0000
0100
0000
0000
0001
,  // measure 78
0000
1000
0100
0010
,  // measure 79
0000
0010
0000
0000
1000
0000
0000
0010
,  // measure 80
0000
0010
0100
0001
,  // measure 81
0100
0010
1000
0010
,  // measure 82
0001
1000
0010
0001
,  // measure 83
0010
0100
1000
0100
,  // measure 84
0001
1000
0100
0010
,  // measure 85
0001
0100
0020
0000
,  // measure 86
1030
0001
0020
0000
,  // measure 87
0100
0000
0031
1000
,  // measure 88
0020
0000
0130
0001
,  // measure 89
0010
0100
2000
0000
,  // measure 90
3001
0100
0010
1000
,  // measure 91
0001
0010
0100
1000
,  // measure 92
0010
0100
0001
1000
,  // measure 93
0100
0020
0000
0031
,  // measure 94
1000
0010
0100
0010
,  // measure 95
1000
0001
0010
0100
,  // measure 96
1000
0010
0002
0000
,  // measure 97
0013
2000
0000
3100
,  // measure 98
0001
0100
1000
0001
,  // measure 99
0100
1000
0100
0001
,  // measure 100
0010
0100
1000
0010
,  // measure 101
0100
0001
0010
0100
,  // measure 102
1000
0001
0100
0000
,  // measure 103
0010
0000
1000
0000
,  // measure 104
0001
0000
1000
0100
,  // measure 105
0010
0001
0100
0010
,  // measure 106
1000
0001
0010
0000
,  // measure 107
0100
1000
0010
0000
,  // measure 108
0001
1000
0001
0010
,  // measure 109
0100
1000
0100
0010
,  // measure 110
0001
1000
0010
0000
,  // measure 111
0100
0000
0010
0000
,  // measure 112
1000
0000
0001
0010
,  // measure 113
0100
0010
0001
1000
,  // measure 114
0010
0100
0001
0010
,  // measure 115
0100
1000
0010
0100
,  // measure 116
0001
1000
0100
0010
,  // measure 117
0001
0100
0010
1000
,  // measure 118
0001
1000
0100
0010
,  // measure 119
0001
0100
0010
1000
,  // measure 120
0100
0010
0001
1000
,  // measure 121
0010
0100
0001
0010
,  // measure 122
0100
1000
0020
0000
,  // measure 123
0030
0000
0000
0000
;

//---------------dance-single - ----------------
#NOTEDATA:;
#CHARTNAME:;
#CHARTHASH:3668112233;
#STEPSTYPE:dance-single;
#BANNER:;
#DESCRIPTION:;
#CHARTSTYLE:;
#DIFFICULTY:Medium;
#METER:16;
#METERF:0.000000;
#LASTSECONDHINT:89.635544;
#RADARVALUES:0.924402,1.061214,0.000000,0.107847,0.000000,600.000000,600.000000,0.000000,10.000000,0.000000,0.000000,0.000000,0.000000,0.000000,0.924402,1.061214,0.000000,0.107847,0.000000,600.000000,600.000000,0.000000,10.000000,0.000000,0.000000,0.000000,0.000000,0.000000;
#CREDIT:YOSEFU;
#NOTES:
// measure 0
0000
0000
0000
0000
,  // measure 1
0000
0000
0000
0000
,  // measure 2
0000
0000
0000
0000
,  // measure 3
0000
0000
0000
0000
,  // measure 4
0000
0000
0000
0000
,  // measure 5
0000
0000
0000
0000
,  // measure 6
0000
0000
0000
0000
,  // measure 7
0000
0000
0000
0000
,  // measure 8
0000
0000
0000
0000
0000
0000
1000
0100
,  // measure 9
0000
1000
0100
0000
1000
0001
0000
1000
,  // measure 10
0001
0000
1000
0001
0000
0000
1000
0010
,  // measure 11
0000
1000
0010
0000
1000
0001
0000
1000
,  // measure 12
0001
0000
1000
0001
0000
0000
0010
0001
,  // measure 13
0000
0010
0001
0000
1000
0001
0000
1000
,  // measure 14
0001
0000
0000
0000
1000
0010
0100
0000
,  // measure 15
0001
0000
1000
0000
0100
0010
0001
0000
,  // measure 16
1000
0000
0010
0000
0100
0001
0010
0000
,  // measure 17
0100
0000
1000
0000
0001
0100
0010
0000
,  // measure 18
1000
0000
0100
0000
0010
0000
0001
0100
,  // measure 19
0000
0001
0100
0000
0001
1000
0000
0001
,  // measure 20
1000
0000
0001
1000
0000
0000
0100
1000
,  // measure 21
0000
0100
1000
0000
0001
1000
0000
0001
,  // measure 22
1000
0000
0001
1000
0000
0000
0010
1000
,  // measure 23
0000
0010
1000
0000
0001
1000
0000
0001
,  // measure 24
1000
0000
0001
0000
0100
0010
1000
0000
,  // measure 25
0100
0000
0010
0000
0001
0100
0010
0000
,  // measure 26
1000
0000
0001
0000
0010
0000
0100
1000
,  // measure 27
0000
0100
1000
0000
0001
1000
0000
0001
,  // measure 28
1000
0000
0001
0100
0000
0000
0010
1000
,  // measure 29
0000
0010
1000
0000
0001
1000
0000
0001
,  // measure 30
1000
0000
0001
0010
0000
0000
0001
0100
,  // measure 31
0000
0001
0100
0000
0001
1000
0000
0001
,  // measure 32
1000
0000
0010
0000
0100
0001
0010
0000
,  // measure 33
0100
0000
1000
0000
0010
0100
0001
0000
,  // measure 34
0010
0000
0100
0000
1000
0100
0010
0000
,  // measure 35
0001
0000
0100
0000
0010
1000
0100
0000
,  // measure 36
0010
0000
0001
0000
0100
0000
0010
1000
,  // measure 37
0000
0001
1000
0000
0010
1000
0000
0001
,  // measure 38
1000
0000
0001
0010
0000
0000
0100
1000
,  // measure 39
0000
0100
1000
0000
0010
1000
0000
0001
,  // measure 40
1000
0000
0001
1000
0000
0000
0100
0010
,  // measure 41
0000
0100
1000
0000
0100
0010
0000
0100
,  // measure 42
1000
0000
0010
0000
0100
0001
0010
0000
,  // measure 43
0100
0000
1000
0000
0001
0100
0010
0000
,  // measure 44
1000
0000
0100
0000
0010
0000
0001
1000
,  // measure 45
0000
0001
0100
0000
0001
1000
0000
0001
,  // measure 46
0100
0000
0001
0010
0000
0000
0100
1000
,  // measure 47
0000
0100
1000
0000
0010
1000
0000
0001
,  // measure 48
0100
0000
0001
0000
0010
0000
0100
1000
,  // measure 49
0000
0010
0100
0000
0001
1000
0000
0100
,  // measure 50
0010
0000
0001
0000
0100
0010
0000
1000
,  // measure 51
0001
0000
0010
0100
0000
1000
0001
0000
,  // measure 52
0200
0000
0000
0000
0301
1000
0100
0000
,  // measure 53
0010
0100
0002
0000
,  // measure 54
0000
0000
0103
0000
1000
0010
0100
0000
,  // measure 55
0001
0100
0010
0000
1000
0100
0010
0000
,  // measure 56
0001
0100
0010
0000
1000
0000
0100
0010
,  // measure 57
0001
0000
0100
0000
0010
0000
1000
0001
,  // measure 58
0010
0100
2000
0100
,  // measure 59
0001
0100
3002
0100
,  // measure 60
1000
0000
0100
0000
1003
0000
0100
0010
,  // measure 61
0000
0100
0010
0000
0001
0000
1000
0000
,  // measure 62
0010
0000
0100
0000
0001
1000
0020
0000
,  // measure 63
0130
0000
0001
1000
0020
0000
0130
0000
,  // measure 64
0001
0000
1000
0000
0100
0010
0001
0000
,  // measure 65
1000
0000
0010
0000
0100
0001
1000
0000
,  // measure 66
0100
0000
0010
0000
0001
0100
0010
0000
,  // measure 67
1000
0100
0010
0000
0001
0100
0010
0000
,  // measure 68
1000
0001
0010
0000
0100
0000
1000
0100
,  // measure 69
0000
1000
0001
0000
1000
0100
0000
1000
,  // measure 70
0001
0000
0100
0001
0000
0000
0010
0001
,  // measure 71
0000
0010
0001
0000
0100
0010
0000
1000
,  // measure 72
0010
0000
1000
0010
0000
0000
0100
0001
,  // measure 73
0000
1000
0001
0000
0100
0001
0000
1000
,  // measure 74
0002
0000
0010
0000
0103
0010
1000
0100
,  // measure 75
0010
0000
0001
0000
0100
0010
1000
0001
,  // measure 76
0010
0000
0100
0000
1000
0000
0001
0100
,  // measure 77
0000
0001
1000
0000
0001
0100
0000
0001
,  // measure 78
1000
0000
0001
0010
0000
0000
0100
1000
,  // measure 79
0000
0100
1000
0000
0010
0100
0000
0001
,  // measure 80
0020
0000
0000
0000
0130
0000
1000
0010
,  // measure 81
0100
0000
0001
0010
0100
0000
1000
0010
,  // measure 82
0100
0000
0001
1000
0100
0000
0010
0001
,  // measure 83
0100
0000
0010
1000
0100
0000
0010
0001
,  // measure 84
0100
0000
0010
1000
0001
0000
0100
0000
,  // measure 85
0010
1000
0001
0000
0010
0000
0100
0000
,  // measure 86
1000
0001
0100
0000
0001
0000
1000
0000
,  // measure 87
0100
0010
0001
0000
1000
0000
0010
0000
,  // measure 88
0100
0001
1000
0000
0100
0000
0010
0000
,  // measure 89
0001
0100
0010
0000
1000
0000
0100
0000
,  // measure 90
0010
0001
0100
0000
0010
1000
0001
0000
,  // measure 91
0010
0100
1000
0000
0010
0100
0001
0000
,  // measure 92
0010
0100
1000
0000
0001
0100
0001
0100
,  // measure 93
0010
2000
0000
0100
,  // measure 94
3001
0100
0010
1000
,  // measure 95
0100
0010
0001
0000
1000
0000
0010
0000
,  // measure 96
0100
0001
1000
0000
0100
0000
0010
0001
,  // measure 97
1000
0000
0010
0000
0100
0001
1000
0000
,  // measure 98
0100
0000
0010
0001
0100
0000
0010
1000
,  // measure 99
0100
0000
0010
0001
1000
0000
0010
0100
,  // measure 100
0001
0000
1000
0100
0010
0000
0001
0100
,  // measure 101
0001
1000
0001
0000
0010
0000
0100
1000
,  // measure 102
0100
0010
0100
0000
1000
0000
0001
0100
,  // measure 103
0010
0100
0001
0000
1000
0100
0010
0000
,  // measure 104
0001
1000
0010
0000
0100
0000
0001
1000
,  // measure 105
0001
0010
0001
0000
1000
0000
0010
0100
,  // measure 106
0001
0100
0010
0000
1000
0000
0001
0010
,  // measure 107
0100
0010
0001
0000
1000
0000
0001
0100
,  // measure 108
0010
0100
0001
0000
1000
0000
0100
0010
,  // measure 109
0100
1000
0100
0000
0010
0000
0001
0100
,  // measure 110
0001
0010
0001
0000
1000
0000
0010
0100
,  // measure 111
0001
0000
1000
0100
0010
0000
0001
0100
,  // measure 112
0010
0000
1000
0001
0010
0000
0100
1000
,  // measure 113
0010
1000
0001
0000
0100
0000
0010
1000
,  // measure 114
0100
1000
0001
0000
0100
0000
0010
1000
,  // measure 115
0001
1000
0010
0000
0100
0000
0001
1000
,  // measure 116
0100
1000
0001
0000
0010
0000
0100
1000
,  // measure 117
0100
0010
0100
0000
1000
0000
0001
0100
,  // measure 118
0010
0100
0001
0000
0010
0000
0100
1000
,  // measure 119
0100
0010
0001
0000
0100
0000
0010
1000
,  // measure 120
0010
0100
0001
0000
0010
0000
0100
1000
,  // measure 121
0010
0100
0001
1000
0010
1000
0100
0010
,  // measure 122
0001
0100
0010
1000
0200
0000
0000
0000
,  // measure 123
0300
0000
0000
0000
;

//---------------dance-single - ----------------
#NOTEDATA:;
#CHARTNAME:;
#CHARTHASH:2598236904;
#STEPSTYPE:dance-single;
#BANNER:;
#DESCRIPTION:;
#CHARTSTYLE:;
#DIFFICULTY:Hard;
#METER:18;
#METERF:0.000000;
#LASTSECONDHINT:89.635544;
#RADARVALUES:1.155503,1.127540,0.000000,0.097062,0.000000,750.000000,750.000000,0.000000,9.000000,0.000000,0.000000,0.000000,0.000000,0.000000,1.155503,1.127540,0.000000,0.097062,0.000000,750.000000,750.000000,0.000000,9.000000,0.000000,0.000000,0.000000,0.000000,0.000000;
#CREDIT:Yosefu Burns;
#NOTES:
// measure 0
0000
0000
0000
0000
,  // measure 1
0000
0000
0000
0000
,  // measure 2
0000
0000
0000
0000
,  // measure 3
0000
0000
0000
0000
,  // measure 4
0000
0000
0000
0000
,  // measure 5
0000
0000
0000
0000
,  // measure 6
0000
0000
0000
0000
,  // measure 7
0000
0000
0000
0000
,  // measure 8
0000
0000
0000
0000
1000
0000
0001
0100
,  // measure 9
0000
0001
0010
0000
0001
0100
0000
0001
,  // measure 10
0010
0000
0001
0100
0000
0000
0010
1000
,  // measure 11
0000
0010
1000
0000
0001
0010
0000
0001
,  // measure 12
0100
0000
0001
1000
0000
0000
0100
0010
,  // measure 13
0000
0001
1000
0000
0100
0010
0000
0001
,  // measure 14
1000
0000
0100
0010
0001
0010
0100
1000
,  // measure 15
0100
0010
0001
0000
1000
0010
0100
0001
,  // measure 16
0100
0010
1000
0000
0001
0010
0100
1000
,  // measure 17
0100
0010
0001
1000
0010
0100
0001
1000
,  // measure 18
0010
0100
0001
0000
1000
0000
0010
1000
,  // measure 19
0000
0100
1000
0000
0010
1000
0000
0100
,  // measure 20
1000
0000
0010
1000
0000
0000
0001
0100
,  // measure 21
0000
0001
0100
0000
0001
0010
0000
0100
,  // measure 22
1000
0000
0001
0100
0000
0000
0010
1000
,  // measure 23
0000
0001
0100
0000
0010
1000
0000
0001
,  // measure 24
0010
0000
0100
1000
0100
0010
0001
1000
,  // measure 25
0010
0100
0001
0000
0010
0100
1000
0010
,  // measure 26
0100
0001
1000
0000
0001
0000
0100
0001
,  // measure 27
0000
0010
0001
0000
0100
0001
0000
0010
,  // measure 28
0001
0000
0100
0001
0000
0000
1000
0100
,  // measure 29
0000
1000
0100
0000
0010
1000
0000
0010
,  // measure 30
0100
0000
1000
0001
0000
0000
0100
0010
,  // measure 31
0000
1000
0001
0000
0010
0100
0000
1000
,  // measure 32
0001
0000
0100
0010
1000
0010
0100
0001
,  // measure 33
0010
0100
1000
0000
0001
0100
0010
1000
,  // measure 34
0100
0010
0001
0000
1000
0100
0010
0001
,  // measure 35
0100
0010
1000
0001
0010
0100
1000
0001
,  // measure 36
1000
0100
0010
0001
1000
0000
0001
0100
,  // measure 37
0000
0001
0010
0000
0100
1000
0000
0010
,  // measure 38
1000
0000
0001
0100
0010
0000
1000
0100
,  // measure 39
0000
1000
0100
0000
0001
0100
0000
1000
,  // measure 40
0100
0000
0010
0001
0100
0000
0010
1000
,  // measure 41
0000
0100
0010
0000
0001
0100
0000
0010
,  // measure 42
1000
0000
0001
0010
0001
0100
0001
1000
,  // measure 43
0001
0100
0001
0010
0100
1000
0010
1000
,  // measure 44
0001
1000
0010
1000
0100
0000
0010
0001
,  // measure 45
0000
0100
0001
0000
0010
0001
0000
0100
,  // measure 46
0001
0000
1000
0100
0010
0000
0001
0100
,  // measure 47
0000
0001
0100
0000
1000
0100
0000
0001
,  // measure 48
0100
0000
0010
1000
0100
0000
0001
0100
,  // measure 49
0000
1000
0010
0000
0001
0010
0000
0100
,  // measure 50
0001
0000
1000
0100
0010
0001
0000
0100
,  // measure 51
0010
0000
1000
0100
0010
0001
1000
0010
,  // measure 52
0100
0001
1000
0100
0010
0001
1000
0000
,  // measure 53
0010
0100
0001
0000
2000
0000
0100
0000
,  // measure 54
3010
1000
0001
0000
0010
0100
0010
0001
,  // measure 55
0010
0100
0010
1000
0010
0100
0010
0001
,  // measure 56
0100
0010
1000
0001
0010
0100
1000
0010
,  // measure 57
0100
0001
1000
0100
0010
0001
1000
0010
,  // measure 58
0100
0001
1000
0100
0020
0000
0001
0000
,  // measure 59
0130
1000
0001
0000
0200
0000
0010
0000
,  // measure 60
0301
1000
0100
0000
0010
0001
1000
0010
,  // measure 61
0000
1000
0100
0000
1000
0010
0100
0000
,  // measure 62
0001
1000
0100
0000
0010
0001
0200
0000
,  // measure 63
0001
0000
0310
1000
0200
0000
1000
0000
,  // measure 64
0310
0001
1000
0010
0100
0001
1000
0100
,  // measure 65
1000
0100
0010
0001
1000
0001
0100
0001
,  // measure 66
0100
0010
1000
0001
0010
0100
1000
0010
,  // measure 67
0100
0001
1000
0100
0010
0001
0100
0010
,  // measure 68
1000
0001
0010
0100
1000
0000
0001
0100
,  // measure 69
0000
0001
0010
0000
0001
0100
0000
0001
,  // measure 70
0010
0000
0001
0100
0010
0000
1000
0100
,  // measure 71
0000
1000
0100
0000
0001
0100
0000
1000
,  // measure 72
0100
0000
1000
0001
0100
0000
0010
1000
,  // measure 73
0000
0100
1000
0000
0010
1000
0000
0100
,  // measure 74
1000
0010
0100
0010
0001
0010
0100
0010
,  // measure 75
1000
0001
0010
0100
1000
0010
0100
0001
,  // measure 76
1000
0100
0010
0001
1000
0000
0010
1000
,  // measure 77
0000
0100
1000
0000
0010
1000
0000
0100
,  // measure 78
1000
0000
0010
1000
0001
0000
1000
0010
,  // measure 79
0000
1000
0010
0000
0001
0010
0000
1000
,  // measure 80
0010
0000
0100
0001
0100
0010
0001
0010
,  // measure 81
0100
0001
1000
0100
0010
1000
0010
0100
,  // measure 82
1000
0001
0100
0010
0100
0001
1000
0100
,  // measure 83
0010
0001
0100
0010
1000
0001
0010
0100
,  // measure 84
1000
0001
0100
0010
1000
0000
0001
0100
,  // measure 85
0010
1000
0200
0010
,  // measure 86
1300
0001
0100
0000
0020
0000
1000
0000
,  // measure 87
0130
0001
1000
0000
0100
0000
0001
0000
,  // measure 88
0100
1000
0001
0000
0100
0010
1000
0000
,  // measure 89
0100
0010
0002
0100
,  // measure 90
1003
0100
0010
0000
0001
0010
0100
1000
,  // measure 91
0010
0100
0001
1000
0100
0010
0001
1000
,  // measure 92
0010
0100
0001
1000
0100
0010
0100
0010
,  // measure 93
0001
1000
0010
0000
0100
0001
1000
0000
,  // measure 94
0100
0010
0001
0000
0100
0001
0100
0001
,  // measure 95
0010
0100
1000
0001
1000
0001
0100
0010
,  // measure 96
1000
0100
0010
0001
0100
0000
1000
0100
,  // measure 97
0001
0010
0100
0000
0001
0100
1000
0001
,  // measure 98
0100
0010
0100
0001
1000
0100
0010
0001
,  // measure 99
0100
0010
1000
0001
0010
0100
1000
0010
,  // measure 100
0100
0001
1000
0100
0010
0000
0001
0100
,  // measure 101
0010
0100
0001
1000
0100
0010
0100
1000
,  // measure 102
0001
0100
0010
0000
1000
0000
0100
0010
,  // measure 103
0001
0100
0001
1000
0100
0010
0100
1000
,  // measure 104
0001
0100
0010
0000
1000
0000
0100
0010
,  // measure 105
0100
1000
0001
0100
0010
0100
0001
1000
,  // measure 106
0100
0010
0001
0000
1000
0010
0100
0001
,  // measure 107
0100
0010
1000
0001
1000
0100
0010
0001
,  // measure 108
0010
0100
1000
0001
0100
0000
0010
1000
,  // measure 109
0010
1000
0001
0010
0100
1000
0100
0010
,  // measure 110
0001
1000
0010
0100
0001
0010
0100
1000
,  // measure 111
0001
0100
0010
1000
0001
0010
0100
0010
,  // measure 112
0001
1000
0010
0100
0001
1000
0001
0010
,  // measure 113
0001
0010
0100
1000
0001
0100
0010
1000
,  // measure 114
0001
0010
0100
0010
0001
0010
0100
1000
,  // measure 115
0100
0010
0001
1000
0001
0100
0010
1000
,  // measure 116
0010
0100
0001
1000
0001
0010
0100
1000
,  // measure 117
0001
1000
0100
0010
0001
1000
0001
0100
,  // measure 118
0010
1000
0010
0100
0001
1000
0001
0010
,  // measure 119
0100
1000
0010
0100
0001
1000
0001
0010
,  // measure 120
0100
1000
0010
0100
0001
1000
0100
0010
,  // measure 121
0001
0100
0010
1000
0001
0010
0100
1000
,  // measure 122
0001
0100
0010
1000
0200
0000
0000
0000
,  // measure 123
0300
0000
0000
0000
;
