#TITLE:Brionac;
#SUBTITLE:;
#ARTIST:BlackY;
#TITLETRANSLIT:;
#SUBTITLETRANSLIT:;
#ARTISTTRANSLIT:;
#GENRE:PIANOCORE;
#CREDIT:;
#BANNER:Brionac.png;
#BACKGROUND:Brionac-bg.png;
#LYRICSPATH:;
#CDTITLE:../_YSD cdtitles/ysd cdtitle.png;
#MUSIC:Brionac.ogg;
#OFFSET:-0.390000;
#SAMPLESTART:76.168999;
#SAMPLELENGTH:24.934999;
#SELECTABLE:YES;
#DISPLAYBPM:154.000000;
#BPMS:0.000000=154.000000
;
#STOPS:98.000000=0.194805,
98.500000=0.194805,
161.000000=0.194805,
161.500000=0.194805
;
#BGCHANGES:;
#KEYSOUNDS:;
#ATTACKS:;

//---------------dance-single - ----------------
#NOTES:
     dance-single:
     :
     Beginner:
     3:
     0.159942,0.306555,0.190407,0.137093,0.000000,147.000000,122.000000,25.000000,18.000000,0.000000,0.000000,0.159942,0.306555,0.190407,0.137093,0.000000,147.000000,122.000000,25.000000,18.000000,0.000000,0.000000:
0000
0000
0000
0000
,
0000
0000
0000
0000
,
0000
0000
0000
0000
,
0000
0000
0000
0000
,
0000
0000
0000
0000
,
1001
0000
0000
0000
,
0110
0000
0000
0000
,
1001
0000
0000
0000
,
0001
0000
0000
0000
,
1001
0000
0000
0000
,
0110
0000
0000
0000
,
1001
0000
0000
0000
,
0110
0000
0000
0000
,
1001
0000
1001
0000
,
0110
0000
0110
0000
,
1001
0000
0000
0000
,
1000
0000
0000
0000
,
1001
0000
0001
0000
,
1000
0000
0000
0000
,
0001
0000
1000
0000
,
0010
0000
0000
0000
,
0100
0000
0010
0000
,
1000
0000
0000
0000
,
0001
0000
0010
0000
,
0100
0000
0000
1001
,
0000
1000
0000
0001
,
0000
0100
0000
0002
,
0000
0003
0000
1000
,
0000
0100
0000
1000
,
0000
0001
0000
0100
,
0000
0010
0000
2000
,
0000
3000
0000
0001
,
0000
0001
0000
1001
,
0000
1000
0000
0001
,
0000
0200
0300
0010
,
0000
1000
0000
0010
,
0000
0200
0300
0001
,
0000
1000
0000
0100
,
0000
0020
0030
0001
,
0000
1000
0000
0020
,
0030
0000
1001
0000
,
1000
0000
0001
0000
,
1000
0000
0010
0000
,
0100
0000
0010
0000
,
0100
0000
0001
0000
,
1000
0000
0100
0000
,
0010
0000
0110
0000
,
0000
0000
2002
0000
,
3003
0000
1001
0000
,
1000
0000
0002
0000
,
0003
0000
0100
0000
,
0010
0000
2000
0000
,
3000
0000
0100
0000
,
0010
0000
0002
0000
,
0003
0000
1000
0000
,
0010
0000
0200
0000
,
0300
0000
0110
0000
,
0001
0000
1000
0000
,
0010
0000
0100
0000
,
0001
0000
1000
0000
,
0010
0000
0110
0000
,
0000
0000
1001
0000
,
0000
0000
0110
0000
,
0000
0000
2002
0000
,
3003
0000
1000
0000
,
0001
0000
2000
0000
,
3000
0000
0100
0000
,
0010
0000
0200
0000
,
0300
0000
1000
0000
,
0001
0000
2000
0000
,
3000
0000
0010
0000
,
0100
0000
0020
0000
,
0030
0000
1000
0000
,
0001
0000
0100
0000
,
0010
0000
1000
0000
,
0100
0000
0010
0000
,
0001
0000
1000
0000
,
0001
0000
0100
0000
,
0010
0000
1000
1000
,
1000
0000
0001
0000
,
0000
0000
1001
0000
;

//---------------dance-single - ----------------
#NOTES:
     dance-single:
     :
     Easy:
     7:
     0.361228,0.439839,0.068546,0.099011,0.110436,332.000000,323.000000,9.000000,13.000000,0.000000,0.000000,0.361228,0.439839,0.068546,0.099011,0.110436,332.000000,323.000000,9.000000,13.000000,0.000000,0.000000:
0000
0000
0000
0000
,
0000
0000
0000
0000
,
0000
0000
0000
0000
,
0000
0000
0000
0000
,
0000
0000
0000
0000
,
1000
0000
0000
1000
0000
0000
1000
0000
0000
1000
0000
0000
0000
0000
0000
0000
,
0001
0000
0000
0001
0000
0000
0001
0000
0000
0001
0000
0000
0000
0000
0000
0000
,
1000
0000
0000
1010
0000
0000
0001
0010
,
0000
0100
1000
0000
1100
0000
0000
0000
,
1000
0000
0000
1000
0000
0000
1000
0000
0000
1000
0000
0000
0000
0000
0000
0000
,
0001
0000
0000
0001
0000
0000
0001
0000
0000
0001
0000
0000
0000
0000
0000
0000
,
0100
0000
0000
0100
0000
0000
0100
0000
0000
0100
0000
0000
0000
0000
0000
0000
,
0110
0000
0000
1010
0000
0000
1001
0000
,
0001
0000
0000
0001
0000
0000
0000
0000
1000
0000
0000
1000
0000
0000
0000
0000
,
0100
0000
0000
0100
0000
0000
0000
0000
0010
0000
0000
0010
0000
0000
0000
0000
,
0002
2003
3020
0230
,
0300
0001
0000
0000
0001
0000
0000
1000
0000
0000
1000
0000
0100
0000
0000
0000
,
0010
0001
1000
0010
,
0100
0001
1000
0100
,
0010
0001
0100
0010
,
1000
0010
0100
0000
0001
0000
1000
0000
,
0100
0010
0001
1000
,
0010
0100
0001
0010
,
0100
1000
0001
0100
,
0010
1000
0001
1000
0010
0000
1000
0000
,
0010
0100
0001
1000
,
0100
0000
0010
0000
0001
1000
0020
0000
,
0000
0000
0000
1030
0001
0000
1000
0000
,
0100
0000
0010
0001
1000
0000
0001
0000
,
0100
0010
1000
0001
,
0010
0000
0100
0000
1000
0001
0100
0000
,
0001
0000
0000
0000
1000
0000
0000
0000
0100
0000
0000
0000
0010
0000
0000
0010
,
0000
0000
0001
0000
0000
0001
0000
0000
1000
0000
0000
0000
0010
0000
0000
0000
,
0100
0001
0100
0010
,
1000
0000
0100
0000
0010
0001
1000
0000
,
0100
0010
0001
0100
,
0010
0000
1000
0000
0001
0010
0100
0000
,
0010
0001
1000
0010
,
0100
0000
0001
0000
0010
0100
1000
0000
,
0001
0000
0100
0000
0010
0000
1000
0001
,
0100
0001
1000
0000
1001
0000
0001
0000
,
0010
0000
0100
1000
0001
0000
0100
0000
,
0010
0000
1000
0001
0010
0000
0100
0000
,
0010
0000
0001
0100
0010
0000
1000
0000
,
0100
0000
0000
0100
0000
0000
0010
0000
0001
0000
0000
0000
1000
0000
0000
0000
,
0010
0000
0100
0001
0010
0000
0100
0000
,
1000
0000
0000
0000
0010
0000
0100
0000
0001
0000
0000
0001
0000
0000
1000
0000
,
0000
1000
0000
0000
0001
0000
1000
0000
0001
0000
0000
0001
0000
0000
1000
0000
,
0000
1001
0000
0000
0001
0000
0100
0000
,
0010
1000
0000
0010
1000
0000
0001
0000
,
0010
0100
1000
0100
,
0010
0001
0010
0001
2000
0000
3020
0000
,
0230
0302
1003
0100
,
0010
0001
0000
0010
0001
0000
1000
0000
,
0010
0100
0001
0010
,
0100
0000
0000
0000
1000
0000
0000
0000
0001
0000
0000
0001
0000
0000
1000
0000
,
0001
1000
0100
0010
,
0001
0000
1000
0000
0010
0100
0001
0000
,
1000
0100
0010
0001
,
0100
0000
0010
0000
1000
0001
0010
0000
,
0100
0000
0010
0000
0001
0000
0000
1000
,
0010
0000
0000
0100
0001
0000
0000
1000
,
0100
0000
0000
0010
0002
0000
0100
0000
,
0100
0000
0000
0000
0100
0000
0000
0000
2000
0000
0000
0000
0000
0000
0000
3003
,
0000
0000
1100
0000
,
0100
0000
0010
0000
,
0001
0000
0100
0000
,
0010
0000
1000
0000
,
0001
0000
0101
0000
,
0100
0000
0010
0000
,
1000
0000
0100
0010
,
0001
1000
0020
0000
,
0000
1030
0001
0100
,
0010
0000
1000
0001
0010
0000
0100
0000
,
1000
0000
0100
0010
0001
0000
1000
0000
,
0010
0000
0000
0000
0100
0000
0001
0000
0000
1000
0000
1000
0000
1000
0000
1000
,
0000
1000
0000
0000
0001
0000
0010
0000
0100
0000
0000
0000
1000
0000
0001
0000
,
0100
0000
0001
1000
0100
0000
0010
0001
,
1000
0000
0010
1000
0001
0000
0010
0000
,
0100
0000
1000
0010
0100
0000
0001
0000
,
1000
0000
0010
1000
0200
0000
0000
0000
,
0000
0000
0000
0000
,
0000
0000
0300
0000
;

//---------------dance-single - ----------------
#NOTES:
     dance-single:
     :
     Medium:
     12:
     0.577748,0.565507,0.205639,0.076163,0.411278,531.000000,504.000000,27.000000,10.000000,0.000000,0.000000,0.577748,0.565507,0.205639,0.076163,0.411278,531.000000,504.000000,27.000000,10.000000,0.000000,0.000000:
0000
0000
0000
0000
,
0000
0000
0000
0000
,
0000
0000
0000
0000
,
0000
0000
0000
0000
,
0000
0000
0000
0000
,
1100
0000
0000
1000
0000
0000
1100
0000
0000
1000
0000
0000
0010
0000
0000
0000
,
0101
0000
0000
0001
0000
0000
0101
0000
0000
0001
0000
0000
1000
0000
0100
0000
,
0010
1000
0010
0100
1000
0001
0100
0010
,
1000
1100
0011
0100
,
0101
0000
0000
0001
0000
0000
0101
0000
0000
0001
0000
0000
0010
0000
0000
0000
,
1100
0000
0000
1000
0000
0000
1100
0000
0000
1000
0000
0000
0001
0000
1000
0000
,
1010
0000
0000
1000
0000
0000
1010
0000
0000
1000
0000
0000
0100
0000
0010
0000
,
0001
0000
0100
0000
1000
0000
0100
0000
0010
0000
0100
0000
0001
1000
0000
1000
,
0001
0000
0000
0011
0000
0000
0000
0000
1000
0000
0000
1010
0000
0000
0000
0000
,
0001
0000
0000
0101
0000
0000
0000
0000
1000
0000
0000
1100
0000
0000
0000
0000
,
0001
0000
0000
0101
0000
0000
0001
0000
0000
0101
0000
0000
0001
0000
1000
0000
,
0000
1100
0000
0000
1000
0000
0000
1001
0000
0000
1000
0000
0010
0000
0000
0000
,
0100
0000
0001
0000
1000
0000
0001
0000
0100
0000
0000
0010
0000
0010
0000
0010
,
1000
0000
0001
0000
0010
0000
0001
0000
1000
0000
0000
0100
0000
0100
0000
0100
,
0010
0000
0001
0000
0010
0000
0100
0000
1000
0000
0000
0010
0000
0010
0000
0010
,
0100
1000
0100
0001
0010
1000
0010
0001
,
1000
0000
0010
0000
0100
0000
0010
0000
1000
0000
0000
0010
0000
0010
0000
0010
,
0100
0000
0001
0000
1000
0000
0001
0000
0010
0000
0000
0100
0000
0100
0000
0100
,
1000
0000
0001
0000
0010
0000
0001
0000
1000
0000
0000
0010
0000
0010
0000
0010
,
0100
0000
0000
0000
0001
0000
0000
0000
0010
0000
0000
0000
1000
0000
0000
0000
0020
0030
0000
0000
0002
0003
0000
0000
1000
0000
0000
0000
0010
0000
0000
0000
,
0100
0001
0010
0100
1000
0001
0100
0010
,
1000
0100
0010
0001
1000
0010
0200
0000
,
1000
0000
0301
1000
0100
0010
0001
0100
,
0010
0001
0010
0100
0001
0010
0100
1000
,
0001
0000
0000
1000
0000
1000
0000
0000
0010
0000
0100
0000
1000
0000
0000
0100
,
0000
0001
0000
0010
0000
0100
0000
1000
0000
0001
0100
0000
0010
0000
0000
0000
,
0000
0000
1000
0000
1000
0000
0100
0000
0010
0000
0001
0000
0100
0000
0000
0100
,
0000
0000
0010
0000
0000
0010
0000
0000
1000
0001
0000
0001
1000
0000
0000
0100
,
0000
0000
0010
0000
0001
0000
0000
0100
0000
0000
0010
0000
1000
0000
0000
0001
,
0000
0000
0010
0000
0100
0000
0000
1000
0000
0000
0001
0000
0100
0000
0000
0010
,
0000
0000
1000
0000
0100
0000
0000
0010
0000
0000
0001
0000
1000
0000
0000
0010
,
0000
0000
0100
0000
0001
0000
0000
1000
0000
0000
0100
0000
0010
0000
0000
0001
,
0000
0000
0100
0000
0010
0000
0000
1000
0000
0000
0001
0000
0010
0000
0000
0100
,
0000
0000
1000
0000
0001
0000
0000
0100
0000
0000
0010
0000
1000
0000
0000
0001
,
0000
0000
0010
0000
0100
0000
0000
1000
0000
0000
0010
0000
0001
0000
0010
0000
,
1000
0000
0000
0000
0100
0000
0000
0000
0020
0030
0000
0000
0002
0003
0000
0000
1000
0000
0000
0000
0000
0000
0010
0000
0000
0000
0000
0000
0100
0000
0000
0000
,
0001
0000
0000
0010
0000
0000
0100
0000
1000
0000
0000
0001
0000
0000
0100
0000
,
0010
0000
0000
1000
0000
0000
0100
0000
0010
0000
0000
0001
0000
0000
1000
0000
,
0010
0000
0000
0001
0000
0000
0010
0000
1000
0000
0000
0100
0000
0000
0010
0000
,
1000
0000
0000
0010
0000
0000
0001
0000
1000
0000
0000
0010
0000
0000
0001
0000
,
1000
0000
0000
0100
0000
0000
0001
0000
0010
0000
0100
0000
0010
0000
0100
0000
,
1000
0000
0001
0000
1000
0000
0001
0000
0100
0000
0000
0110
0000
0000
0100
0000
,
0000
0101
0000
0000
0100
0000
0010
0000
1000
0000
0000
0001
0000
0000
1001
0000
,
0000
1000
0100
0010
0010
0001
0010
0100
,
0010
0000
0001
0000
0000
0000
1000
0000
0010
0000
0000
0010
0000
0000
0100
0000
,
0001
0010
0100
1000
1000
0010
0100
0010
,
1000
0100
0001
0100
2000
0000
3020
0000
,
0130
0001
1000
0100
0100
0010
0100
1000
,
0100
0000
0010
0000
0000
0000
0001
0000
0100
0000
0000
0100
0000
0000
0010
0000
,
1000
0001
0010
0100
0100
1000
0100
0010
,
0001
0000
0100
0000
0010
0000
1000
0000
0001
0000
0000
0001
0000
0000
1000
0000
,
0100
0010
0001
1000
0010
0100
0001
0010
,
0100
1000
0010
0100
1000
0100
0001
0010
,
1000
0000
0010
0000
0001
0000
1000
0000
0010
0000
0000
0010
0000
0000
0010
0000
,
0100
0000
0000
0100
0000
0000
0100
0000
0001
0000
1000
0000
0100
0000
0010
0000
,
0001
0100
1000
0100
0001
1000
0100
0000
,
0010
0001
1000
0000
0010
0100
0001
0000
,
0010
0100
1000
0000
0001
0100
0010
1000
,
0100
0000
0010
0000
0001
0000
1000
0000
0020
0000
0000
0000
0000
0000
0000
0030
,
0000
0000
0101
0000
0000
1001
0000
0000
1000
0000
0000
0100
0000
0000
0010
0000
,
0001
0000
0000
0100
0000
0000
0010
0000
1000
0000
0000
0001
0000
0000
0010
0000
,
0100
0000
0000
1000
0000
0000
0001
0000
0100
0000
0000
0010
0000
0000
1000
0000
,
0100
0000
0000
0010
0000
0000
0001
0000
1000
0000
0000
0100
0000
0000
0010
0000
,
0000
0000
0110
0000
0000
1001
0000
0000
1000
0000
0000
0010
0000
0000
0100
0000
,
0001
0000
0000
0010
0000
0000
0100
0000
1000
0000
0000
0001
0000
0000
0100
0000
,
0010
0000
0000
1000
0000
0000
0001
0000
0010
0000
0000
0100
0000
0000
1000
0000
,
0010
0000
0000
0100
0000
0000
0001
0000
2000
0000
0000
0000
0000
0000
0000
0000
,
0000
0000
3001
0000
1000
0010
1000
0010
,
0100
0001
0100
0001
0010
0100
0010
0100
,
1000
0001
1000
0001
0100
1000
0100
1000
,
0100
0000
0001
0000
0100
0000
0001
0000
0000
0010
0000
0010
0000
0100
0000
0100
,
0000
1000
0000
1000
0001
0000
0100
0000
0010
0000
1000
0000
0100
0000
0001
0000
,
0100
1000
0001
0100
1000
0100
0001
0010
,
1000
0010
0001
1000
0010
0001
1000
0100
,
0001
0010
0100
0001
0100
1000
0001
0100
,
0010
0100
0001
0010
0200
0000
0000
0000
,
0000
0000
0000
0000
,
0000
0000
0300
0000
;

//---------------dance-single - ----------------
#NOTES:
     dance-single:
     :
     Hard:
     15:
     0.748570,0.816844,0.411278,0.083779,0.864446,688.000000,634.000000,54.000000,11.000000,0.000000,0.000000,0.748570,0.816844,0.411278,0.083779,0.864446,688.000000,634.000000,54.000000,11.000000,0.000000,0.000000:
0000
0000
0000
0000
,
0000
0000
0000
0000
,
0000
0000
0000
0000
,
0000
0000
0000
0000
,
0000
0000
0000
0000
,
1100
0000
0000
1100
0000
0000
1100
0000
0000
1100
0000
0000
0010
0000
0000
0000
,
0101
0000
0000
0101
0000
0000
0101
0000
0000
0101
0000
0000
1000
0000
0001
0000
,
0010
0000
0100
1000
0000
1000
0001
0000
0100
0010
0000
0010
1000
0000
0001
0000
,
0010
0000
0100
0000
1000
0000
0100
0010
0001
0000
1000
0000
0010
0000
0000
0000
,
0101
0000
0000
0101
0000
0000
0101
0000
0000
0101
0000
0000
0010
0000
0000
0000
,
1100
0000
0000
1100
0000
0000
1100
0000
0000
1100
0000
0000
1000
0001
0010
0000
,
0011
0000
0000
0011
0000
0000
0011
0000
0000
0011
0000
0000
1000
0000
0010
0000
,
0100
0000
0001
1000
0000
1000
0100
0010
0000
0001
0000
0001
0100
0010
0000
0010
,
1000
0000
0000
1010
0000
0000
0001
0000
0010
0000
0000
0011
0000
0000
1000
0000
,
0010
0000
0000
1010
0000
0000
0001
0000
0100
0000
0000
0001
1000
0100
0010
0001
,
1000
0000
0000
1010
0000
0000
0001
0000
0000
0011
0000
0000
1000
0000
0100
0000
,
0000
0110
0000
0000
0101
0000
0000
0110
0000
0000
1100
0000
1001
0000
0000
0000
,
0001
0000
0001
0000
0100
0000
0100
0000
0001
0000
0001
0010
0000
0010
0000
0010
,
0100
0000
0100
0000
1000
0000
1000
0000
0100
0000
0100
0010
0000
0010
0000
0010
,
0001
0000
0001
0000
0100
0000
0100
0000
0001
0000
0001
0010
0000
0010
0000
0010
,
0100
1000
0001
0100
1000
0100
0001
1000
,
0100
0000
0100
0000
1000
0000
1000
0000
0010
0000
0010
1000
0000
1000
0000
1000
,
0100
0000
0100
0000
0010
0000
0010
0000
0001
0000
0001
1000
0000
1000
0000
1000
,
0010
0000
0010
0000
0100
0000
0100
0000
0010
0000
0010
1000
0000
1000
0000
1000
,
0100
0000
0000
0000
0001
0000
0000
0000
0100
0000
0000
0000
1000
0000
0000
0000
0020
0030
0000
0000
0202
0303
0000
0000
0001
0000
1000
0000
0100
0000
0000
0000
,
0010
0000
0001
0000
1000
0010
1000
0010
1000
0000
0001
0000
0010
0100
1000
0000
,
0001
0000
0100
0000
0010
0000
0010
1000
0000
1000
0100
0010
0002
0000
0000
0000
,
0100
0000
0000
0000
1003
0000
0001
0000
0010
0000
0100
0000
1000
0100
0010
0000
,
0001
0100
0010
0000
1000
0000
0000
0001
0010
0001
0010
0100
0000
0000
1000
0000
,
0001
0000
0001
1000
0000
1000
0000
0001
1000
0000
0100
0000
0010
0100
0000
0010
,
0000
0001
0000
0100
0000
1000
0000
0100
0000
0001
1000
0000
0200
0000
0000
0000
,
0010
0000
1000
0000
1300
0001
0100
0000
0010
1000
0100
0000
0010
0000
0010
0001
,
0000
0001
0100
0010
0000
0010
1000
0000
1000
0100
0000
0100
0010
0000
0000
0001
,
0000
1000
0010
0000
0100
0000
0000
0001
0000
0010
0100
0000
1000
0000
0001
0100
,
0000
0001
0100
0000
0010
0000
1000
0001
0000
0000
0010
0000
0100
0000
0000
1000
,
0000
0010
0100
0000
0001
0000
0000
0010
0000
0100
1000
0000
0001
0000
1000
0010
,
0000
1000
0010
0000
0100
0000
0000
0001
0000
0000
0010
0000
0100
0000
0000
1000
,
0000
0001
0100
0000
0010
0000
0000
1000
0000
0100
0010
0000
0001
0000
0010
0100
,
0000
0010
0100
0000
1000
0000
0000
0010
0000
0000
0100
0000
0001
0000
0000
1000
,
0000
0100
0010
0000
0001
0000
0000
0100
0000
0010
1000
0000
0100
0000
0001
0000
,
0100
0000
0000
0000
1000
0000
0000
0000
0020
0030
0000
0000
0202
0303
0000
0000
0001
0000
0000
0000
1000
0000
0100
0000
0000
0000
1000
0000
0100
0000
0000
0000
,
0010
0000
0001
0100
0000
0001
0100
0000
0010
0000
1000
0001
0000
1000
0001
0000
,
0010
0000
0000
0100
0000
0000
1000
0000
0010
0000
0100
0001
0000
0100
0001
0000
,
1000
0000
0100
0001
0000
0100
1000
0000
0001
0000
0100
0010
0000
0100
0010
0000
,
1000
0000
0000
1010
0000
0000
0010
0000
1000
0000
0100
0001
0000
0100
1000
0000
,
0001
0000
0100
1000
0000
0001
0010
0000
1000
0000
0001
0010
0000
0001
0010
0000
,
0100
0000
0000
1100
0000
0000
0100
0000
0110
0000
0000
0101
0000
0000
0110
0000
,
0000
1100
0000
0000
1000
0000
0010
0000
0110
0000
0000
0101
0000
0000
1001
0000
,
0000
0000
1000
0000
0100
0000
0010
0000
0010
0000
0000
0010
0001
0000
0000
0001
,
1000
0000
0010
0000
0100
0000
0010
0000
1000
0000
0001
0010
0000
0001
1000
0000
,
0100
0000
0010
0000
0001
0000
1000
0000
1000
0000
0000
1000
0010
0000
0000
0010
,
0100
0000
1000
0000
0100
0000
0001
0000
1000
0000
0000
1000
0100
0000
0000
0100
,
0010
0000
0000
0010
0001
0000
0000
0001
1000
0000
0000
1000
0010
0000
0000
0010
,
0100
0000
0001
0000
1000
0000
0100
0000
0010
0000
0001
1000
0000
0010
1000
0000
,
0001
0000
0010
0000
0100
0000
1000
0000
1000
0000
0000
1000
0010
0000
0000
0010
,
0100
0000
0000
0100
0001
0000
0000
0001
0010
0000
0000
0110
0000
0000
1100
0000
,
1000
0001
0000
1000
0001
1000
0000
0001
1000
0000
0010
0100
0001
0000
1000
0100
,
0010
0000
0001
1000
0010
0000
0100
0000
0001
1000
0100
0000
0010
0001
1000
0000
,
0010
0100
0001
0000
1000
0100
0010
0000
0001
0000
0001
1000
0000
1000
0010
0000
,
0100
0000
0100
0001
0000
0001
0010
0000
0100
0000
0100
1000
0000
1000
0010
0000
,
0001
0000
0010
0000
1000
0000
0100
0000
0010
0000
0000
0000
0001
0000
1000
0010
,
0100
0000
0000
0000
0001
0000
0010
0100
1000
0000
0000
0000
0010
0000
0100
0001
,
1000
0000
0000
0000
0100
0000
0010
0001
0100
0000
1000
0000
0100
0000
0001
0000
,
0010
0100
0010
0100
1000
0000
0001
0000
0200
0000
0000
0000
0000
0000
0000
0300
,
0000
0000
0101
0000
0000
1001
0000
0000
0011
0000
0000
0010
0000
0001
1000
0000
,
0010
0000
0000
0100
0000
0001
0010
0000
0100
0000
0000
1000
0000
0001
0100
0000
,
0010
0000
0000
1000
0000
0000
0001
0000
0010
0000
0000
0100
0000
0010
0001
0000
,
0100
0000
0000
0010
0000
1000
0001
0000
0010
0000
0000
0100
0000
1000
0010
0000
,
0100
0000
0101
0000
0000
1001
0000
0000
1100
0000
0000
0100
0000
1000
0001
0000
,
0100
0000
0000
0010
0000
1000
0100
0000
0010
0000
0000
0001
0000
1000
0010
0000
,
0100
0000
0000
0001
0000
0000
1000
0000
0100
0000
0000
0010
0000
0100
1000
0000
,
0010
0000
0000
0100
0000
0001
1000
0000
0200
0000
0000
0000
0000
0000
0000
0000
,
0000
0000
0310
0000
0001
0100
1000
0100
,
0001
0000
0010
0000
1000
0000
0010
0100
1000
0000
0100
0000
0001
0000
0100
0010
,
0001
0000
0100
0000
1000
0100
0010
0100
0010
0000
1000
0000
0100
0000
0001
0000
,
0100
0000
1000
0000
0010
0100
0010
0100
0000
0101
0000
0101
0000
1100
0000
1100
,
0000
1001
0000
0001
1000
0000
0100
0000
0010
0000
1000
0000
0010
0000
0001
1000
,
0010
0000
0001
0000
0010
0000
1000
0001
0100
0000
1000
0000
0100
0000
0001
1000
,
0100
0000
0001
0000
0100
1000
0001
0100
0010
1000
0010
0000
0100
0001
0100
0000
,
0001
1000
0001
0000
0010
0100
1000
0001
0100
0000
0010
0000
1000
0001
0100
0000
,
0010
0000
1000
0000
0001
0010
0100
0000
2000
0000
0000
0000
0000
0000
0000
0000
,
0000
0000
0000
0000
,
0000
0000
3000
0000
;

//---------------dance-single - ----------------
#NOTES:
     dance-single:
     :
     Challenge:
     17:
     0.910687,1.036764,0.411278,0.083779,1.210986,837.000000,783.000000,54.000000,11.000000,0.000000,0.000000,0.910687,1.036764,0.411278,0.083779,1.210986,837.000000,783.000000,54.000000,11.000000,0.000000,0.000000:
0000
0000
0000
0000
,
0000
0000
0000
0000
,
0000
0000
0000
0000
,
0000
0000
0000
0000
,
0000
0000
0000
0000
,
1100
0000
0000
1001
0000
0000
1100
0000
0000
1001
0000
0000
0010
0000
0000
0000
,
0101
0000
0000
1001
0000
0000
0101
0000
0000
1001
0000
0000
0100
0000
0010
0000
,
1001
0000
0001
0100
0010
0000
1010
0000
1000
0100
0010
0001
1000
0000
0010
0100
,
0001
0000
1001
0000
1000
0000
0100
0010
0001
0000
0100
0000
0010
0000
0000
0000
,
1010
0000
0000
1001
0000
0000
0011
0000
0000
1001
0000
0000
0010
0000
0000
0000
,
1100
0000
0000
1001
0000
0000
0101
0000
0000
1001
0000
0000
1000
0100
0010
0001
,
0100
0000
0000
0110
0000
0000
1010
0000
0000
0110
0000
0000
0001
0000
1000
0000
,
0100
0000
0010
0001
1000
0010
1000
0100
0000
1000
0000
1000
0010
0100
0000
0100
,
0001
0000
0000
0101
0000
0000
1000
0000
1100
0000
0000
1010
0000
0000
0001
0000
,
0011
0000
0000
0101
0000
0000
0100
0000
1010
0000
0000
1000
0100
0010
0100
1000
,
0010
0000
0000
0010
0100
0000
0000
0100
0001
0000
1000
0000
0100
0000
0010
0000
,
0001
0100
0000
0000
0110
0000
0000
1001
0000
0000
0101
0000
0100
0000
0000
0000
,
0001
0000
1000
0100
0010
0000
0001
0100
0010
0000
1000
0001
0000
0001
0000
0001
,
0010
0000
0100
1000
0010
0000
0100
0001
1000
0000
0100
0010
0000
0010
0000
0010
,
0001
0000
0100
0010
1000
0000
0001
0010
0100
0000
1000
0010
0000
0010
0000
0010
,
0100
1000
0100
0001
0010
1000
0010
0100
,
1000
0000
0010
0100
0001
0000
1000
0100
0010
0000
0001
0100
0000
0100
0000
0100
,
0010
0000
1000
0001
0010
0000
0100
1000
0010
0000
0100
0001
0000
0001
0000
0001
,
1000
0000
0100
0010
0001
0000
0100
0010
1000
0000
0100
0010
0000
0010
0000
0010
,
0001
0000
0000
0000
1000
0000
0000
0000
0010
0000
0000
0000
0001
0000
0000
0000
0020
0030
0000
0000
2020
3030
0000
0000
1000
0000
0100
0000
0010
0000
0001
0000
,
1000
0010
0100
0010
1000
0001
1000
0100
0010
0001
0100
0010
1000
0010
0100
0001
,
0010
0100
1000
0010
0100
0001
1000
0100
1000
0001
0100
0010
2000
0000
0000
0000
,
0100
0000
0000
0000
3001
0000
0100
0000
0010
0000
1000
0000
0100
0010
0100
1000
,
0010
0100
0001
1000
0100
0000
1000
0100
0010
0001
1000
0010
0100
0000
0001
0000
,
0010
0000
0100
1000
0000
1000
0000
0001
0100
0000
0010
0000
0100
1000
0000
0100
,
0000
0001
0000
0010
0000
1000
0000
0010
0000
0100
1000
0000
0001
0000
0000
0000
,
0010
0000
0100
1000
0100
0010
0001
1000
0010
0100
0010
1000
0001
0100
0010
1000
,
0100
0010
0001
1000
0010
0100
0001
0010
0100
1000
0000
0001
0100
0000
0010
1000
,
0000
0001
1000
0000
0100
0000
0010
0001
0000
0100
0010
0000
1000
0000
0100
0010
,
0000
0001
1000
0000
0100
0000
1000
0001
0000
0100
0001
0000
1000
0000
0010
0100
,
0000
0010
1000
0000
0001
0000
0010
0100
0000
1000
0010
0000
0100
0000
0001
1000
,
0000
0100
0010
0000
0001
0000
1000
0010
0000
0100
0001
0000
1000
0000
0100
0010
,
0000
0100
1000
0000
0001
0000
0100
0010
0000
1000
0100
0000
0010
0000
0001
1000
,
0000
0010
1000
0000
0001
0000
0010
0100
0000
1000
0001
0000
0100
0000
0010
0100
,
0000
0001
0100
0000
0010
0000
1000
0100
0000
0010
0001
0000
0011
0000
0110
0000
,
1100
0000
0000
0000
0101
0000
0000
0000
2020
3030
0000
0000
2002
3003
0000
0000
1000
0000
0000
0000
0010
0000
0100
0000
0000
0000
0001
0000
0100
0000
0000
0000
,
0001
0000
1000
0100
0000
0010
0001
0000
0100
0000
0010
1000
0000
0001
0100
0000
,
0001
0000
1000
0100
0000
0010
0001
0000
1000
0000
0010
1000
0000
0100
0010
0000
,
0001
0000
0100
0010
0000
0001
0010
0000
0100
0000
0001
1000
0000
0100
0010
0000
,
0001
0000
0100
0010
0000
1000
0001
0000
0010
0000
0100
1000
0000
0010
0100
0000
,
0001
0000
1000
0100
0000
0001
0100
0000
1000
0000
0001
0100
0000
0010
0100
0000
,
0001
0000
0010
0100
0000
1000
0010
0000
0100
0000
0001
0010
0000
0100
1000
0000
,
0010
0100
0000
0001
0010
0000
0100
0000
1100
0000
0000
1100
0000
0000
1100
0000
,
0000
0000
1001
0000
0001
0000
0100
0000
0100
0000
0010
1000
0001
0000
1000
0100
,
0010
0000
0001
0000
1000
0000
0010
0000
0100
0000
0001
1000
0000
0001
0100
0000
,
0010
0000
1000
0000
0100
0000
0010
0000
0010
0000
0001
1000
0010
0000
0100
0001
,
0010
0000
1000
0000
0010
0000
0001
0000
1000
0000
0010
0100
0001
0000
1000
0100
,
0010
0000
0001
1000
0010
0000
0100
0000
0100
0000
0001
1000
0100
0000
0010
0001
,
1000
0000
0010
0000
0100
0000
0010
0000
1000
0000
0001
0010
0000
0001
1000
0000
,
0010
0000
0100
0000
0001
0000
1000
0000
1000
0000
0100
0010
0001
0000
1000
0010
,
0100
0000
0001
0010
0100
0000
1000
0001
0100
0000
0010
1000
0000
0001
0100
0000
,
0001
0010
0000
0100
1000
0001
1000
0001
1000
0100
0010
0001
1000
0010
0100
0001
,
1000
0100
0010
0100
1000
0001
0100
0001
0010
0100
0010
0001
1000
0010
0100
0010
,
1000
0001
0010
0100
0010
0001
1000
0010
0100
0001
1000
0100
0000
1000
0010
1000
,
0100
0010
0001
0100
0000
0001
1000
0100
0010
0100
1000
0001
0000
1000
0010
0100
,
1000
0100
0010
1000
0001
0010
0100
1000
0001
0000
0000
1000
0010
0000
1000
0100
,
0010
0000
0000
0001
0100
0000
0010
1000
0001
0000
0000
0010
0100
0000
1000
0010
,
0100
0000
0000
1000
0100
0000
0001
0010
0100
0000
1000
0000
0010
0000
0100
0000
,
0001
0010
0001
0100
0010
1000
0100
1000
0002
0000
0000
0000
0000
0000
0000
0003
,
0000
0000
0101
0000
0000
1010
0000
0000
1001
0000
1000
0100
0000
1000
0001
0000
,
1000
0000
0001
0100
0000
0001
0010
0000
0100
0000
1000
0001
0000
1000
0100
0000
,
0010
0000
0001
1000
0000
0010
1000
0000
0001
0000
1000
0010
0000
1000
0001
0000
,
1000
0000
0010
1000
0000
0100
0010
0000
0001
0000
1000
0001
0000
0100
0001
0000
,
1000
0000
1100
0000
0000
0011
0000
0000
1001
0000
0001
0100
0000
0001
1000
0000
,
0001
0000
1000
0100
0000
1000
0010
0000
0100
0000
0001
1000
0000
0001
0100
0000
,
0010
0000
1000
0001
0000
0010
0001
0000
1000
0010
1000
0010
0100
0001
0100
0001
,
1000
0100
1000
0100
0010
0001
1000
0010
0200
0000
0000
0000
0000
0000
0000
0000
,
0000
0000
0000
0000
0301
0000
0000
0000
1000
0000
0100
0010
0001
0010
0100
0000
,
1000
0000
0001
0100
0001
0010
0100
1000
0001
0000
0100
0010
1000
0010
0100
0000
,
0001
0000
1000
0100
0010
0100
1000
0001
0100
0000
0010
1000
0001
1000
0010
0000
,
0100
0000
0001
0010
0100
1000
0010
0100
0001
0100
0000
0101
0000
1100
0000
0011
,
0000
1010
0000
1000
0100
0000
1100
0000
0011
0000
0001
0100
0010
0100
0001
1000
,
0100
0000
0010
0001
0010
0100
1000
0010
0100
0000
0001
1000
0010
1000
0001
0010
,
0100
0000
1000
0100
0010
0001
0100
0010
1000
0100
1000
0100
0010
0001
0010
0001
,
0100
1000
0100
1000
0100
0001
0010
0100
1000
0000
0010
0100
0001
0100
0010
1000
,
0001
0000
0010
0100
1000
0100
0010
0001
0200
0000
0000
0000
0000
0000
0000
0000
,
0000
0000
0000
0000
,
0000
0000
0300
0000
;

//---------------dance-double - ----------------
#NOTES:
     dance-double:
     :
     Beginner:
     4:
     0.157765,0.245244,0.175174,0.106628,0.000000,145.000000,122.000000,23.000000,14.000000,0.000000,0.000000,0.157765,0.245244,0.175174,0.106628,0.000000,145.000000,122.000000,23.000000,14.000000,0.000000,0.000000:
// measure 0
00000000
00000000
00000000
00000000
,  // measure 1
00000000
00000000
00000000
00000000
,  // measure 2
00000000
00000000
00000000
00000000
,  // measure 3
00000000
00000000
00000000
00000000
,  // measure 4
00000000
00000000
00000000
00000000
,  // measure 5
00011000
00000000
00000000
00000000
,  // measure 6
00101000
00000000
00000000
00000000
,  // measure 7
01010000
00000000
00000000
00000000
,  // measure 8
10010000
00000000
00000000
00000000
,  // measure 9
11000000
00000000
00000000
00000000
,  // measure 10
00110000
00000000
00000000
00000000
,  // measure 11
00011000
00000000
00000000
00000000
,  // measure 12
00010010
00000000
00000000
00000000
,  // measure 13
00001010
00000000
00001000
00000000
,  // measure 14
00001001
00000000
00000001
00000000
,  // measure 15
00000110
00000000
00001000
00000000
,  // measure 16
00000002
00000000
00000003
00000000
,  // measure 17
00000110
00000000
00001000
00000000
,  // measure 18
00000001
00000000
00000000
00000000
,  // measure 19
00000010
00000000
00000100
00000000
,  // measure 20
00001000
00000000
00000000
00000000
,  // measure 21
00000100
00000000
00010000
00000000
,  // measure 22
00001000
00000000
00000000
00000000
,  // measure 23
00010000
00000000
00001000
00000000
,  // measure 24
01000000
00000000
00000000
01010000
,  // measure 25
00000000
00010000
00000000
10000000
,  // measure 26
00000000
01000000
00000000
00200000
,  // measure 27
00000000
00300000
00000000
00001000
,  // measure 28
00000000
00010000
00000000
00000010
,  // measure 29
00000000
00001000
00000000
00000001
,  // measure 30
00000000
00001000
00000000
00000200
,  // measure 31
00000000
00000300
00000000
00000110
,  // measure 32
00000000
00000000
00000000
00001001
,  // measure 33
00000000
00000001
00000000
00001000
,  // measure 34
00000000
00000010
00000000
00000100
,  // measure 35
00000000
00000010
00000000
00001000
,  // measure 36
00000000
00000100
00000000
00010000
,  // measure 37
00000000
00001000
00000000
01000000
,  // measure 38
00000000
00010000
00000000
10000000
,  // measure 39
00000000
01000000
00000000
00100000
,  // measure 40
00000000
00000000
01100000
00000000
,  // measure 41
00010000
00000000
10000000
00000000
,  // measure 42
00100000
00000000
01000000
00000000
,  // measure 43
00001000
00000000
00010000
00000000
,  // measure 44
00000100
00000000
00001000
00000000
,  // measure 45
00000001
00000000
00000100
00000000
,  // measure 46
00000010
00000000
00001001
00000000
,  // measure 47
00000000
00000000
00000110
00000000
,  // measure 48
00000000
00000000
00001000
00000000
,  // measure 49
00000100
00000000
00020000
00000000
,  // measure 50
00030000
00000000
00001000
00000000
,  // measure 51
01000000
00000000
00020000
00000000
,  // measure 52
00030000
00000000
10000000
00000000
,  // measure 53
01000000
00000000
00200000
00000000
,  // measure 54
00300000
00000000
00010000
00000000
,  // measure 55
01000000
00000000
00002000
00000000
,  // measure 56
00003000
00000000
00010000
00000000
,  // measure 57
00000100
00000000
00001000
00000000
,  // measure 58
00000001
00000000
00000100
00000000
,  // measure 59
00000010
00000000
00001000
00000000
,  // measure 60
00000100
00000000
00000110
00000000
,  // measure 61
00000000
00000000
00001001
00000000
,  // measure 62
00000000
00000000
00000110
00000000
,  // measure 63
00000000
00000000
00002002
00000000
,  // measure 64
00003003
00000000
00000001
00000000
,  // measure 65
00000100
00000000
00000020
00000000
,  // measure 66
00000030
00000000
00001000
00000000
,  // measure 67
00000010
00000000
00020000
00000000
,  // measure 68
00030000
00000000
00001000
00000000
,  // measure 69
00100000
00000000
00020000
00000000
,  // measure 70
00030000
00000000
00100000
00000000
,  // measure 71
01000000
00000000
20000000
00000000
,  // measure 72
30000000
00000000
00100000
00000000
,  // measure 73
10000000
00000000
00010000
00000000
,  // measure 74
01000000
00000000
00001000
00000000
,  // measure 75
00010000
00000000
00000100
00000000
,  // measure 76
00001000
00000000
00000001
00000000
,  // measure 77
00000010
00000000
00000100
00000000
,  // measure 78
00001000
00000000
00000001
00000001
,  // measure 79
00000001
00000000
00000200
00000000
,  // measure 80
00000300
00000000
00000110
00000000
;

//---------------dance-double - ----------------
#NOTES:
     dance-double:
     :
     Easy:
     8:
     0.380813,0.439839,0.076163,0.106628,0.121860,350.000000,340.000000,10.000000,14.000000,0.000000,0.000000,0.380813,0.439839,0.076163,0.106628,0.121860,350.000000,340.000000,10.000000,14.000000,0.000000,0.000000:
// measure 0
00000000
00000000
00000000
00000000
,  // measure 1
00000000
00000000
00000000
00000000
,  // measure 2
00000000
00000000
00000000
00000000
,  // measure 3
00000000
00000000
00000000
00000000
,  // measure 4
00000000
00000000
00000000
00000000
,  // measure 5
00010000
00000000
00000000
00010000
00000000
00000000
00010000
00000000
00000000
00010000
00000000
00000000
00000000
00000000
00000000
00000000
,  // measure 6
00001000
00000000
00000000
00001000
00000000
00000000
00001000
00000000
00000000
00001000
00000000
00000000
00000000
00000000
00000000
00000000
,  // measure 7
00010000
00000000
00100000
00000000
01000000
00000000
00010000
10000000
,  // measure 8
01000000
00100000
00001000
00010000
,  // measure 9
00000010
00000000
00000000
00000010
00000000
00000000
00000010
00000000
00000000
00000010
00000000
00000000
00000000
00000000
00000000
00000000
,  // measure 10
00000100
00000000
00000000
00000100
00000000
00000000
00000100
00000000
00000000
00000100
00000000
00000000
00000000
00000000
00000000
00000000
,  // measure 11
00000001
00000000
00000000
00000001
00000000
00000000
00000001
00000000
00000000
00000001
00000000
00000000
00000000
00000000
00000000
00000000
,  // measure 12
00000101
00000000
00000000
00001010
00000000
00000000
00010010
00000000
,  // measure 13
00010000
00000000
00000000
00010000
00000000
00000000
00000000
00000000
00001000
00000000
00000000
00001000
00000000
00000000
00000000
00000000
,  // measure 14
01000000
00000000
00000000
01000000
00000000
00000000
00000000
00000000
00100000
00000000
00000000
00100000
00000000
00000000
00000000
00000000
,  // measure 15
10000000
00010000
00100000
00000000
01000000
00000000
10000000
00010000
,  // measure 16
00000000
01000000
00000000
00000000
01000000
00000000
00000000
01000000
00000000
00000000
01000000
00000000
00100000
00000000
00000000
00000000
,  // measure 17
10000000
00010000
01000000
00000000
00001000
00000000
00010000
00000000
,  // measure 18
00000100
00001000
00000001
00000000
00000100
00000000
00000010
00000000
,  // measure 19
00001000
00000001
00000010
00000000
00000100
00000000
00000010
00000000
,  // measure 20
00000001
00001000
00000010
00001000
00000001
00000000
00000100
00000000
,  // measure 21
00000010
00001000
00000001
00000000
00000010
00000000
00000100
00000000
,  // measure 22
00010000
00001000
01000000
00000000
00010000
00000000
10000000
00000000
,  // measure 23
01000000
00100000
00010000
00000000
01000000
00000000
00100000
00000000
,  // measure 24
10000000
00010000
01000000
00010000
10000000
00000000
00010000
01000000
,  // measure 25
00001000
00000000
00010000
00000000
00000100
00000000
00000010
00000001
,  // measure 26
00001000
00000000
00000100
00000000
00001000
00000001
00000200
00000000
,  // measure 27
00000000
00000000
00000000
00000000
00000310
00001000
00000002
00000000
,  // measure 28
00000023
00000000
00000230
00000000
00010300
00001000
00000000
00010000
,  // measure 29
00001000
00000000
01000000
00010000
10000000
00000000
01000000
00000000
,  // measure 30
00100000
00000000
00010000
00000000
10000000
00100000
02000000
00000000
,  // measure 31
00000000
00000000
03010000
00000000
01000000
00000000
00000000
00000000
00001000
00000000
00010000
00000000
00000100
00000000
00000000
00000100
,  // measure 32
00000000
00000000
00001000
00000000
00000000
00001000
00000000
00000000
00000001
00000000
00000000
00000000
00000100
00000000
00000000
00000000
,  // measure 33
00000010
00000000
00001000
00000000
00000001
00000010
00000100
00000000
,  // measure 34
00000010
00000000
00000001
00000000
00001000
00000010
00000100
00000000
,  // measure 35
00000010
00000000
00010000
00000000
00001000
00100000
01000000
00000000
,  // measure 36
00100000
00000000
00010000
00000000
10000000
00100000
01000000
00000000
,  // measure 37
00010000
00000000
10000000
00000000
01000000
00100000
00010000
00000000
,  // measure 38
00100000
00000000
01000000
00000000
10000000
00010000
01000000
00000000
,  // measure 39
00001000
00000000
00010000
00000000
00000100
00001000
00000001
00000100
,  // measure 40
00000010
00001000
00000001
00000000
00001000
00000000
00000100
00000000
,  // measure 41
00000010
00000000
00000100
00010000
00001000
00000000
01000000
00000000
,  // measure 42
00010000
00000000
10000000
01000000
00100000
00000000
00010000
00000000
,  // measure 43
01000000
00000000
00001000
00010000
00000100
00000000
00000010
00000000
,  // measure 44
00000100
00000000
00000000
00000100
00000000
00000000
00001000
00000000
00000001
00000000
00000000
00000000
00000100
00000000
00000000
00000000
,  // measure 45
00000010
00000000
00000100
00000001
00000010
00000000
00000100
00000000
,  // measure 46
00000010
00000000
00000000
00000010
00000000
00000000
00000100
00000000
00010000
00000000
00000000
00010000
00000000
00000000
00001000
00000000
,  // measure 47
00000000
00001000
00000000
00000000
00010000
00000000
00001000
00000000
00010000
00000000
00000000
00010000
00000000
00000000
00001000
00000000
,  // measure 48
00000000
00011000
00000000
00000000
00010000
00000000
00001000
00000000
,  // measure 49
01000000
00010000
00000000
01000000
00010000
00000000
10000000
00000000
,  // measure 50
01000000
00100000
00010000
00000000
10000000
00000000
00100000
00000000
,  // measure 51
01000000
00001000
00010000
00000000
00000200
00000000
00002300
00000000
,  // measure 52
00003002
00000023
00000130
00010000
,  // measure 53
00001000
01000000
00000000
00001000
01000000
00000000
00010000
00000000
,  // measure 54
00100000
01000000
10000000
00000000
00010000
00000000
01000000
00000000
,  // measure 55
00100000
01000000
00002000
00000000
,  // measure 56
00023000
00000000
00000000
00000000
00030100
00001000
00000001
00000000
,  // measure 57
00000100
00000000
00000010
00000000
00001000
00000001
00000010
00000000
,  // measure 58
00000100
00000000
00001000
00000000
00000001
00000000
00000000
00000000
00000100
00000000
00000000
00000100
00000000
00000000
00000000
00000000
,  // measure 59
00000010
00000000
00000000
00000010
00000000
00000000
00000000
00000000
00001000
00000000
00000000
00001000
00000000
00000000
00000000
00000000
,  // measure 60
00000001
00000010
00000100
00000000
00010000
00000000
00011000
00000000
,  // measure 61
00001000
00101000
01000000
01010000
,  // measure 62
00100000
00000000
10010000
00000000
00010000
01000000
00100000
00000000
,  // measure 63
10000000
00000000
00010000
00000000
00100000
00000000
00000000
00000000
02000000
00000000
00000000
00000000
00000000
00000000
00000000
03000000
,  // measure 64
00000000
00000000
11000000
00000000
,  // measure 65
10000000
00000000
00010000
00000000
,  // measure 66
01000000
00000000
00001000
00000000
,  // measure 67
00010000
00000000
00000100
00000000
,  // measure 68
00001000
00000000
00001001
00000000
,  // measure 69
00000001
00000000
00000010
00000000
,  // measure 70
00000001
00000000
00001000
00000000
,  // measure 71
00000010
00000000
00020000
00000000
,  // measure 72
00000000
00031000
00010000
00001000
,  // measure 73
01000000
00000000
00100000
10000000
00010000
00000000
00100000
00000000
,  // measure 74
01000000
00000000
00100000
00001000
00010000
00000000
00000010
00000000
,  // measure 75
00001000
00000000
00000000
00000000
00000001
00000000
00000010
00000000
00000000
00000100
00000000
00000100
00000000
00000100
00000000
00000100
,  // measure 76
00000000
00000100
00000000
00000000
00001000
00000000
00000001
00000000
00000100
00000000
00000000
00000000
00000010
00000000
00000000
00000000
,  // measure 77
00001000
00000000
00000010
00010000
00001000
00000000
00100000
00000000
,  // measure 78
01000000
00000000
10000000
00010000
01000000
00000000
00100000
00000000
,  // measure 79
01000000
00010000
00100000
00000000
00010000
00000000
01000000
00000000
,  // measure 80
00010000
00000000
00100000
01000000
20000000
00000000
00000000
00000000
,  // measure 81
00000000
00000000
00000000
00000000
,  // measure 82
00000000
00000000
30000000
00000000
;

//---------------dance-double - ----------------
#NOTES:
     dance-double:
     :
     Medium:
     13:
     0.578836,0.534090,0.182790,0.076163,0.407470,532.000000,508.000000,24.000000,10.000000,0.000000,0.000000,0.578836,0.534090,0.182790,0.076163,0.407470,532.000000,508.000000,24.000000,10.000000,0.000000,0.000000:
// measure 0
00000000
00000000
00000000
00000000
,  // measure 1
00000000
00000000
00000000
00000000
,  // measure 2
00000000
00000000
00000000
00000000
,  // measure 3
00000000
00000000
00000000
00000000
,  // measure 4
00000000
00000000
00000000
00000000
,  // measure 5
00011000
00000000
00000000
00001000
00000000
00000000
00101000
00000000
00000000
00001000
00000000
00000000
00010000
00000000
00000000
00000000
,  // measure 6
00011000
00000000
00000000
00010000
00000000
00000000
00010010
00000000
00000000
00010000
00000000
00000000
00001000
00000000
00100000
00000000
,  // measure 7
01000000
00010000
00001000
01000000
00100000
00010000
00001000
00000100
,  // measure 8
00000010
00001000
00000001
00000010
00000100
00001000
00000001
00000000
,  // measure 9
00001100
00000000
00000000
00001000
00000000
00000000
00001001
00000000
00000000
00001000
00000000
00000000
00000010
00000000
00000000
00000000
,  // measure 10
00000101
00000000
00000000
00000001
00000000
00000000
00001001
00000000
00000000
00000001
00000000
00000000
00000010
00000000
00001000
00000000
,  // measure 11
00001100
00000000
00000000
00001000
00000000
00000000
00001010
00000000
00000000
00001000
00000000
00000000
00000100
00000000
00000010
00000000
,  // measure 12
00001000
00010000
00100000
01000000
00010000
00100000
01000000
10000000
,  // measure 13
00010000
00000000
00000000
10010000
00000000
00000000
00000000
00000000
00001000
00000000
00000000
01001000
00000000
00000000
00000000
00000000
,  // measure 14
00000100
00000000
00000000
00010100
00000000
00000000
00000000
00000000
00000001
00000000
00000000
00001001
00000000
00000000
00000000
00000000
,  // measure 15
00001010
00000000
00000000
00001000
00000000
00000000
00001100
00000000
00000000
00000100
00000000
00000000
00000010
00000000
00000100
00000000
,  // measure 16
00000000
00010000
00000000
00000000
00011000
00000000
00000000
00010000
00000000
00000000
01010000
00000000
01000000
00000000
00000000
00000000
,  // measure 17
10000000
00000000
00010000
00000000
01000000
00000000
00001000
00000000
00010000
00000000
00000000
00000010
00000000
00000010
00000000
00000010
,  // measure 18
00001000
00000000
00000001
00000000
00000010
00000000
00000100
00000000
00001000
00000000
00000000
00000100
00000000
00000100
00000000
00000100
,  // measure 19
00010000
00000000
00001000
00000000
01000000
00000000
00010000
00000000
10000000
00000000
00000000
00100000
00000000
00100000
00000000
00100000
,  // measure 20
01000000
10000000
01000000
00100000
00010000
00001000
00000010
00001000
,  // measure 21
00010000
00000000
00001000
00000000
01000000
00000000
00010000
00000000
10000000
00000000
00000000
00100000
00000000
00100000
00000000
00100000
,  // measure 22
01000000
00000000
00001000
00000000
00010000
00000000
00000100
00000000
00000010
00000000
00000000
00000100
00000000
00000100
00000000
00000100
,  // measure 23
00001000
00000000
00000001
00000000
00000100
00000000
00000010
00000000
00001000
00000000
00000000
00000010
00000000
00000010
00000000
00000010
,  // measure 24
00000100
00000000
00000000
00000000
00001000
00000000
00000000
00000000
00010000
00000000
00000000
00000000
00001000
00000000
00000000
00000000
00200000
00300000
00000000
00000000
02000000
03000000
00000000
00000000
10000000
00000000
00000000
00000000
00100000
00000000
00000000
00000000
,  // measure 25
01000000
00100000
00010000
00001000
00000100
00000010
00001000
00000100
,  // measure 26
00000010
00000001
00000100
00001000
00010000
00100000
02000000
00000000
,  // measure 27
10000000
00000000
03010000
10000000
01000000
00100000
00010000
00100000
,  // measure 28
01000000
00010000
00001000
00010000
00100000
10000000
00010000
10000000
,  // measure 29
01000000
00000000
00000000
00100000
00000000
00100000
00000000
00000000
00001000
00000000
00010000
00000000
00100000
00000000
00000000
00010000
,  // measure 30
00000000
00001000
00000000
00000010
00000000
00000100
00000000
00001000
00000000
00010000
00000000
00000000
00100000
00000000
00000000
00000000
,  // measure 31
01000000
00000000
10000000
00000000
10000000
00000000
00100000
00000000
01000000
00000000
00001000
00000000
00010000
00000000
00000000
00010000
,  // measure 32
00000000
00000000
00000100
00000000
00000000
00000100
00000000
00000000
00001000
00000001
00000000
00000001
00001000
00000000
00000000
00000010
,  // measure 33
00000000
00000000
00000100
00000000
00000001
00000000
00000000
00000010
00000000
00000000
00001000
00000000
00010000
00000000
00000000
00100000
,  // measure 34
00000000
00000000
10000000
00000000
00010000
00000000
00000000
00100000
00000000
00000000
10000000
00000000
00100000
00000000
00000000
00001000
,  // measure 35
00000000
00000000
00010000
00000000
00000010
00000000
00000000
00000100
00000000
00000000
00001000
00000000
00010000
00000000
00000000
00100000
,  // measure 36
00000000
00000000
01000000
00000000
00010000
00000000
00000000
00100000
00000000
00000000
01000000
00000000
10000000
00000000
00000000
00100000
,  // measure 37
00000000
00000000
01000000
00000000
00001000
00000000
00000000
00010000
00000000
00000000
00000100
00000000
00000010
00000000
00000000
00000001
,  // measure 38
00000000
00000000
00000100
00000000
00001000
00000000
00000000
00010000
00000000
00000000
00100000
00000000
00010000
00000000
00000000
00001000
,  // measure 39
00000000
00000000
00000010
00000000
00000100
00000000
00000000
00001000
00000000
00000000
00000001
00000000
00000010
00000000
00000100
00000000
,  // measure 40
00001000
00000000
00000000
00000000
00010000
00000000
00000000
00000000
00200000
00300000
00000000
00000000
02000000
03000000
00000000
00000000
10000000
00000000
00000000
00000000
00000000
00000000
00100000
00000000
00000000
00000000
00000000
00000000
00010000
00000000
00000000
00000000
,  // measure 41
00001000
00000000
00000000
00010000
00000000
00000000
00100000
00000000
01000000
00000000
00000000
00001000
00000000
00000000
00010000
00000000
,  // measure 42
00100000
00000000
00000000
01000000
00000000
00000000
00010000
00000000
10000000
00000000
00000000
01000000
00000000
00000000
00010000
00000000
,  // measure 43
00001000
00000000
00000000
00000010
00000000
00000000
00000001
00000000
00000100
00000000
00000000
00001000
00000000
00000000
00010000
00000000
,  // measure 44
00001000
00000000
00000000
00000010
00000000
00000000
00000001
00000000
00000100
00000000
00000000
00001000
00000000
00000000
00000100
00000000
,  // measure 45
00000001
00000000
00000000
00000010
00000000
00000000
00001000
00000000
00010000
00000000
00100000
00000000
01000000
00000000
00001000
00000000
,  // measure 46
00010000
00000000
00100000
00000000
01000000
00000000
00100000
00000000
00010000
00000000
00000000
00011000
00000000
00000000
00000010
00000000
,  // measure 47
00000000
00011000
00000000
00000000
00100000
00000000
01000000
00000000
10000000
00000000
00000000
00010000
00000000
00000000
10010000
00000000
,  // measure 48
00000000
10000000
00100000
01000000
01000000
00010000
00100000
01000000
,  // measure 49
00100000
00000000
00001000
00000000
00010000
00000000
00000010
00000000
00001000
00000000
00000000
00000010
00000000
00000000
00000010
00000000
,  // measure 50
00000100
00000001
00000010
00000100
00000100
00001000
00000100
00000010
,  // measure 51
00001000
00010000
00100000
01000000
00020000
00000000
00230000
00000000
,  // measure 52
01300000
10000000
00010000
01000000
01000000
00100000
10000000
00100000
,  // measure 53
01000000
00000000
00001000
00000000
00010000
00000000
00000100
00000000
00000010
00000000
00000000
00000001
00000000
00000000
00000001
00000000
,  // measure 54
00000100
00000010
00001000
00000001
00000001
00000010
00000100
00000010
,  // measure 55
00001000
00000000
00010000
00000000
00100000
00000000
01000000
00000000
00010000
00000000
00000000
00010000
00000000
00000000
10000000
00000000
,  // measure 56
01000000
00100000
00010000
10000000
00100000
01000000
10000000
01000000
,  // measure 57
00010000
00100000
01000000
00010000
00001000
00000100
00001000
00010000
,  // measure 58
01000000
00000000
00010000
00000000
00001000
00000000
00000010
00000000
00000001
00000000
00000000
00000001
00000000
00000000
00000100
00000000
,  // measure 59
00001000
00000000
00000000
00001000
00000000
00000000
00010000
00000000
00100000
00000000
00000000
00100000
00000000
00000000
01000000
00000000
,  // measure 60
10000000
01000000
00010000
00100000
01000000
10000000
00010000
00000000
,  // measure 61
01000000
00001000
00010000
00000000
00000100
00001000
00000001
00000000
,  // measure 62
00000010
00000100
00001000
00000000
00000010
00000100
00000001
00000100
,  // measure 63
00000010
00000000
00001000
00000000
00000100
00000000
00000010
00000000
00000002
00000000
00000000
00000000
00000000
00000000
00000000
00000003
,  // measure 64
00000000
00000000
00000100
00000000
00000000
00001000
00000000
00000000
00010000
00000000
00000000
00100000
00000000
00000000
01000000
00000000
,  // measure 65
00010000
00000000
00000000
10000000
00000000
00000000
01000000
00000000
00010000
00000000
00000000
00001000
00000000
00000000
00000100
00000000
,  // measure 66
00000001
00000000
00000000
00000010
00000000
00000000
00000100
00000000
00001000
00000000
00000000
00000010
00000000
00000000
00000100
00000000
,  // measure 67
00001000
00000000
00000000
00010000
00000000
00000000
00100000
00000000
00010000
00000000
00000000
00001000
00000000
00000000
00100000
00000000
,  // measure 68
01000000
00000000
11000000
00000000
00000000
10010000
00000000
00000000
01010000
00000000
00000000
01000000
00000000
00000000
00010000
00000000
,  // measure 69
00100000
00000000
00000000
01000000
00000000
00000000
00010000
00000000
00001000
00000000
00000000
00000010
00000000
00000000
00000100
00000000
,  // measure 70
00001000
00000000
00000000
00000001
00000000
00000000
00000100
00000000
00000010
00000000
00000000
00001000
00000000
00000000
00000010
00000000
,  // measure 71
00000100
00000000
00000000
00001000
00000000
00000000
00010000
00000000
00002000
00000000
00000000
00000000
00000000
00000000
00000000
00000000
,  // measure 72
00000000
00000000
00013000
00000000
00001000
00010000
00001000
00010000
,  // measure 73
00100000
01000000
00100000
01000000
00010000
10000000
00010000
10000000
,  // measure 74
01000000
00100000
01000000
00100000
00001000
00010000
00001000
00010000
,  // measure 75
00000010
00000000
00000100
00000000
00000010
00000000
00000100
00000000
00000000
00000001
00000000
00000001
00000000
00001000
00000000
00001000
,  // measure 76
00000000
00000100
00000000
00000100
00000010
00000000
00000001
00000000
00000100
00000000
00001000
00000000
00010000
00000000
00100000
00000000
,  // measure 77
01000000
10000000
01000000
00010000
10000000
01000000
00100000
00010000
,  // measure 78
00001000
00000100
00000010
00000001
00000100
00001000
00010000
01000000
,  // measure 79
10000000
00100000
00010000
00001000
00000010
00000001
00001000
00000010
,  // measure 80
00000100
00000001
00000010
00000100
00002000
00000000
00000000
00000000
,  // measure 81
00000000
00000000
00000000
00000000
,  // measure 82
00000000
00000000
00003000
00000000
;

//---------------dance-double - ----------------
#NOTES:
     dance-double:
     :
     Hard:
     15:
     0.750746,0.816844,0.449359,0.060930,0.860638,690.000000,631.000000,59.000000,8.000000,0.000000,0.000000,0.750746,0.816844,0.449359,0.060930,0.860638,690.000000,631.000000,59.000000,8.000000,0.000000,0.000000:
// measure 0
00000000
00000000
00000000
00000000
,  // measure 1
00000000
00000000
00000000
00000000
,  // measure 2
00000000
00000000
00000000
00000000
,  // measure 3
00000000
00000000
00000000
00000000
,  // measure 4
00000000
00000000
00000000
00000000
,  // measure 5
00011000
00000000
00000000
00011000
00000000
00000000
00011000
00000000
00000000
00011000
00000000
00000000
00100000
00000000
00000000
00000000
,  // measure 6
01100000
00000000
00000000
01100000
00000000
00000000
01100000
00000000
00000000
01100000
00000000
00000000
10000000
00000000
00010000
00000000
,  // measure 7
01000000
00000000
00100000
10000000
00000000
10000000
01000000
00000000
00100000
00001000
00000000
00001000
00010000
00000000
00000010
00000000
,  // measure 8
00001000
00000000
00000010
00000000
00000100
00000000
00000001
00001000
00000100
00000000
00000010
00000000
00000001
00000000
00000000
00000000
,  // measure 9
00000011
00000000
00000000
00000011
00000000
00000000
00000011
00000000
00000000
00000011
00000000
00000000
00001000
00000000
00000000
00000000
,  // measure 10
00001010
00000000
00000000
00001010
00000000
00000000
00001010
00000000
00000000
00001010
00000000
00000000
00000010
00010000
00001000
00100000
,  // measure 11
00010000
00000000
00000000
00110000
00000000
00000000
00110000
00000000
00000000
00110000
00000000
00000000
00010000
00000000
10000000
00000000
,  // measure 12
00100000
00000000
01000000
00010000
00000000
00010000
00100000
01000000
00000000
10000000
00000000
10000000
00100000
01000000
00000000
01000000
,  // measure 13
00001000
00000000
00000000
01001000
00000000
00000000
01000000
00000000
01010000
00000000
00000000
00011000
00000000
00000000
00000010
00000000
,  // measure 14
00001010
00000000
00000000
00001010
00000000
00000000
00000001
00000000
00000011
00000000
00000000
00001001
00000000
00000000
00001000
00000010
,  // measure 15
00000100
00000000
00000000
00000110
00000000
00000000
00001100
00000000
00000000
00000110
00000000
00000000
00000101
00000000
00000001
00000000
,  // measure 16
00000000
00001100
00000000
00000000
00000110
00000000
00000000
00000011
00000000
00000000
00000110
00000000
00001100
00000000
00000000
00000000
,  // measure 17
00010000
00000000
00010000
00000000
00001000
00000000
00001000
00000000
00010000
00000000
00010000
00100000
00000000
00100000
00000000
00100000
,  // measure 18
01000000
00000000
01000000
00000000
00010000
00000000
00010000
00000000
10000000
00000000
10000000
01000000
00000000
01000000
00000000
01000000
,  // measure 19
00100000
00000000
00100000
00000000
00010000
00000000
00010000
00000000
01000000
00000000
01000000
00100000
00000000
00100000
00000000
00100000
,  // measure 20
10000000
01000000
00010000
00001000
00000100
00000001
00000010
00001000
,  // measure 21
00010000
00000000
00010000
00000000
00001000
00000000
00001000
00000000
00010000
00000000
00010000
00000010
00000000
00000010
00000000
00000010
,  // measure 22
00000100
00000000
00000100
00000000
00000001
00000000
00000001
00000000
00000010
00000000
00000010
00000100
00000000
00000100
00000000
00000100
,  // measure 23
00010000
00000000
00010000
00000000
00001000
00000000
00001000
00000000
00010000
00000000
00010000
00100000
00000000
00100000
00000000
00100000
,  // measure 24
01000000
00000000
00000000
00000000
10000000
00000000
00000000
00000000
01000000
00000000
00000000
00000000
00001000
00000000
00000000
00000000
00020000
00030000
00000000
00000000
00200000
00300000
00000000
00000000
01000000
00000000
00010000
00000000
10000000
00000000
00000000
00000000
,  // measure 25
01000000
00000000
00100000
00000000
00001000
00010000
00001000
00010000
00001000
00000000
00010000
00000000
00000010
00001000
00000001
00000000
,  // measure 26
00000010
00000000
00000100
00000000
00001000
00000000
00001000
00000010
00000000
00000010
00000100
00000001
00000200
00000000
00000000
00000000
,  // measure 27
00000010
00000000
00000000
00000000
00000301
00000000
00001000
00000000
00000100
00000000
00000010
00000000
00000001
00000100
00000010
00000000
,  // measure 28
00010000
00001000
00100000
00000000
00010000
00000000
00000000
10000000
00100000
10000000
00100000
01000000
00000000
00000000
00010000
00000000
,  // measure 29
10000000
00000000
10000000
00010000
00000000
00010000
00000000
01000000
00001000
00000000
00010000
00000000
00100000
10000000
00000000
01000000
,  // measure 30
00000000
00100000
00000000
00010000
00000000
00001000
00000000
00000100
00000000
00000010
00000001
00000000
00000100
00000000
00000000
00000000
,  // measure 31
00000010
00000000
00001000
00000000
00001000
00000100
00000010
00000000
00000001
00001000
00000010
00000000
00000100
00000000
00000100
00001000
,  // measure 32
00000000
00001000
00010000
00001000
00000000
00001000
00100000
00000000
00100000
01000000
00000000
01000000
10000000
00000000
00000000
00100000
,  // measure 33
00000000
01000000
00010000
00000000
10000000
00000000
00000000
01000000
00000000
00010000
00001000
00000000
00010000
00000000
00000010
00001000
,  // measure 34
00000000
00000010
00001000
00000000
00000100
00000000
00000010
00000001
00000000
00000000
00001000
00000000
00000010
00000000
00000000
00000100
,  // measure 35
00000000
00000001
00000010
00000000
00000100
00000000
00000000
00000010
00000000
00001000
00010000
00000000
00100000
00000000
01000000
00010000
,  // measure 36
00000000
01000000
00010000
00000000
10000000
00000000
01000000
00100000
00000000
00000000
00010000
00000000
10000000
00000000
00000000
00100000
,  // measure 37
00000000
01000000
00010000
00000000
10000000
00000000
00000000
00100000
00000000
00010000
00001000
00000000
00010000
00000000
00000100
00001000
,  // measure 38
00000000
00000100
00001000
00000000
00000010
00000000
00000100
00000001
00000000
00000000
00001000
00000000
00000100
00000000
00000010
00000001
,  // measure 39
00000000
00000010
00000001
00000000
00001000
00000000
00000010
00000100
00000000
00000010
00001000
00000000
00000001
00000000
00000010
00000000
,  // measure 40
00000100
00000000
00000000
00000000
00001000
00000000
00000000
00000000
00020000
00030000
00000000
00000000
00200000
00300000
00000000
00000000
01000000
00000000
00000000
00000000
10000000
00000000
00010000
00000000
00000000
00000000
10000000
00000000
00010000
00000000
00000000
00000000
,  // measure 41
01000000
00000000
00001000
00010000
00000000
00100000
00010000
00000000
00001000
00000000
00010000
00000100
00000000
00010000
00000100
00000000
,  // measure 42
00001000
00000000
00000000
00000010
00000000
00000000
00000100
00000000
00000001
00000000
00001000
00000100
00000000
00000001
00000100
00000000
,  // measure 43
00010000
00000000
00001000
00010000
00000000
00100000
01000000
00000000
00010000
00000000
10000000
01000000
00000000
00010000
01000000
00000000
,  // measure 44
10000000
00000000
00000000
10010000
00000000
00000000
00010000
00000000
01000000
00000000
10000000
01000000
00000000
00010000
01000000
00000000
,  // measure 45
00001000
00000000
00010000
00000100
00000000
00000001
00000100
00000000
00001000
00000000
00000001
00000100
00000000
00001000
00010000
00000000
,  // measure 46
00011000
00000000
00000000
00011000
00000000
00000000
00101000
00000000
00110000
00000000
00000000
00110000
00000000
00000000
00110000
00000000
,  // measure 47
00000000
00110000
00000000
00000000
10010000
00000000
10000000
00000000
10100000
00000000
00000000
10100000
00000000
00000000
10100000
00000000
,  // measure 48
00000000
00000000
10010000
00000000
10000000
00000000
01000000
00000000
01000000
00000000
00000000
01000000
00100000
00000000
00000000
00100000
,  // measure 49
00010000
00000000
10000000
00000000
00000000
00000000
00100000
00000000
01000000
00000000
00000000
01000000
00001000
00000000
00010000
00000000
,  // measure 50
00001000
00000000
00010000
00000000
00000100
00000000
00001000
00000000
00001000
00000000
00000000
00001000
00000001
00000000
00000000
00000001
,  // measure 51
00000100
00000000
00001000
00000000
00010000
00000000
00000010
00000000
00001000
00000000
00000000
00001000
00000100
00000000
00000000
00000100
,  // measure 52
00000010
00000000
00000000
00000010
00000001
00000000
00001000
00000000
00001000
00000000
00000000
00001000
00000010
00000000
00000000
00000010
,  // measure 53
00000100
00000000
00000001
00000000
00000000
00000000
00001000
00000000
00000100
00000000
00000000
00000100
00010000
00000000
00001000
00000000
,  // measure 54
01000000
00000000
00010000
00000000
10000000
00000000
00100000
00000000
00100000
00000000
00000000
00100000
01000000
00000000
00000000
01000000
,  // measure 55
00010000
00000000
00000000
00010000
00100000
00000000
00000000
00100000
01000000
00000000
01000000
10000000
00000000
10000000
00010000
00000000
,  // measure 56
01000000
00100000
00000000
10000000
00010000
10000000
00000000
01000000
00100000
00000000
00010000
10000000
00100000
00000000
01000000
00001000
,  // measure 57
00010000
00000000
00001000
00010000
00000010
00000000
00001000
00000000
00000001
00000010
00000100
00000000
00001000
00000010
00000100
00000000
,  // measure 58
00000001
00000010
00000100
00000000
00010000
00001000
01000000
00000000
00010000
00000000
00010000
00100000
00000000
00100000
01000000
00000000
,  // measure 59
10000000
00000000
10000000
00100000
00000000
00100000
01000000
00000000
00001000
00000000
00001000
00010000
00000000
00010000
00000010
00000000
,  // measure 60
00000100
00000000
00001000
00000000
00010000
00000000
00100000
00000000
01000000
00000000
00000000
00000000
00000000
00000000
00010000
00100000
,  // measure 61
01000000
00000000
00000000
00000000
00000000
00000000
10000000
00100000
01000000
00000000
00000000
00000000
00000000
00000000
00010000
01000000
,  // measure 62
00001000
00000000
00000000
00000000
00000000
00000000
00010000
00000100
00000010
00000000
00000001
00000000
00000100
00000000
00000010
00000000
,  // measure 63
00001000
00000100
00001000
00000100
00000010
00000001
00000010
00000001
00000200
00000000
00000000
00000000
00000000
00000000
00000000
00000300
,  // measure 64
00000000
00000000
00000101
00000000
00000000
00001001
00000000
00000000
00001100
00000000
00000000
00001000
00000000
00000001
00000100
00000000
,  // measure 65
00000010
00000000
00000000
00001000
00000000
00000100
00000010
00000000
00000001
00000000
00000000
00000100
00000000
00000010
00001000
00000000
,  // measure 66
00000010
00000000
00000000
00010000
00000000
00000000
00001000
00000000
00100000
00000000
00000000
01000000
00000000
10000000
00010000
00000000
,  // measure 67
01000000
00000000
00000000
00100000
00000000
10000000
00010000
00000000
10000000
00000000
00000000
01000000
00000000
00010000
00001000
00000000
,  // measure 68
00000000
00000000
00011000
00000000
00000000
00001010
00000000
00000000
00000101
00000000
00000000
00000001
00000000
00000010
00000100
00000000
,  // measure 69
00001000
00000000
00000000
00000001
00000000
00000100
00001000
00000000
00010000
00000000
00000000
00001000
00000000
00100000
01000000
00000000
,  // measure 70
10000000
00000000
00000000
00010000
00000000
00000000
01000000
00000000
00100000
00000000
00000000
10000000
00000000
01000000
00100000
00000000
,  // measure 71
00010000
00000000
00000000
01000000
00000000
00100000
00010000
00000000
00002000
00000000
00000000
00000000
00000000
00000000
00000000
00000000
,  // measure 72
00000000
00000000
00013000
00000000
00000100
00000010
00000001
00000100
,  // measure 73
00000010
00000000
00000001
00000000
00000010
00000000
00001000
00000100
00000010
00000000
00000100
00000000
00010000
00000000
00001000
01000000
,  // measure 74
00010000
00000000
01000000
00000000
00100000
10000000
01000000
00100000
00010000
00000000
00100000
00000000
10000000
00000000
00100000
00000000
,  // measure 75
00001000
00000000
00010000
00000000
00100000
01000000
00001000
00010000
00000000
00010100
00000000
00010100
00000000
01001000
00000000
01001000
,  // measure 76
00000000
00011000
00000000
00010000
00000100
00000000
00000010
00000000
00000001
00000000
00000100
00000000
00000010
00000000
00001000
00000100
,  // measure 77
00000010
00000000
00000001
00000000
00000100
00000000
00001000
00010000
00001000
00000000
00100000
00000000
01000000
00000000
10000000
00100000
,  // measure 78
01000000
00000000
00010000
00000000
10000000
01000000
00100000
00010000
10000000
00100000
10000000
00000000
00010000
00100000
00010000
00000000
,  // measure 79
10000000
01000000
10000000
00000000
00010000
01000000
00010000
00000000
10000000
00000000
01000000
00000000
00100000
00001000
00010000
00000000
,  // measure 80
00000010
00000000
00001000
00000000
00000001
00000100
00000010
00000000
00002000
00000000
00000000
00000000
00000000
00000000
00000000
00000000
,  // measure 81
00000000
00000000
00000000
00000000
,  // measure 82
00000000
00000000
00003000
00000000
;

//---------------dance-double - ----------------
#NOTES:
     dance-double:
     :
     Challenge:
     17:
     0.891103,1.036764,0.502673,0.083779,1.157672,819.000000,753.000000,66.000000,11.000000,0.000000,0.000000,0.891103,1.036764,0.502673,0.083779,1.157672,819.000000,753.000000,66.000000,11.000000,0.000000,0.000000:
// measure 0
00000000
00000000
00000000
00000000
,  // measure 1
00000000
00000000
00000000
00000000
,  // measure 2
00000000
00000000
00000000
00000000
,  // measure 3
00000000
00000000
00000000
00000000
,  // measure 4
00000000
00000000
00000000
00000000
,  // measure 5
00011000
00000000
00000000
00101000
00000000
00000000
00011000
00000000
00000000
00010010
00000000
00000000
00100000
00000000
00000000
00000000
,  // measure 6
00110000
00000000
00000000
10010000
00000000
00000000
10100000
00000000
00000000
10010000
00000000
00000000
10000000
00000000
01000000
00000000
,  // measure 7
00100000
00000000
00010000
01000000
00001000
00010000
00000100
00001000
00000001
00000000
00001000
00000100
00000010
00000001
00001000
00000010
,  // measure 8
00010000
00000000
00001000
00000000
00001000
00000000
00001000
00100000
01000000
00000000
01000000
00000000
11000000
00000000
00000000
00000000
,  // measure 9
11000000
00000000
00000000
10010000
00000000
00000000
01010000
00000000
00000000
10010000
00000000
00000000
00001000
00000000
00000000
00000000
,  // measure 10
00011000
00000000
00000000
00010100
00000000
00000000
00011000
00000000
00000000
01001000
00000000
00000000
00001000
00010000
00000100
00000010
,  // measure 11
00000001
00000000
00000000
00001001
00000000
00000000
00001010
00000000
00000000
00001001
00000000
00000000
00000001
00000000
00000010
00000000
,  // measure 12
00000100
00000000
00001000
00000001
00000100
00000010
00010000
00001000
00000000
00100000
00000000
00100000
00010000
01000000
00000000
01000000
,  // measure 13
00100000
00000000
00000000
10100000
00000000
00000000
00010000
00000000
00110000
00000000
00000000
00101000
00000000
00000000
00000010
00000000
,  // measure 14
00001010
00000000
00000000
00001001
00000000
00000000
00000100
00000000
00001001
00000000
00000000
00000001
00000100
00000010
00010000
00001000
,  // measure 15
00100000
00000000
00000000
00110000
00000000
00000000
01100000
00000000
00000000
10100000
00000000
00000000
01100000
00000000
00110000
00000000
,  // measure 16
00000000
00011000
00000000
00000000
00011000
00000000
00000000
00010010
00000000
00000000
00010010
00000000
00001010
00000000
00000000
00000000
,  // measure 17
00001000
00000000
00000001
00000010
00000100
00000000
00001000
00000001
00000100
00000000
00000000
00000010
00000000
00000010
00000000
00000010
,  // measure 18
00010000
00000000
00001000
00100000
00010000
00000000
10000000
00100000
01000000
00000000
00000000
00010000
00000000
00010000
00000000
00010000
,  // measure 19
10000000
00000000
01000000
00100000
00010000
00000000
10000000
00100000
01000000
00000000
00000000
00001000
00000000
00001000
00000000
00001000
,  // measure 20
00010000
00001000
00000010
00000001
00000100
00001000
00010000
00100000
,  // measure 21
01000000
00000000
00010000
10000000
01000000
00000000
00100000
00010000
10000000
00000000
00000000
00100000
00000000
00100000
00000000
00100000
,  // measure 22
01000000
00000000
00001000
00010000
00000100
00000000
00001000
00000001
00000100
00000000
00000000
00000001
00000000
00000001
00000000
00000001
,  // measure 23
00000010
00000000
00000100
00001000
00000001
00000000
00000100
00000010
00001000
00000000
00000000
00000001
00000000
00000001
00000000
00000001
,  // measure 24
00000010
00000000
00000000
00000000
00000100
00000000
00000000
00000000
00001000
00000000
00000000
00000000
00010000
00000000
00000000
00000000
00200000
00300000
00000000
00000000
22000000
33000000
00000000
00000000
10000000
00000000
00100000
00000000
01000000
00000000
00010000
00000000
,  // measure 25
10000000
01000000
00100000
01000000
10000000
00010000
10000000
00010000
10000000
00100000
01000000
00001000
00010000
00000100
00001000
00000001
,  // measure 26
00000100
00000010
00001000
00000001
00000010
00000100
00000010
00000001
00001000
00000010
00000100
00000001
00002000
00000000
00000000
00000000
,  // measure 27
00000100
00000000
00000000
00000000
00003001
00000000
00000100
00000000
00000010
00000000
00001000
00000000
00000100
00000010
00000001
00000000
,  // measure 28
00001000
00000010
00000100
00000000
00000001
00000000
00000000
00001000
00000100
00001000
00000100
00000010
00000001
00000000
00000100
00000000
,  // measure 29
00001000
00000000
00010000
00001000
00000000
00001000
00000000
00010000
00001000
00000000
00100000
00000000
01000000
10000000
00000000
01000000
,  // measure 30
00000000
00100000
00000000
00010000
00000000
00001000
00000000
00000100
00000000
00000010
00000001
00000000
00000200
00000000
00000000
00000000
,  // measure 31
00000000
00000000
00000310
00000000
00000010
00001000
00000001
00000010
00000100
00001000
00000100
00010000
00001000
00100000
00010000
00100000
,  // measure 32
00001000
00010000
00001000
01000000
00010000
01000000
00001000
00010000
00001000
01000000
00000000
00010000
10000000
00000000
00010000
01000000
,  // measure 33
00000000
00100000
01000000
00000000
00010000
00000000
10000000
01000000
00000000
00100000
10000000
00000000
00100000
00000000
00001000
00010000
,  // measure 34
00000000
00000010
00010000
00000000
00000010
00000000
00000100
00000001
00000000
00000000
00001000
00000000
00000100
00000000
00000010
00000001
,  // measure 35
00000000
00001000
00000001
00000000
00000100
00000000
00000010
00001000
00000000
00000010
00000001
00000000
00000010
00000000
00000100
00000010
,  // measure 36
00000000
00010000
00000010
00000000
00001000
00000000
00100000
00010000
00000000
00000000
10000000
00000000
00100000
00000000
01000000
00010000
,  // measure 37
00000000
10000000
00010000
00000000
10000000
00000000
01000000
00100000
00000000
10000000
00100000
00000000
00001000
00000000
00010000
00000010
,  // measure 38
00000000
00001000
00000010
00000000
00000100
00000000
00000001
00000010
00000000
00000000
00000100
00000000
00001000
00000000
00000010
00000100
,  // measure 39
00000000
00000001
00000100
00000000
00000010
00000000
00001000
00000100
00000000
00000001
00000100
00000000
00000010
00000000
00000100
00000000
,  // measure 40
00001000
00000000
00000000
00000000
00010000
00000000
00000000
00000000
00200000
00300000
00000000
00000000
22000000
33000000
00000000
00000000
00010000
00000000
00000000
00000000
01000000
00000000
00100000
00000000
00000000
00000000
00010000
00000000
00100000
00000000
00000000
00000000
,  // measure 41
01000000
00000000
00001000
00010000
00000000
00100000
01000000
00000000
00001000
00000000
00010000
00001000
00000000
00000010
00001000
00000000
,  // measure 42
00010000
00000000
00000010
00001000
00000000
00000000
00000001
00000000
00000010
00000000
00001000
00000010
00000000
00000001
00000100
00000000
,  // measure 43
00001000
00000000
00010000
00001000
00000000
00000010
00000100
00000000
00010000
00000000
00001000
00010000
00000000
00100000
00010000
00000000
,  // measure 44
00011000
00000000
00000000
00011000
00000000
00000000
00110000
00000000
01100000
00000000
01000000
00010000
00000000
01000000
10000000
00000000
,  // measure 45
00100000
00000000
01000000
10000000
00000000
01000000
00001000
00000000
00010000
00000000
00000100
00000001
00000000
00000100
00010000
00000000
,  // measure 46
00010100
00000000
00000000
00010100
00000000
00000000
00001100
00000000
00001010
00000000
00000000
00001010
00000000
00000000
00001001
00000000
,  // measure 47
00000000
00001001
00000000
00000000
00000001
00000000
00000010
00000000
00000110
00000000
00000000
00000110
00000000
00000000
00000110
00000000
,  // measure 48
00000000
00000000
00011000
00000000
00001000
00000000
01000000
00000000
01000000
00000000
00010000
10000000
01000000
00000000
00100000
00010000
,  // measure 49
10000000
00000000
00100000
00000000
01000000
00000000
00001000
00000000
00010000
00000000
00000100
00010000
00000000
00000100
00001000
00000000
,  // measure 50
00000001
00000000
00000100
00000000
00000010
00000000
00001000
00000000
00001000
00000000
00000001
00000010
00000100
00000000
00001000
00000001
,  // measure 51
00000100
00000000
00001000
00000000
00010000
00000000
00100000
00000000
01000000
00000000
00010000
00100000
01000000
00000000
10000000
00100000
,  // measure 52
01000000
00000000
00010000
10000000
00100000
00000000
01000000
00000000
01000000
00000000
00010000
10000000
01000000
00000000
00100000
00010000
,  // measure 53
10000000
00000000
00010000
00000000
01000000
00000000
00001000
00000000
00010000
00000000
00000010
00001000
00000000
00000001
00001000
00000000
,  // measure 54
00000100
00000000
00000010
00000000
00000001
00000000
00001000
00000000
00001000
00000000
00000010
00000100
00000001
00000000
00001000
00000100
,  // measure 55
00000010
00000000
00000001
00000100
00000010
00000000
00000100
00001000
00010000
00000000
00000000
00011000
00000000
00000000
00011000
00000000
,  // measure 56
00001000
00100000
00000000
00100000
01000000
10000000
01000000
10000000
00010000
01000000
00100000
10000000
00010000
01000000
00001000
00010000
,  // measure 57
00000100
00001000
00000001
00000100
00000010
00001000
00000100
00000010
00000001
00001000
00000100
00001000
00000001
00000010
00000100
00000010
,  // measure 58
00000001
00001000
00000100
00010000
00001000
01000000
00010000
10000000
01000000
00000000
00100000
00010000
00000000
00010000
10000000
00100000
,  // measure 59
01000000
00000000
00010000
10000000
00000000
10000000
01000000
00100000
00001000
00010000
00000010
00001000
00000010
00010000
00001000
00010000
,  // measure 60
00000010
00001000
00000001
00000010
00000100
00001000
00000010
00010000
00001000
00100000
00010000
00100000
00001000
00000000
01000000
00000000
,  // measure 61
00010000
10000000
01000000
10000000
00010000
00000000
01000000
00000000
00001000
00010000
00000100
00010000
00001000
00000000
00010000
00000000
,  // measure 62
00100000
01000000
00100000
00010000
00001000
00000000
00010000
00001000
00000010
00000000
00000100
00000000
00001000
00000000
00000001
00000000
,  // measure 63
00000100
00000010
00001000
00000100
00010000
00001000
00100000
01000000
20000000
00000000
00000000
00000000
00000000
00000000
00000000
30000000
,  // measure 64
00000000
00000000
11000000
00000000
00000000
01010000
00000000
00000000
00011000
00000000
00010000
00000010
00000000
00001000
00000010
00000000
,  // measure 65
00001000
00000000
00000001
00000010
00000000
00000100
00001000
00000000
00000001
00000000
00000100
00000010
00000000
00001000
00000010
00000000
,  // measure 66
00010000
00000000
00001000
00100000
00000000
00000000
01000000
00000000
10000000
00000000
00100000
01000000
00000000
00010000
01000000
00000000
,  // measure 67
00001000
00000000
00010000
00001000
00000000
00000010
00000100
00000000
00001000
00000000
00000001
00000100
00000000
00000010
00000100
00000000
,  // measure 68
00000010
00000000
00000110
00000000
00000000
00001010
00000000
00000000
00011000
00000000
00001000
00100000
00000000
00010000
00100000
00000000
,  // measure 69
00010000
00000000
10000000
00100000
00000000
01000000
00010000
00000000
10000000
00000000
01000000
00100000
00000000
00010000
00100000
00000000
,  // measure 70
00001000
00000000
00010000
00000010
00000000
00000000
00000100
00000000
00000001
00000010
00000001
00000010
00000100
00001000
00000100
00001000
,  // measure 71
00000100
00010000
00000100
00010000
00001000
01000000
00001000
01000000
00020000
00000000
00000000
00000000
00000000
00000000
00000000
00000000
,  // measure 72
00000000
00000000
00000000
00000000
10030000
00000000
00000000
00000000
00100000
00000000
01000000
00001000
00010000
00000100
00001000
00000000
,  // measure 73
00000001
00000000
00000100
00000010
00010000
00001000
00100000
00010000
10000000
00000000
00100000
01000000
00001000
00010000
00000010
00001000
,  // measure 74
00000001
00000000
00000100
00000010
00000100
00001000
00010000
00001000
00100000
00000000
01000000
10000000
00010000
01000000
00001000
00000000
,  // measure 75
00010000
00000000
00000100
00001000
00000001
00000100
00000010
00001000
00000000
00010010
00000000
00100010
00000000
00011000
00000000
01000100
,  // measure 76
00000000
00011000
00000000
00001000
01000000
00000000
00100000
00000000
10000000
00000000
00010000
01000000
00000000
00010000
10000000
01000000
,  // measure 77
00100000
00000000
00001000
00010000
00000000
00000010
00010000
00000100
00000010
00000000
00000001
00000100
00000000
00000010
00000100
00001000
,  // measure 78
00010000
00000000
00001000
00100000
00000000
00001000
00010000
00100000
01000000
00010000
01000000
00010000
00100000
01000000
00100000
01000000
,  // measure 79
10000000
00100000
10000000
00100000
00010000
00001000
00010000
00001000
00000010
00000000
00000100
00000000
00001000
00000010
00000100
00000001
,  // measure 80
00000010
00000000
00000100
00000000
00010000
00000010
00000100
00001000
00020000
00000000
00000000
00000000
00000000
00000000
00000000
00000000
,  // measure 81
00000000
00000000
00000000
00000000
,  // measure 82
00000000
00000000
00030000
00000000
;
