#VERSION:0.83;
#TITLE:Believe (y)our Wings {V\:IVID RAYS};
#SUBTITLE:;
#ARTIST:RASIS COLORS (かめりあ ft. 紫崎 雪、ぁゅ、かぼちゃ、Kuroa*、SOPHY、みかん汁、みゅい);
#TITLETRANSLIT:Believe (y)our Wings {VIVID RAYS};
#SUBTITLETRANSLIT:;
#ARTISTTRANSLIT:RASIS COLORS (Camellia ft. Yuki Shizaki, ayu, Kabocha, Kuroa*, SOPHY, mikanzil, myui);
#GENRE:Technically Weeb Music;
#ORIGIN:SOUND VOLTEX VIVID WAVE;
#TAGS:;
#CREDIT:;
#BANNER:Believe (y)our Wings {VIVID RAYS}.png;
#BACKGROUND:Believe (y)our Wings {VIVID RAYS}-bg.png;
#PREVIEWVID:;
#JACKET:Believe (y)our Wings {VIVID RAYS}-jacket.png;
#CDIMAGE:;
#DISCIMAGE:;
#LYRICSPATH:;
#CDTITLE:../_YSD cdtitles/ysd plat cdtitle.png;
#MUSIC:Believe (y)our Wings {VIVID RAYS}.ogg;
#OFFSET:0.000000;
#SAMPLESTART:49.362000;
#SAMPLELENGTH:21.333333;
#SELECTABLE:YES;
#BPMS:0.000000=188.000000
;
#STOPS:;
#DELAYS:;
#WARPS:152.000000=12.000000
;
#TIMESIGNATURES:0.000000=4=4
;
#TICKCOUNTS:0.000000=4
;
#COMBOS:0.000000=1
;
#SPEEDS:0.000000=1.000000=0.000000=0
;
#SCROLLS:0.000000=1.000000
,164.000000=-1.000000
,164.145828=-0.900000
,164.291672=-0.800000
,164.458328=-0.700000
,164.604172=-0.600000
,164.750000=-0.500000
,164.895828=-0.400000
,165.041672=-0.300000
,165.208328=-0.200000
,165.354172=-0.100000
,165.500000=0.000000
,165.645828=0.100000
,165.791672=0.200000
,165.958328=0.300000
,166.104172=0.400000
,166.250000=0.500000
,166.395828=0.600000
,166.541672=0.700000
,166.708328=0.800000
,166.854172=0.900000
,167.000000=1.000000
;
#FAKES:;
#LABELS:0.000000=Song Start
;
#BGCHANGES:;
#KEYSOUNDS:;
#ATTACKS:
;

//---------------dance-single - ----------------
#NOTEDATA:;
#CHARTNAME:;
#CHARTHASH:3662241381;
#STEPSTYPE:dance-single;
#BANNER:;
#DESCRIPTION:;
#CHARTSTYLE:;
#DIFFICULTY:Beginner;
#METER:4;
#METERF:0.000000;
#LASTSECONDHINT:119.361694;
#RADARVALUES:0.196976,0.398375,0.272464,0.033026,0.000000,167.000000,134.000000,33.000000,4.000000,0.000000,0.000000,0.000000,0.000000,0.000000,0.196976,0.398375,0.272464,0.033026,0.000000,167.000000,134.000000,33.000000,4.000000,0.000000,0.000000,0.000000,0.000000,0.000000;
#CREDIT:YOSEFU;
#NOTES:
// measure 0
0000
0000
0000
0000
,  // measure 1
0000
0000
0000
0000
,  // measure 2
0000
0000
0000
0000
,  // measure 3
0000
0000
0000
0000
,  // measure 4
0000
0000
0000
0000
,  // measure 5
0000
0000
0000
0000
,  // measure 6
0000
0000
0000
0000
0000
0000
0000
1001
,  // measure 7
0000
0000
0000
0000
0000
0000
0000
0001
,  // measure 8
0000
0000
0000
0000
0000
0000
0000
1000
,  // measure 9
0000
0000
0000
0000
0000
0000
0000
0010
,  // measure 10
0000
0000
0000
0000
,  // measure 11
0100
0000
0010
0000
,  // measure 12
1001
0000
1000
0000
,  // measure 13
0001
0000
0100
0000
,  // measure 14
0001
0000
1000
0000
,  // measure 15
0100
0000
0010
0000
,  // measure 16
0001
0000
0100
0000
,  // measure 17
0010
0000
1000
0000
,  // measure 18
0100
0000
0000
0000
,  // measure 19
0110
0000
0000
0000
,  // measure 20
0010
0000
0000
0000
,  // measure 21
0001
0000
0000
0000
,  // measure 22
1000
0000
0000
0000
,  // measure 23
0010
0000
0000
0000
,  // measure 24
0100
0000
0000
0000
,  // measure 25
0010
0000
0000
0000
,  // measure 26
1000
0000
0000
0000
,  // measure 27
1001
0000
0000
0000
,  // measure 28
0001
0000
0000
0000
,  // measure 29
0110
0000
0000
0000
,  // measure 30
1000
0000
0000
0000
,  // measure 31
1001
0000
0000
0000
,  // measure 32
0001
0000
0000
0000
,  // measure 33
1001
0000
0000
0000
,  // measure 34
1000
0000
0000
0000
,  // measure 35
0110
0000
0000
0000
,  // measure 36
1001
0000
0000
0000
,  // measure 37
0110
0000
0000
0000
,  // measure 38
0000
0000
0000
0000
,  // measure 39
0000
0000
0000
0000
,  // measure 40
0000
0000
0000
0000
,  // measure 41
0000
0000
0000
0000
,  // measure 42
1001
0000
1000
0000
,  // measure 43
0100
0000
0010
0000
,  // measure 44
0001
0000
0100
0000
,  // measure 45
0010
0000
1000
0000
,  // measure 46
0001
0000
0100
0000
,  // measure 47
0001
0000
0010
0000
,  // measure 48
0100
0000
1000
0000
,  // measure 49
0001
0000
0100
0000
,  // measure 50
0110
0000
0010
0000
,  // measure 51
1000
0000
0001
0000
,  // measure 52
1000
0000
0000
0000
0100
0000
0000
0100
,  // measure 53
0000
0000
0010
0000
,  // measure 54
1001
0000
1000
0000
,  // measure 55
0001
0000
0100
0000
,  // measure 56
0001
0000
0000
0000
1000
0000
0000
1000
,  // measure 57
0000
0000
0000
0000
0000
0000
0000
0010
,  // measure 58
0000
0000
1001
0000
,  // measure 59
1001
0000
0000
0000
0000
0000
0000
0110
,  // measure 60
0000
0000
0010
0000
,  // measure 61
1001
0000
0000
0000
0000
0000
0000
0110
,  // measure 62
0000
0000
0001
0000
,  // measure 63
0110
0000
0000
0000
0000
0000
0000
1001
,  // measure 64
0000
0000
1000
0000
,  // measure 65
0001
0000
0000
0000
0000
0000
0000
2002
,  // measure 66
0000
0000
3003
0000
,  // measure 67
0000
0000
0000
0000
0001
0000
0000
0001
,  // measure 68
0000
0000
1001
0000
,  // measure 69
0000
0000
0000
0000
1000
0000
0000
1000
,  // measure 70
0000
0000
0000
0000
0001
0000
0000
0001
,  // measure 71
0000
0000
0000
0000
,  // measure 72
1000
0000
0000
0000
,  // measure 73
0000
0110
0000
0110
,  // measure 74
0000
1001
0000
1001
,  // measure 75
0000
1001
0000
1000
,  // measure 76
0000
0001
0000
0100
,  // measure 77
0000
0000
0001
0000
0001
0000
0000
1001
,  // measure 78
0000
0000
1000
0000
,  // measure 79
1001
0000
0001
0000
,  // measure 80
1000
0000
0001
0000
,  // measure 81
0100
0000
0010
0000
,  // measure 82
1000
0000
0001
0000
,  // measure 83
0110
0000
0100
0000
,  // measure 84
0010
0000
1000
0000
,  // measure 85
0100
0000
0000
0000
0010
0000
0000
0010
,  // measure 86
0000
0000
0000
0001
0000
0000
0000
1000
,  // measure 87
0000
0000
0110
0000
,  // measure 88
1001
0000
1000
0000
,  // measure 89
0100
0000
0010
0000
,  // measure 90
0001
0000
0100
0000
,  // measure 91
0001
0000
1000
0000
,  // measure 92
0100
0000
0010
0000
,  // measure 93
0001
0000
0100
0000
,  // measure 94
0010
0000
0000
0000
,  // measure 95
2002
0000
0000
0000
,  // measure 96
0000
0000
3003
0000
;

//---------------dance-single - ----------------
#NOTEDATA:;
#CHARTNAME:;
#CHARTHASH:1114386340;
#STEPSTYPE:dance-single;
#BANNER:;
#DESCRIPTION:;
#CHARTSTYLE:;
#DIFFICULTY:Easy;
#METER:7;
#METERF:0.000000;
#LASTSECONDHINT:119.521271;
#RADARVALUES:0.349131,0.478669,0.404568,0.123847,0.028898,296.000000,247.000000,49.000000,15.000000,0.000000,0.000000,0.000000,0.000000,7.000000,0.349131,0.478669,0.404568,0.123847,0.028898,296.000000,247.000000,49.000000,15.000000,0.000000,0.000000,0.000000,0.000000,7.000000;
#CREDIT:YOSEFU;
#NOTES:
// measure 0
0000
0000
0000
0000
,  // measure 1
0000
0000
0000
0000
,  // measure 2
0000
0000
0000
0000
,  // measure 3
0000
0000
0000
0000
,  // measure 4
0000
0000
0000
0000
,  // measure 5
0000
0000
0000
0000
,  // measure 6
0000
0000
0000
0000
0000
0000
0000
1001
,  // measure 7
0000
0000
0000
1000
0000
0000
0000
0001
,  // measure 8
0000
0000
0000
1000
0000
0000
0000
0001
,  // measure 9
0000
0000
0000
0100
0000
0000
0000
0010
,  // measure 10
0000
0000
0000
1000
0000
0000
0000
0100
,  // measure 11
0000
0000
0110
0000
,  // measure 12
1001
0001
1000
0001
,  // measure 13
0010
0100
0010
0001
,  // measure 14
0100
0010
0100
0010
,  // measure 15
1000
0001
0010
0100
,  // measure 16
1000
0001
0100
0001
,  // measure 17
0010
0100
0010
0001
,  // measure 18
1000
0000
0000
0001
0000
0000
1000
0000
,  // measure 19
0001
0000
0100
0000
0001
0000
0000
0100
,  // measure 20
0000
0001
0000
0000
0010
0000
0001
0000
,  // measure 21
1000
0000
0001
0000
0100
0000
0000
0001
,  // measure 22
0000
0100
0000
0000
0000
0001
0000
1000
,  // measure 23
0000
0100
0000
0000
0000
0010
0000
0001
,  // measure 24
0000
1000
0000
0000
0010
0000
0100
0000
,  // measure 25
0001
1000
0100
1000
,  // measure 26
0001
0000
0100
0000
,  // measure 27
0110
0000
0000
0000
0001
0000
0000
0002
,  // measure 28
0000
0003
0000
2000
0000
3000
0010
0000
,  // measure 29
1010
0000
0000
0000
1000
0000
0000
2000
,  // measure 30
0000
3000
0000
0200
0000
0300
0010
0000
,  // measure 31
0001
0100
0001
0100
,  // measure 32
0010
1000
0100
0010
,  // measure 33
0001
0100
0001
0010
,  // measure 34
0100
1000
1001
0000
,  // measure 35
0001
0000
0000
0001
0000
0000
1000
0000
,  // measure 36
0000
1000
0000
0000
0010
0000
0000
0000
,  // measure 37
0100
0000
0000
0100
0000
0000
0001
0000
,  // measure 38
0000
0000
0000
0000
0000
0000
0000
0000
0000
0000
0000
0000
0000
0000
0000
0000
0000
0000
0000
0000
0000
0000
0000
0000
0000
0000
0000
0000
0000
0000
0000
0000
0000
0000
0000
0000
0000
0000
0000
0000
0000
M00M
0000
0000
0000
0000
0000
0000
0000
0000
0000
0000
0000
0000
0000
0000
0000
0000
0000
0000
0000
0000
0000
0000
0000
0000
0000
0000
0000
0000
0000
0000
0000
0000
0000
0000
0000
0000
0000
0000
0000
0000
0000
0000
0000
0000
0000
0000
0000
000M
0000
0000
0000
0000
0000
0000
0000
0000
0000
0000
0000
0000
0000
0000
0000
0000
0000
0000
0000
0000
0000
0000
0000
0000
0000
0000
0000
0000
0000
0000
0000
0000
0000
0000
0000
0000
0000
0000
0000
0000
0000
0000
0000
0000
0000
0000
0000
0M00
0000
0000
0000
0000
0000
0000
0000
0000
0000
0000
0000
0000
0000
0000
0000
0000
0000
0000
0000
0000
0000
0000
0000
0000
0000
0000
0000
0000
0000
0000
0000
0000
0000
0000
0000
0000
0000
0000
0000
0000
0000
0000
0000
0000
0000
0000
0000
000M
0000
0000
0000
0000
0000
0000
,  // measure 39
0000
0000
0000
0000
0000
0000
0000
0000
0000
0000
0000
0000
0000
0000
0000
0000
0000
0000
0000
0000
0000
0000
0000
0000
0000
0000
0000
0000
0000
0000
0000
0000
0000
0000
0000
0000
0000
0000
0000
0000
0000
M000
0000
0000
0000
0000
0000
0000
0000
0000
0000
0000
0000
0000
0000
0000
0000
0000
0000
0000
0000
0000
0000
0000
0000
0000
0000
0000
0000
0000
0000
0000
0000
0000
0000
0000
0000
0000
0000
0000
0000
0000
0000
0000
0000
0000
0000
0000
0000
0M00
0000
0000
0000
0000
0000
0000
0000
0000
0000
0000
0000
0000
0000
0000
0000
0000
0000
0000
0000
0000
0000
0000
0000
0000
0000
0000
0000
0000
0000
0000
0000
0000
0000
0000
0000
0000
0000
0000
0000
0000
0000
0000
0000
0000
0000
0000
0000
0000
0000
0000
0000
0000
0000
0000
0000
0000
0000
0000
0000
0000
0000
0000
0000
0000
0000
0000
0000
0000
0000
0000
0000
0000
0000
0000
0000
0000
0000
0000
0000
0000
0000
0000
0000
0000
0000
0000
0000
0000
0000
0000
0000
0000
0000
0000
0000
0000
0000
0000
0000
0000
0000
0000
,  // measure 40
0000
0000
0000
0000
,  // measure 41
0000
0000
0000
0000
,  // measure 42
1001
0001
0100
0001
,  // measure 43
1000
0100
0010
0100
,  // measure 44
1000
0001
0100
0001
,  // measure 45
0010
0100
1000
0001
,  // measure 46
0100
0001
1000
0100
,  // measure 47
0010
0100
1000
0001
,  // measure 48
0100
0101
0000
1001
,  // measure 49
0000
1100
0000
0110
,  // measure 50
1001
0001
0100
0010
,  // measure 51
1000
0100
0010
0001
,  // measure 52
0100
0000
0001
0000
1000
0000
0000
0100
,  // measure 53
0000
0010
0001
0000
,  // measure 54
1000
1010
0000
1001
,  // measure 55
0000
0011
0000
0110
,  // measure 56
0000
0000
1100
0000
0000
0000
0000
1001
,  // measure 57
0000
0000
0000
0002
0000
0000
0003
2000
,  // measure 58
0000
3000
1010
0000
,  // measure 59
1001
0000
0000
0000
0001
0000
0000
0002
,  // measure 60
0000
0003
1001
0000
,  // measure 61
1010
0000
0000
0000
0010
0000
0000
0020
,  // measure 62
0000
0030
0110
0000
,  // measure 63
0101
0000
0000
0000
0100
0000
0000
0200
,  // measure 64
0000
0300
1001
0000
,  // measure 65
0001
0000
0000
0000
1000
0000
0000
2000
,  // measure 66
0000
0000
0000
0000
3000
0000
0000
0200
,  // measure 67
0000
0000
0300
0000
0110
0000
0000
1001
,  // measure 68
0000
0000
0000
0000
0000
0000
1000
0000
0000
0000
1000
0000
,  // measure 69
0000
0000
0000
0000
1001
0000
0000
0110
,  // measure 70
0000
0000
0000
0000
1001
0000
0000
1000
,  // measure 71
0000
0000
0020
0000
0000
0030
0000
0100
,  // measure 72
0000
0001
1000
0001
,  // measure 73
0000
0011
0000
0110
,  // measure 74
0000
1100
1001
0002
,  // measure 75
0003
0101
0100
0001
,  // measure 76
0010
0100
0001
0100
,  // measure 77
0010
0000
0001
0000
1000
0000
0000
1010
,  // measure 78
0000
0000
0000
0010
0000
0100
0000
0000
,  // measure 79
0001
0101
0000
1100
,  // measure 80
0000
1010
0000
0011
,  // measure 81
0000
0000
0101
0000
0000
0000
0000
1001
,  // measure 82
0000
1000
0000
0001
0000
0100
0000
0010
,  // measure 83
0000
0000
1000
0000
0000
0001
0000
0010
,  // measure 84
0000
0000
0100
0000
0000
1000
0000
0001
,  // measure 85
0000
0000
0100
0000
0001
0000
0000
1001
,  // measure 86
0000
0000
0000
1000
0000
0000
0000
0010
,  // measure 87
0000
0000
0110
0000
,  // measure 88
0101
0001
0010
0100
,  // measure 89
1000
0010
0100
1000
,  // measure 90
0100
0001
0010
0100
,  // measure 91
0001
0100
0010
0001
,  // measure 92
1000
0010
0001
1000
,  // measure 93
0100
0001
0010
0100
,  // measure 94
1100
0000
0000
1100
0000
0000
1010
0000
,  // measure 95
2002
0000
0000
0000
,  // measure 96
0000
0000
0000
0000
0003
3000
0000
0000
;

//---------------dance-single - ----------------
#NOTEDATA:;
#CHARTNAME:;
#CHARTHASH:604779895;
#STEPSTYPE:dance-single;
#BANNER:;
#DESCRIPTION:;
#CHARTSTYLE:Pad;
#DIFFICULTY:Medium;
#METER:12;
#METERF:12.000000;
#LASTSECONDHINT:119.521271;
#RADARVALUES:0.572056,0.678115,0.255951,0.280720,0.127975,485.000000,454.000000,31.000000,34.000000,0.000000,0.000000,0.000000,0.000000,31.000000,0.572056,0.678115,0.255951,0.280720,0.127975,485.000000,454.000000,31.000000,34.000000,0.000000,0.000000,0.000000,0.000000,31.000000;
#CREDIT:YOSEFU;
#NOTES:
0000
0000
0000
0000
,
0000
0000
0000
0000
,
0000
0000
0000
0000
,
0000
0000
0000
0000
,
0000
0000
0000
0000
,
0000
0000
0000
0000
,
0000
0000
0000
0000
0000
0000
0000
1001
,
0000
0001
1000
0001
0000
0100
0000
0010
,
0000
1000
0010
1000
0000
0001
0000
0010
,
0000
0001
0100
0001
0000
1000
0000
0010
,
0000
0100
0001
1000
0000
0100
0010
0002
,
0000
0000
0000
0000
1003
0010
0100
0001
,
1001
0000
1000
0000
0010
0100
0001
1000
,
0000
0100
0010
0000
0001
1000
0000
0010
,
0000
0100
0001
1000
0000
0100
0010
0001
,
0000
0100
0010
0000
1000
0001
0000
0010
,
0000
0100
1000
0001
0000
0100
0000
0001
,
1000
0100
0010
0001
0000
1000
0000
0001
,
0100
0000
0000
0110
0000
0000
1010
0000
,
1000
0000
0001
0100
0001
1000
0000
0100
,
0000
0010
0000
0000
0000
0001
0010
0100
,
0000
1000
0001
1000
0001
0100
0000
0010
,
0000
1000
0001
0000
0000
1000
0100
0010
,
0000
0100
1000
0001
0000
0100
0001
1000
,
0000
0100
0010
0001
0000
0000
1000
0010
,
0000
0100
0001
0100
0001
1000
0100
0010
,
0000
0100
1000
0001
0100
0010
1000
0001
,
1000
0010
0000
1010
0000
1001
0000
0002
,
0000
0000
0000
0203
0000
0000
0320
0000
,
1030
0100
0000
1100
0000
0110
0000
0020
,
0000
0000
0000
0032
0000
0000
2003
0000
,
3020
0000
0130
0002
0000
0000
1003
0100
,
0000
1000
0010
0100
0001
0010
0100
1000
,
0002
0000
1003
0020
0000
0000
0130
0001
,
1000
0100
0010
0001
0100
0010
1000
0001
,
1000
0010
0000
0100
0001
0000
1000
0100
,
0000
0010
0001
0000
1000
0001
0000
0000
,
0100
0010
0000
1000
0100
0000
0010
0001
,
0000
0000
0000
0000
0000
0000
0000
0000
0000
0000
0000
0000
0000
0000
0000
0000
0000
0000
0000
0000
0000
0000
0000
0000
0000
0000
0000
0000
0000
0000
0000
0000
0000
0000
0000
0000
0000
0000
0000
0000
0000
M000
0000
0000
0000
0000
0000
M000
0000
0000
0000
0000
0000
M000
0000
0000
0000
0000
0000
M000
0000
0000
0000
0000
0000
M000
0000
0000
0000
0000
0000
M000
0000
0000
0000
0000
0000
M000
0000
0000
0000
0000
0000
M000
0000
0000
0000
0000
0000
M0M0
0000
0000
0000
0000
0000
0000
0000
0000
0000
0000
0000
0000
0000
0000
0000
0000
0000
0000
0000
0000
0000
0000
0000
0000
0000
0000
0000
0000
0000
0000
0000
0000
0000
0000
0000
0000
0000
0000
0000
0000
0000
0000
0000
0000
0000
0000
0000
M000
0000
0000
0000
0000
0000
0000
0000
0000
0000
0000
0000
0000
0000
0000
0000
0000
0000
0000
0000
0000
0000
0000
0000
00M0
0000
0000
0000
0000
0000
0000
0000
0000
0000
0000
0000
0000
0000
0000
0000
0000
0000
0000
0000
0000
0000
0000
0000
0000
0000
0000
0000
0000
0000
0000
,
0000
0000
0000
0000
0000
0000
0000
0000
0000
0000
0000
0000
0000
0000
0000
0000
0000
0M00
0000
0000
0000
0000
0000
0M00
0000
0000
0000
0000
0000
0M00
0000
0000
0000
0000
0000
0M00
0000
0000
0000
0000
0000
0M00
0000
0000
0000
0000
0000
0M00
0000
0000
0000
0000
0000
0M00
0000
0000
0000
0000
0000
0M00
0000
0000
0000
0000
0000
0M00
0000
0000
0000
0000
0000
0M00
0000
0000
0000
0000
0000
0M00
0000
0000
0000
0000
0000
0M00
0000
0000
0000
0000
0000
0M0M
0000
0000
0000
0000
0000
0M00
0000
0000
0000
0000
0000
0M00
0000
0000
0000
0000
0000
0M00
0000
0000
0000
0000
0000
0M00
0000
0000
0000
0000
0000
0M00
0000
0000
0000
0000
0000
0000
0000
0000
0000
0000
0000
0000
0000
0000
0000
0000
0000
0000
0000
0000
0000
0000
0000
0000
0000
0000
0000
0000
0000
0000
0000
0000
0000
0000
0000
0000
0000
0000
0000
0000
0000
0000
0000
0000
0000
0000
0000
0000
0000
0000
0000
0000
0000
0000
0000
0000
0000
0000
0000
0000
0000
0000
0000
0000
0000
0000
0000
0000
0000
0000
0000
0000
,
0000
0000
0000
0000
,
0000
0000
0000
0000
,
2000
0000
3010
0000
1000
0010
0000
0200
,
0000
0000
0001
0000
0010
0000
0301
2000
,
0010
0000
3100
0000
0010
0001
0000
2000
,
0000
3010
0100
0001
0000
1000
0000
0100
,
0010
0000
0200
0300
0100
1000
0001
0100
,
0010
0000
0200
0300
0100
0010
1000
0001
,
0010
0000
0011
0000
0000
0001
1000
0000
,
0010
0100
0001
1000
0100
0010
0001
0100
,
0020
0000
1030
0000
0001
0010
0000
0002
,
0100
0000
1000
0000
0010
0000
1003
0020
,
0100
0000
1030
0000
0001
0010
0000
0001
,
0000
1000
0010
0100
0000
0101
0000
0001
,
1000
0000
0001
0000
1000
0100
0010
0000
,
0001
0100
0010
0000
1000
0001
0010
0000
,
0100
0000
1000
0000
0001
0100
0010
1000
,
0000
0100
0010
0001
0000
0100
0010
1000
,
0002
0000
0000
0000
1003
0100
0010
0001
,
1000
0010
0000
0000
0100
0001
0000
1001
,
0000
1000
0100
0010
0100
1000
0001
0000
,
0100
0001
0000
0000
1000
0010
0000
1001
,
0000
1000
0010
0100
0010
1000
0001
0010
,
0100
1000
0000
0000
0001
0100
0000
0110
,
0000
0010
1000
0001
0000
0010
0100
1000
,
0001
0100
0010
1000
0001
0010
0100
2002
,
0000
3000
0000
0000
0003
0000
1000
0020
,
0000
0000
0230
0000
0301
1000
0000
1010
,
0000
0000
0000
0110
0000
0000
0001
0000
1000
0000
1100
0000
,
0000
0000
0200
0000
0310
0001
0000
0101
,
0000
0001
1000
0100
0000
0110
0000
1001
,
0000
0000
0002
0003
0001
0100
0000
0010
,
0000
0000
2000
3000
1000
0100
0010
0100
,
1000
1001
0000
0110
,
0000
0000
1001
0000
0001
0010
0100
1000
,
0001
0100
0010
0000
0100
1000
0000
0100
,
0000
0001
1000
0100
0010
0001
1000
0020
,
0100
0000
1030
0001
0010
1000
0000
0010
,
0000
0100
1000
0001
0000
0101
0000
0100
,
0001
0000
1010
0000
1000
0001
0010
0000
,
0001
1000
0010
0000
0100
0001
1000
0000
,
0100
0000
1001
0000
0001
0100
0010
2000
,
0000
3100
0010
0002
0000
0103
0010
1000
,
0001
0010
1000
0010
0000
0001
0000
0100
,
0010
0100
1000
0100
0000
0001
0000
1000
,
0100
0010
0001
0100
0010
1000
0100
0110
,
0000
0010
0001
1000
0000
0010
0100
0002
,
0000
0000
0000
0000
1003
0100
0010
0001
,
1000
0010
0100
0010
1000
0001
0010
0100
,
1000
0000
0001
0000
0100
1000
0100
0010
,
1000
0001
0010
0001
1000
0010
0100
0001
,
1000
0000
0100
0000
0010
1000
0010
0001
,
0000
1000
0010
0100
0000
0010
0000
1000
,
0001
0010
0100
0001
0100
0010
0001
1000
,
1010
0000
0000
0101
0000
0000
0011
0000
,
2200
0000
0000
0000
,
0000
0000
0000
0000
0300
3000
0000
0000
;

//---------------dance-single - If SDVX had an anime adaptation----------------
#NOTEDATA:;
#CHARTNAME:This would be its opening theme;
#CHARTHASH:3710775546;
#STEPSTYPE:dance-single;
#BANNER:;
#DESCRIPTION:If SDVX had an anime adaptation;
#CHARTSTYLE:Pad;
#DIFFICULTY:Hard;
#METER:14;
#METERF:14.000000;
#LASTSECONDHINT:119.521271;
#RADARVALUES:0.727750,0.797782,0.569697,0.322003,0.115591,617.000000,548.000000,69.000000,39.000000,0.000000,0.000000,0.000000,0.000000,16.000000,0.727750,0.797782,0.569697,0.322003,0.115591,617.000000,548.000000,69.000000,39.000000,0.000000,0.000000,0.000000,0.000000,16.000000;
#CREDIT:ヨセフP;
#NOTES:
0000
0000
0000
0000
,
0000
0000
0000
0000
,
0000
0000
0000
0000
,
0000
0000
0000
0000
,
0000
0000
0000
0000
,
0000
0000
0000
0000
,
0000
0000
0000
0000
0000
0000
0000
2001
,
0000
3010
0100
0001
0000
2000
3000
0002
,
0000
0013
0100
1000
0000
0020
0030
0200
,
0000
0301
0010
0100
0000
1000
0000
0002
,
0000
0103
0010
2000
0000
3001
0010
1000
,
0010
0100
1000
0100
1100
1000
0001
0100
,
0101
0001
1000
0100
1000
0001
0010
0100
,
1000
0001
0100
0001
0010
1000
0010
0100
,
1000
0001
0100
0010
1000
0010
0100
0001
,
1000
0100
0010
0001
0100
1000
0100
0010
,
1000
0000
0100
0000
0010
0000
0001
0000
0010
0000
0100
0000
1000
0000
0010
0100
,
0001
0100
0010
0001
0010
0100
0001
1000
,
1001
0000
0000
1100
0000
0000
1010
0000
,
0020
0000
0130
0001
1000
0100
0010
0001
,
1000
0010
0100
0000
0100
0010
0100
0002
,
1000
0000
0013
0100
1000
0001
0100
0010
,
1000
0100
0010
0000
0010
0001
1000
0010
,
0000
1000
0010
0001
0000
0001
0010
1000
,
0000
0001
0010
1000
0010
0000
0100
1000
,
0001
0100
0010
0100
0001
1000
0100
0010
,
0001
0000
1000
0010
1000
0000
0001
0000
2000
0000
0000
0000
3000
0000
0001
0000
,
0011
0010
0000
1001
0000
0101
0000
0002
,
0000
0000
1003
0020
0000
0130
0001
0000
,
0101
0100
0000
1010
0000
1001
0000
0002
,
0000
0000
1003
0200
0000
0310
0001
0000
,
0021
0000
0031
0200
0000
0310
1000
0001
,
0010
0100
0010
0001
1000
0010
0100
0001
,
0020
0000
0130
2000
0000
3001
0100
0010
,
1000
0000
0100
0000
0010
0000
0001
0000
1000
0010
1000
0000
0001
0000
0100
0000
,
0101
0001
0000
1001
1000
0000
1100
0100
,
0000
0110
0010
0000
1001
1000
0000
0000
,
1010
0010
0000
0101
0100
0000
1100
1000
,
0000
0000
0000
0000
0000
0000
0000
0000
0000
0000
0000
0000
0000
0000
0000
0000
0000
0000
0000
0000
0000
0000
0000
0000
0000
0000
0000
0000
0000
0000
0000
0000
0000
0000
0000
0000
0000
0000
0000
0000
0000
00MM
0000
0000
0000
0000
0000
0000
0000
0000
0000
0000
0000
000M
0000
0000
0000
0000
0000
0000
0000
0000
0000
0000
0000
000M
0000
0000
0000
0000
0000
0000
0000
0000
0000
0000
0000
000M
0000
0000
0000
0000
0000
0000
0000
0000
0000
0000
0000
M00M
0000
0000
0000
0000
0000
0000
0000
0000
0000
0000
0000
0000
0000
0000
0000
0000
0000
0000
0000
0000
0000
0000
0000
00M0
0000
0000
0000
0000
0000
0000
0000
0000
0000
0000
0000
0000
0000
0000
0000
0000
0000
0000
0000
0000
0000
0000
0000
0M00
0000
0000
0000
0000
0000
0000
0000
0000
0000
0000
0000
0000
0000
0000
0000
0000
0000
0000
0000
0000
0000
0000
0000
M000
0000
0000
0000
0000
0000
0000
0000
0000
0000
0000
0000
0000
0000
0000
0000
0000
0000
0000
0000
0000
0000
0000
0000
0M00
0000
0000
0000
0000
0000
0000
,
0000
0000
0000
0000
0000
0000
0000
0000
0000
0000
0000
0000
0000
0000
0000
0000
0000
000M
0000
0000
0000
0000
0000
0000
0000
0000
0000
0000
0000
0000
0000
0000
0000
0000
0000
0000
0000
0000
0000
0000
0000
M000
0000
0000
0000
0000
0000
0000
0000
0000
0000
0000
0000
0000
0000
0000
0000
0000
0000
0000
0000
0000
0000
0000
0000
0M00
0000
0000
0000
0000
0000
0000
0000
0000
0000
0000
0000
0000
0000
0000
0000
0000
0000
0000
0000
0000
0000
0000
0000
00M0
0000
0000
0000
0000
0000
0000
0000
0000
0000
0000
0000
0000
0000
0000
0000
0000
0000
0000
0000
0000
0000
0000
0000
000M
0000
0000
0000
0000
0000
0000
0000
0000
0000
0000
0000
0000
0000
0000
0000
0000
0000
0000
0000
0000
0000
0000
0000
0000
0000
0000
0000
0000
0000
0000
0000
0000
0000
0000
0000
0000
0000
0000
0000
0000
0000
0000
0000
0000
0000
0000
0000
0000
0000
0000
0000
0000
0000
0000
0000
0000
0000
0000
0000
0000
0000
0000
0000
0000
0000
0000
0000
0000
0000
0000
0000
0000
0000
0000
0000
0000
0000
0000
,
0000
0000
0000
0000
,
0000
0000
0000
0000
,
0012
0000
1003
0010
0100
1000
0100
0001
,
1000
0100
0010
0001
0100
0010
1000
0002
,
0100
0003
0001
0100
0010
0001
0010
0100
,
0001
0010
0100
1000
0010
0100
0001
0010
,
0100
1000
0002
0000
0103
0010
1000
0100
,
0010
0001
2000
0000
3010
0100
0001
0010
,
0110
0000
0100
0000
1000
0001
0100
0010
,
1000
0000
0001
0100
0001
0000
1000
0000
0001
0000
0010
0000
0100
0000
1000
0000
,
1002
0000
0013
0001
0100
1000
0100
0010
,
1000
0100
0010
0001
0100
0010
1000
0002
,
0010
0003
0001
0100
0010
0001
0010
0110
,
0000
0100
0001
1000
0100
0010
0000
0001
,
1000
0000
1010
0000
0010
0100
0101
0000
,
0001
1000
1100
0000
0100
0010
0011
0000
,
0001
0000
1001
0000
1000
0010
1010
1000
,
0000
0010
0100
0001
0000
1000
0100
0001
,
0100
0010
0001
1000
1010
0010
1000
0001
,
0011
0010
0000
0000
0001
1001
0000
1020
,
0000
0130
0001
1000
0100
0010
0100
1000
,
1001
0001
0000
0000
0100
0101
0000
2010
,
0000
0000
3001
0010
0001
0000
1000
0000
0010
0000
0100
0000
0001
0000
1000
0000
,
1010
0010
0000
0000
1000
1001
0000
0021
,
0000
0130
1000
0001
0000
0100
0001
1000
,
0100
0001
0100
0010
0001
1000
0010
0220
,
0000
0000
0330
0000
0000
0000
0100
0001
1000
0000
0000
0000
0100
0000
0020
0000
,
0000
0000
0031
1000
0010
0110
0000
0101
,
0000
0000
0000
0100
0000
0000
0101
0000
1001
0000
1200
0000
,
0000
0000
0310
0000
1001
0001
0000
1010
,
0000
0101
0000
0000
1001
1000
0001
0011
,
0000
0000
0020
0000
0031
2000
0000
3200
,
0300
0000
2000
0000
3001
0100
0010
1000
,
0100
1100
0000
1001
,
0000
0000
0000
0000
0101
0000
0000
0000
1001
0000
1000
0000
0001
0000
1000
0100
,
1000
0000
0001
0100
0001
0000
1000
0000
0100
0000
0001
0000
0100
0000
1000
0000
,
0010
0100
0001
0010
0100
1000
0001
0020
,
0100
0030
1000
0001
0100
1000
0100
0110
,
0000
0010
1000
0001
0010
0100
0000
1000
,
0100
0000
0110
0000
0010
0001
1001
0000
,
1000
0100
1001
0000
1000
0010
0110
0000
,
0100
0000
1001
0000
0001
0100
0110
0020
,
0000
0000
1030
0000
0001
0000
0010
0000
0000
0000
0100
1000
0001
0000
0100
0001
,
1000
0100
0001
0100
0010
0001
0100
0010
,
1000
0010
0001
0010
0100
0001
1000
0100
,
0010
0000
0001
0000
0010
0000
0100
0000
1000
0001
1000
0000
0100
0000
1001
0000
,
0000
0001
0010
0100
0000
1000
0010
0002
,
0000
0000
0000
0000
0013
1000
0001
0010
,
0011
0001
1000
0010
0100
0001
1000
0100
,
0010
0100
0001
0100
1000
0010
0001
0010
,
0100
0001
1000
0010
0100
0001
0010
0100
,
1000
0001
0100
0010
0100
1000
0100
0001
,
1000
0000
0100
0000
0010
0000
0001
0000
0100
0000
0001
0000
1000
0000
0100
0010
,
0001
0010
1000
0001
0100
0010
0001
1000
,
1001
0000
0000
1100
0000
0000
0011
0000
,
0201
0000
0000
0000
,
0000
0000
0000
0000
0310
0010
0000
0000
;
