#TITLE:Be The Flow;
#SUBTITLE:;
#ARTIST:m1dy;
#TITLETRANSLIT:;
#SUBTITLETRANSLIT:;
#ARTISTTRANSLIT:;
#GENRE:Hardcore;
#CREDIT:skeleton made by RaverAce;
#BANNER:Be The Flow.png;
#BACKGROUND:Be The Flow-bg.png;
#LYRICSPATH:;
#CDTITLE:../_YSD cdtitles/ysd sale4 cdtitle.png;
#MUSIC:Be The Flow.ogg;
#OFFSET:0.000000;
#SAMPLESTART:93.120003;
#SAMPLELENGTH:15.360000;
#SELECTABLE:YES;
#BPMS:0.000000=249.999985
,337.000000=124.999992
,338.000000=249.999985
;
#STOPS:68.000000=3.600000,
97.000000=0.720000,
194.000000=3.600000,
255.000000=0.720000,
312.000000=1.680000,
337.000000=1.440000
;
#BGCHANGES:;
#KEYSOUNDS:;
#ATTACKS:;
#LASTSECONDHINT:117.120010;

//---------------dance-single - ----------------
#NOTES:
     dance-single:
     :
     Beginner:
     4:
     0.159681,0.269953,0.108440,0.000000,0.000000,134.000000,121.000000,13.000000,0.000000,0.000000,0.000000,0.159681,0.269953,0.108440,0.000000,0.000000,134.000000,121.000000,13.000000,0.000000,0.000000,0.000000:
// measure 0
0000
0000
0000
0000
,  // measure 1
0000
0000
0000
0000
,  // measure 2
0000
0000
0000
0000
,  // measure 3
0000
0000
0000
0000
,  // measure 4
0000
0000
0000
0000
,  // measure 5
1000
0000
0000
0000
,  // measure 6
0010
0000
0000
0000
,  // measure 7
0100
0000
0000
0000
,  // measure 8
0001
0000
0000
0000
,  // measure 9
1000
0000
0000
0000
,  // measure 10
0100
0000
0000
0000
,  // measure 11
0010
0000
0000
0000
,  // measure 12
0001
0000
0000
0000
,  // measure 13
0100
0000
0000
0000
,  // measure 14
0010
0000
0000
0000
,  // measure 15
1000
0000
0001
0000
,  // measure 16
1000
0000
0001
0000
,  // measure 17
1000
0000
0000
0000
,  // measure 18
0000
0001
0000
0000
,  // measure 19
0000
1000
0000
0000
,  // measure 20
0000
0010
0000
0000
,  // measure 21
0000
0100
0000
0000
,  // measure 22
0000
0001
0000
0000
,  // measure 23
0000
1000
0000
0000
,  // measure 24
0000
0100
0000
0000
,  // measure 25
0000
0000
0001
0000
,  // measure 26
0000
0000
0100
0000
,  // measure 27
0000
0000
0010
0000
,  // measure 28
0000
0000
1000
0000
,  // measure 29
0000
0000
0001
0000
,  // measure 30
0000
0000
1000
0000
,  // measure 31
0000
0000
0100
0000
,  // measure 32
0000
0000
0010
0000
,  // measure 33
0000
0000
0001
0000
,  // measure 34
0000
0000
0100
0000
,  // measure 35
0000
0000
0010
0000
,  // measure 36
1000
0000
0010
0000
,  // measure 37
0000
0000
0100
0000
,  // measure 38
0000
0000
0001
0000
,  // measure 39
0000
0000
1000
0000
,  // measure 40
0100
0000
0010
0000
,  // measure 41
0000
0000
0001
0000
,  // measure 42
0000
0000
0100
0000
,  // measure 43
0000
0000
0010
0000
,  // measure 44
1000
0000
0001
0000
,  // measure 45
0000
0000
0010
0000
,  // measure 46
0000
0000
0100
0000
,  // measure 47
1000
0000
0100
0000
,  // measure 48
1000
0000
0001
0100
,  // measure 49
0000
0000
0000
0010
,  // measure 50
0000
0000
0000
0100
,  // measure 51
0000
0000
0000
0010
,  // measure 52
0000
0000
0000
1000
,  // measure 53
0000
0000
0000
0001
,  // measure 54
0000
0000
0000
1000
,  // measure 55
0000
0000
0000
0100
,  // measure 56
0000
0000
0000
0010
,  // measure 57
0000
0000
0000
0001
,  // measure 58
0000
0000
0000
1000
,  // measure 59
0000
0000
0000
0010
,  // measure 60
0000
0000
0000
0100
,  // measure 61
0000
0000
0000
0001
,  // measure 62
0000
0000
0000
0010
,  // measure 63
0000
0000
0000
0100
,  // measure 64
1001
0000
0000
0000
,  // measure 65
1001
0000
0000
0000
,  // measure 66
0110
0000
0000
0000
,  // measure 67
0110
0000
0000
0000
,  // measure 68
1001
0000
0000
0000
,  // measure 69
0110
0000
0000
0000
,  // measure 70
1001
0000
0000
0000
,  // measure 71
0110
0000
0000
0000
,  // measure 72
1001
0000
0000
0000
,  // measure 73
1001
0000
0000
0000
,  // measure 74
0110
0000
0000
0000
,  // measure 75
0110
0000
0000
0000
,  // measure 76
1000
0000
0001
0000
,  // measure 77
1000
0000
0001
0000
,  // measure 78
1000
0000
0000
0000
,  // measure 79
0000
0001
0000
0000
,  // measure 80
0000
1000
0000
0000
,  // measure 81
0000
0001
0000
0100
,  // measure 82
0000
0010
0000
0000
,  // measure 83
0000
1000
0000
0000
,  // measure 84
0000
0100
0010
0000
,  // measure 85
0000
0000
0001
0000
,  // measure 86
0000
0000
1000
0000
,  // measure 87
0000
0000
0010
0000
,  // measure 88
0100
0000
0001
0000
,  // measure 89
0000
0000
1000
0000
,  // measure 90
0000
0000
0100
0000
,  // measure 91
0010
0000
0001
0000
,  // measure 92
1000
0000
0010
0000
,  // measure 93
0000
0000
0100
0000
,  // measure 94
0000
0000
0010
0000
,  // measure 95
0000
0000
1000
0000
,  // measure 96
0001
0000
0010
0000
,  // measure 97
0000
0000
0100
0000
,  // measure 98
0000
0000
1000
0000
,  // measure 99
0100
0000
0010
0000
,  // measure 100
0100
0000
1000
0000
,  // measure 101
0000
0000
0001
0000
,  // measure 102
0000
0000
0100
0000
,  // measure 103
0000
0000
0010
0000
,  // measure 104
0000
0000
1000
0000
,  // measure 105
0000
0000
0000
0000
,  // measure 106
0000
0000
0001
0000
,  // measure 107
1000
0000
0000
0000
0000
0000
0000
1001
;

//---------------dance-single - ----------------
#NOTES:
     dance-single:
     :
     Easy:
     11:
     0.412310,0.586931,0.183514,0.033366,0.000000,346.000000,324.000000,22.000000,4.000000,0.000000,0.000000,0.412310,0.586931,0.183514,0.033366,0.000000,346.000000,324.000000,22.000000,4.000000,0.000000,0.000000:
0000
0000
0000
0000
,
0000
0000
0000
0000
,
0000
0000
0000
0000
,
0000
0000
0000
0000
,
0000
0000
0000
0000
,
1000
0010
1000
0010
,
0100
0001
0100
0001
,
1000
1000
1000
1000
,
1000
0100
0010
0001
,
1000
0010
1000
0010
,
0100
0001
0100
0001
,
1000
0100
1000
0100
,
0010
0001
0010
0001
,
1000
0010
0100
0001
,
1000
0100
0010
0001
,
1000
1000
0100
0100
,
0010
0010
0001
0001
,
0100
0010
1000
0010
,
0000
1000
0000
0001
0000
1000
0000
0000
,
0000
0100
0010
0100
,
0000
1000
0000
0001
0000
1000
0000
0000
,
0000
0001
0100
0001
,
0000
1000
0000
0010
0000
1000
0000
0000
,
0000
0001
0010
0100
,
1000
0100
0010
0001
,
0010
0000
0000
0100
0000
1000
0000
0100
,
0000
0000
1000
0001
,
1000
0000
0000
0001
0000
0100
0000
0001
,
0000
0000
0020
0000
,
0000
0000
0000
0000
,
0000
0030
0000
0000
0001
0000
0001
0000
,
0100
0100
0010
0010
,
1000
1000
0001
0100
,
0001
0100
0010
1000
,
0010
1000
0001
0010
,
0001
0010
0100
1000
,
0100
1000
0010
0100
,
0010
0100
0001
1000
,
0001
1000
0100
0010
,
0100
0010
0001
0001
,
0002
0003
1000
0010
,
1000
0010
0100
0001
,
0100
0001
1000
0100
,
1000
0100
0010
0001
,
0010
0001
0100
0010
,
0100
0010
1000
0001
,
1000
0001
0010
0100
,
0010
0100
1000
0001
,
0100
0010
1000
0001
,
0000
0000
0000
0000
0000
1000
0000
0000
,
0000
0001
0000
0010
,
0000
0000
0000
0000
0000
0100
0000
0000
,
0000
1000
0000
0000
0001
0000
0100
0000
,
0000
0000
0000
0000
0000
0010
0000
0000
,
0000
0100
0000
0001
,
0000
0000
0000
0000
0000
1000
0000
0000
,
0000
0100
0000
0000
0010
0000
0001
0000
,
0000
1000
0000
0010
,
0000
0100
0000
0010
,
0000
1000
0000
0001
,
0000
0010
0000
0001
,
0000
1000
0000
0010
,
0000
0100
0000
0001
,
0000
0010
0000
0100
,
1100
0000
1001
0000
,
1100
0000
1001
0000
,
0101
0000
1001
0000
,
0011
0000
1001
0000
,
1010
0000
1001
0000
,
1100
0000
0110
0000
,
0011
0000
0101
0000
,
0110
0000
1010
0000
,
1000
1000
0000
0000
,
0001
0001
0000
0000
,
0100
0100
0000
0000
,
0010
0010
0000
0000
,
1000
1000
0100
0100
,
0010
0010
0001
0001
,
0100
0010
1000
0010
,
1000
0001
0010
0001
,
0010
0100
1000
0100
,
1000
0001
0100
0010
,
1000
0100
0010
0001
,
0010
0001
1000
0010
,
1000
0100
0010
0001
,
1000
0000
0000
0010
0000
0100
0000
0001
,
0000
1000
0000
0000
0100
0000
0010
0000
,
0001
0000
0000
1000
0000
0010
0000
0100
,
0000
0001
0000
0000
1000
0000
0100
0000
,
0010
0000
0000
0001
0000
0100
0000
0010
,
0000
1000
0000
0000
0001
0000
1000
0000
,
0100
0000
0000
0010
0000
0001
0000
1000
,
0000
0010
0000
0000
0100
0000
0001
0000
,
1000
0000
0000
0100
0000
0010
0000
0001
,
0000
0100
0000
0000
0010
0000
1000
0000
,
0001
0000
0000
1000
0000
0100
0000
0010
,
0000
0001
0000
0000
1000
0000
0010
0000
,
0100
0000
0000
0001
0000
1000
0000
0100
,
0000
0010
0000
0000
0100
0000
1000
0000
,
0001
0000
0000
0100
0000
0010
0000
1000
,
0000
0001
0000
0000
0010
0000
0100
0000
,
1000
0000
0000
0001
0000
0100
0000
0010
,
0000
0000
1000
0001
,
0010
0000
0000
0100
0000
1000
0000
0001
,
0000
0000
0100
0010
,
0100
0000
0000
0001
0000
1000
0000
0001
,
0000
0000
1001
1001
,
1001
0000
0000
0110
0000
0110
0000
0220
,
0000
0330
0000
0000
;

//---------------dance-single - ----------------
#NOTES:
     dance-single:
     :
     Medium:
     14:
     0.620849,0.722377,0.150148,0.183514,0.008342,521.000000,503.000000,18.000000,22.000000,0.000000,0.000000,0.620849,0.722377,0.150148,0.183514,0.008342,521.000000,503.000000,18.000000,22.000000,0.000000,0.000000:
0000
0000
0000
0000
,
0000
0000
0000
0000
,
0000
0000
0000
0000
,
0000
0000
0000
0000
,
0000
0000
0000
0000
,
1000
0010
0100
0001
,
1000
0100
0010
0001
,
1000
1000
0010
0010
,
0100
0001
0100
0001
0100
0001
0200
0000
,
0301
1000
0100
0010
,
0001
0000
0100
0000
0010
0000
1000
0001
,
1000
0010
0100
0001
,
1000
0001
1000
0001
1000
0000
0001
1000
,
0001
0100
0010
1000
,
0001
0010
0100
1000
,
0001
0100
0001
0100
0010
1000
0010
0000
,
1000
0100
1000
0100
0010
0001
0010
0000
,
0100
1000
1000
1000
,
0010
1000
0000
1000
0000
1000
0000
1000
,
0000
0001
0010
0000
0010
0000
0010
0000
,
0001
0010
0000
0010
0000
0010
0000
0010
,
0000
0100
1000
0000
1000
0000
1000
0000
,
0001
1000
0000
1000
0000
1000
0000
1000
,
0000
0001
0100
0001
0100
0001
1000
0010
,
1000
0010
0000
0000
0100
0000
0101
0000
,
0101
0000
0001
1000
0000
1100
0000
1100
,
0000
1000
0000
0100
0010
0000
0011
0000
,
0011
0000
0001
0100
0000
0110
0000
0100
,
0010
1000
0010
0000
0100
0000
0100
0000
,
0100
0000
0001
1000
0000
1000
0000
1000
,
0000
1000
0000
0100
0010
0001
0010
0001
,
1000
0010
1000
0010
0100
0001
0100
0010
,
1000
0001
0010
0000
0100
0000
1000
0001
,
0000
0100
0001
0100
0000
0010
0000
1000
,
0001
0000
0010
0000
0100
0000
1000
0001
,
0000
0100
0010
0100
0000
0010
1000
0010
,
1000
0000
0001
0010
0001
0000
1000
0010
,
0000
0100
0001
0100
0000
0001
0000
1000
,
0100
0000
0010
0000
0001
1000
0001
1000
,
0010
1000
0010
1000
0010
0000
1010
0000
,
2020
0000
3030
0000
1000
0000
0001
0010
,
0000
0100
1000
0001
0000
0100
0000
0010
,
1000
0000
0100
0000
0010
0000
0001
1000
,
0000
0010
0100
0001
0000
1000
0100
1000
,
0001
0000
0100
0010
0100
0000
0001
1000
,
0000
0100
0010
0100
0000
1000
0000
0001
,
0100
0000
0010
0000
0100
0001
0100
0001
,
0010
0001
0010
0000
0100
1000
0100
1000
,
0001
1000
0001
2000
0000
0000
3010
0000
0000
1000
0000
0000
,
1000
0000
1000
0000
0000
0001
0000
0001
,
0000
0001
0020
0000
0230
0000
1300
0000
,
1000
0000
1000
0000
0000
0010
0000
0010
,
0000
0010
0000
0010
0200
0000
0301
0000
,
0001
0000
0001
0000
0000
1000
0000
1000
,
0000
1000
0200
0000
0320
0000
0031
0000
,
0001
0000
0001
0000
0000
0100
0000
0100
,
0000
0100
0000
0100
0020
0000
1030
0000
,
1000
0000
1000
0000
0000
0001
0000
0001
,
0000
0001
0020
0000
0230
0000
1300
0000
,
1000
0000
1000
0000
0000
0010
0000
0010
,
0000
0010
0000
0010
0200
0000
0301
0000
,
0001
0000
0001
0000
0000
1000
0000
1000
,
0000
1000
0100
0000
0010
0000
0001
0000
,
0001
0000
0001
0000
0000
0100
0000
0000
,
0010
0000
0010
0000
0010
1000
0000
0001
,
0000
0001
0000
0001
0020
0000
0230
0000
,
1300
0000
1000
0000
1000
0010
0000
0100
,
0000
0100
0000
0100
0000
0100
0002
0000
,
1003
0000
1000
0000
1000
0100
0000
0010
,
0000
0010
0000
0010
0002
0000
0203
0000
,
0310
0000
0010
0000
0010
1000
0000
0001
,
0000
0001
0000
0001
0000
0001
0020
0000
,
0130
1100
0000
0000
,
1000
1001
0000
0000
,
0001
0101
0000
0000
,
1000
1100
0000
0000
,
0001
0100
0001
0100
0001
0100
0001
0000
,
1000
0100
1000
0100
1000
0100
1000
0000
,
0001
0000
0100
0000
0010
1000
0000
0001
,
0010
0100
0000
0010
0000
0001
1000
0000
,
0010
0100
0001
0000
1000
0100
0000
1000
,
0001
0100
1000
0000
0100
0001
0010
0100
,
2000
0000
3001
0000
0100
0010
0000
1000
,
0001
0010
0000
0100
0000
1000
0001
0000
,
0100
0010
1000
0000
1001
0000
0001
0000
,
0100
0000
0010
1000
0000
0001
0000
1000
,
0000
0100
0000
0010
0001
0000
1000
0000
,
0001
0000
0100
0010
0000
1000
0000
0100
,
0000
0010
0000
0001
0100
0000
0010
0000
,
1000
0000
0001
0010
0000
0100
0000
0010
,
0000
0001
0000
1000
0010
0000
0100
0000
,
0001
0000
0010
0100
1000
0100
1000
0000
,
0001
0100
0001
0100
0010
0000
1000
0000
,
0001
0000
0010
0100
0000
1000
0000
0100
,
0000
0010
0000
0001
0100
0000
0010
0000
,
1000
0000
0001
0010
0100
1000
0100
1000
,
0001
0100
0001
0100
0010
0000
1000
0000
,
0001
0000
0010
0100
0000
0010
0000
0001
,
0000
1000
0000
0010
0100
0000
0001
0000
,
0010
0000
0100
1000
0100
0010
0001
1000
,
0010
0100
0010
1000
0001
0000
0010
0000
,
0100
0000
1000
0001
0000
0100
0000
0010
,
0000
1000
0000
0001
0010
0000
0100
0000
,
0010
0000
0001
1000
0000
0010
0000
0100
,
0000
0001
1000
0100
0010
0000
0010
0000
,
0010
0000
0001
1000
0000
1000
0000
1000
,
0000
1000
0000
0010
0100
0000
0101
0000
,
0101
0000
0001
1000
0000
1100
0000
2200
,
0000
3300
0000
0000
;

//---------------dance-single - ----------------
#NOTES:
     dance-single:
     :
     Hard:
     17:
     0.792446,0.867728,0.700689,0.133465,0.095928,665.000000,581.000000,84.000000,16.000000,1.000000,0.000000,0.792446,0.867728,0.700689,0.133465,0.095928,665.000000,581.000000,84.000000,16.000000,1.000000,0.000000:
0000
0000
0000
0000
,
0000
0000
0000
0000
,
0000
0000
0000
0000
,
0000
0000
0000
0000
,
0000
0000
0000
0000
,
1000
0010
0100
0001
1000
0010
0100
0001
,
1000
0100
0010
0001
1000
0100
0010
0001
,
1000
1000
1000
1000
,
1000
0001
1000
0000
0001
0000
0100
0000
0010
0000
1000
0000
0002
0000
0000
0000
,
1003
0100
0010
0001
1000
0100
0010
0001
,
1000
0010
0100
0001
1000
0010
0100
0001
,
1000
0100
0010
0001
1000
0100
0010
0001
,
1000
0010
0100
0001
1000
0010
0100
0001
,
1000
0100
0010
0100
1000
0001
0100
0001
,
1000
0010
0100
0001
1000
0100
0010
0001
,
1000
0010
0100
0001
0010
0100
1000
0010
,
0100
0000
0001
1000
0001
0000
0010
0000
0100
0000
1000
0000
0020
0000
0000
0000
,
2000
3030
0000
0000
0000
0000
0000
0000
1000
0000
0000
0000
0000
0000
0000
0000
0001
0000
0000
0000
0000
0000
0000
0000
1001
0000
0000
0000
0000
0000
0000
0000
,
1000
0010
0000
1010
0000
1000
0000
1001
,
0000
0001
0010
0000
0100
0000
1100
0000
,
1000
0001
0000
0101
0000
0110
0000
1010
,
0000
1000
0001
0000
0010
0000
0110
0000
,
0100
1000
0000
1001
0000
0110
0000
1001
,
0000
0000
0001
0000
1000
0001
1000
0000
0001
0000
0010
0000
0001
1000
0001
0000
,
0100
0000
0000
0000
0020
0000
0000
0000
0000
0030
0000
0000
0000
0000
0000
0000
1000
0000
0000
0000
0000
0000
0000
0000
0001
0000
0000
0000
0000
0000
0000
0000
,
0011
0000
0010
0100
0000
1100
0000
1000
,
0001
0100
0010
0100
0001
0000
1000
0000
,
1100
0000
0100
0010
0000
0011
0000
0001
,
2000
3020
0130
0100
,
0100
0000
0001
0100
0000
0100
0000
0100
,
0000
0000
0100
0000
0000
0000
0001
0000
0100
0000
0001
1000
0001
0000
0100
0000
,
0001
1000
0001
0000
0010
0000
0100
0000
1000
0000
0100
0000
0001
0000
0100
0000
,
1000
0010
0100
0001
1000
0000
0100
1000
,
0010
0000
0100
0001
0010
0001
1000
0001
,
0010
0100
1000
0001
0100
0000
0010
1000
,
0100
0000
0010
0001
0100
1000
0100
0001
,
0010
0100
1000
0001
0100
0000
0010
1000
,
0100
0000
0010
0001
0100
0001
1000
0001
,
0010
0100
1000
0001
0100
0010
1000
0100
,
0010
0001
0100
0010
2000
3000
2000
3000
,
2000
0000
3000
0000
0001
0000
0100
0010
,
1000
0010
0100
0001
1000
0100
0010
0001
,
1000
0010
0100
0001
1000
0000
0100
0010
,
0100
1000
0001
1000
0010
0001
0010
1000
,
0001
0010
0100
1000
0001
0000
0100
0010
,
0100
0001
1000
0100
0010
0001
0100
0001
,
1000
0010
0100
0001
1000
0100
0010
0001
,
0100
0000
0010
0000
1000
0000
0100
0000
0010
0001
0010
0000
0100
0000
1000
0000
,
0001
0000
0000
0000
0000
0000
0000
0000
0000
0000
0000
0000
0000
0000
0000
0000
1000
0000
0000
0000
0000
0000
0000
0000
0000
0000
0000
0000
0000
0000
0000
0000
0001
0000
0000
0000
0000
0000
0000
0000
0000
0000
0000
0000
0000
0000
0000
0000
2000
0000
0000
0000
0000
0000
0000
0000
0000
0000
0000
0000
0000
0000
0000
0000
0000
0000
0000
0000
0000
0000
0000
0000
0000
0000
0000
0000
0000
0000
0000
0000
0000
0000
0000
0000
0000
0000
0000
0000
0000
0000
0000
0000
0000
0000
0000
0000
0200
0000
0000
0000
0000
0000
3300
0000
0000
0000
0000
0000
0000
0000
0000
0000
0000
0000
0000
0000
0000
0000
0000
0000
0000
0000
0000
0000
0000
0000
0000
0000
0000
0000
0000
0000
0000
0000
0000
0000
0000
0000
0000
0000
0000
0000
0000
0000
1000
0000
0000
0000
0000
0000
0000
0000
0000
0000
0000
0000
0000
0000
0000
0000
0000
0000
0000
0000
0000
0000
0000
0000
0000
0000
0000
0000
0000
0000
0000
0000
0000
0000
0000
0000
0000
0000
0000
0000
0000
0000
0000
0000
0000
0000
0000
0000
,
1000
0000
1000
0001
0000
1000
0000
1000
,
0000
1000
0010
0000
0100
0000
0001
0000
,
0001
0000
0001
1000
0000
0001
0000
0001
,
0000
0001
0000
0010
0100
0000
1000
0000
,
1000
0000
1000
0001
0000
1000
0000
1000
,
0000
1000
0010
0000
0100
0000
0001
0000
,
0001
0000
0001
0010
0000
0001
0000
0001
,
0000
0001
0000
0001
0100
0000
0101
0000
,
0101
0000
0001
1000
0000
0001
0000
0001
,
0000
0001
0010
0000
0100
0000
1000
0000
,
1000
0000
1000
0010
0000
1000
0000
1000
,
0000
1000
0000
1000
0010
0000
0100
0000
,
0100
0000
0100
0001
0000
0100
0000
0100
,
0000
0100
0010
0000
1000
0000
0001
0000
,
0001
0000
0000
0000
0000
0000
0000
0000
0001
0000
0000
0000
0010
0000
0000
0000
0000
0000
0000
0000
0002
0000
0000
0000
0000
0003
0000
0000
0000
0000
0000
0000
,
1001
0000
1001
0000
,
1100
0000
1100
0000
,
0011
0000
0011
0000
,
0101
0000
0101
0000
,
1010
0000
1010
0000
,
1001
0000
1001
0000
,
0110
0000
0110
0000
,
1001
0000
1001
0000
,
1100
1100
0000
0000
,
1001
1001
0000
0000
,
0101
0101
0000
0000
,
1010
1010
0000
0000
,
1000
0100
1000
0100
0010
0001
0010
0001
,
0100
0010
0100
0010
1000
0001
1000
0001
,
0020
0030
0000
0000
0000
0000
0000
0000
0100
0000
0000
0000
0000
0000
0000
0000
1000
0000
0000
0000
0100
0000
0000
0000
0010
0000
0000
0000
0100
0000
0000
0000
,
1000
0001
0100
0010
0100
0001
1000
0100
,
0010
0001
0100
0000
0001
0010
0100
1000
,
0001
0100
1000
0100
0001
0010
0100
1000
,
0001
0100
0010
0000
0100
0001
0010
0100
,
1000
0010
0100
0001
1000
0100
0010
0001
,
1000
0000
0000
0000
0010
0000
0000
0000
0200
0300
0000
0000
0000
0000
0000
0000
1001
0000
0000
0000
0000
0000
0000
0000
0110
0000
0000
0000
0000
0000
0000
0000
,
1001
0000
0001
0010
0000
0110
0000
1001
,
0000
1100
0000
1000
0001
0000
0011
0000
,
0101
0000
0000
0000
0100
0000
0010
0000
1000
0000
0001
1000
0001
0000
0010
0000
,
0100
1000
0001
0100
0010
0000
1010
0000
,
0101
0000
0100
0001
0000
0011
0000
1001
,
0000
1100
0000
0100
1000
0000
1100
0000
,
1010
0000
0000
0000
0010
0000
0100
0000
0001
1000
0001
0000
0010
0000
0100
0000
,
1000
0001
0100
1000
0100
0000
0110
0000
,
0101
0000
0001
1000
0000
1100
0000
0011
,
0000
0101
0000
0100
0010
0000
1010
0000
,
1001
0000
0000
0001
0010
0000
0100
0000
1000
0000
0010
0000
0100
0000
0001
0000
,
1000
0010
1000
0000
0001
0000
0010
0000
0100
0000
0000
0000
1100
0000
0000
0000
,
0101
0000
0001
0100
0000
0110
0000
1010
,
0000
1100
0000
0100
0010
0000
0011
0000
,
1010
0000
0000
0000
1000
0000
0001
0000
0100
0001
0100
0000
0010
0000
1000
0000
,
0100
0001
0100
1000
1001
0000
1001
0000
,
1001
0000
0001
0100
0000
0101
0000
0101
,
0000
0101
0000
0001
1000
0000
1100
0000
,
1100
0000
0000
0100
0010
0000
0001
0000
0000
0000
1001
0000
0000
0000
1000
0000
,
0001
1000
0001
0000
1000
0000
0010
0000
0100
0000
0000
0000
0100
0000
0000
0000
,
0100
0000
0001
0100
0000
0100
0000
0100
,
0000
0100
0000
0001
0101
0000
0101
0000
,
0001
0100
0001
0000
1000
0000
1001
0000
0000
0000
1001
0000
0000
0000
2002
0000
,
0000
3003
0000
0000
;
