#VERSION:0.83;
#TITLE:BPM=RT;
#SUBTITLE:;
#ARTIST:t+pazolite;
#TITLETRANSLIT:;
#SUBTITLETRANSLIT:;
#ARTISTTRANSLIT:;
#GENRE:Extratone;
#ORIGIN:;
#TAGS:;
#CREDIT:;
#BANNER:BPM=RT.png;
#BACKGROUND:BPM=RT-background.png;
#PREVIEWVID:;
#JACKET:BPM=RT-jacket.png;
#CDIMAGE:;
#DISCIMAGE:;
#LYRICSPATH:;
#CDTITLE:../_YSD cdtitles/ysd cc2 cdtitle.png;
#MUSIC:BPM=RT.ogg;
#OFFSET:1.369000;
#SAMPLESTART:94.547142;
#SAMPLELENGTH:15.657501;
#SELECTABLE:YES;
#BPMS:0.000000=122.625000
,52.000000=245.250000
,116.000000=1962.000000
,628.000000=122.625000
,644.000000=245.250000
,804.000000=1962.000000
,932.000000=245.250000
,948.000000=1962.000000
,1460.000000=122.625000
;
#DISPLAYBPM:122.625000:245.250000;
#STOPS:;
#DELAYS:;
#WARPS:;
#TIMESIGNATURES:0.000000=4=4
;
#TICKCOUNTS:0.000000=4
;
#COMBOS:0.000000=1
;
#SPEEDS:0.000000=1.000000=0.000000=0
;
#SCROLLS:0.000000=1.000000
,116.000000=0.125000
,628.000000=1.000000
,804.000000=0.125000
,932.000000=1.000000
,948.000000=0.125000
,1460.000000=1.000000
;
#FAKES:;
#LABELS:0.000000=Song Start
;
#BGCHANGES:;
#KEYSOUNDS:;
#ATTACKS:
;

//---------------dance-single - ----------------
#NOTEDATA:;
#CHARTNAME:;
#CHARTHASH:2493834186;
#STEPSTYPE:dance-single;
#BANNER:;
#DESCRIPTION:;
#CHARTSTYLE:;
#DIFFICULTY:Medium;
#METER:16;
#METERF:16.000000;
#LASTSECONDHINT:133.676880;
#RADARVALUES:0.688914,2.746087,0.089304,0.706987,0.066978,648.000000,636.000000,12.000000,95.000000,2.000000,0.000000,0.000000,0.000000,0.000000,0.688914,2.746087,0.089304,0.706987,0.066978,648.000000,636.000000,12.000000,95.000000,2.000000,0.000000,0.000000,0.000000,0.000000;
#CREDIT:YOSEFU;
#DISPLAYBPM:122.625000:245.250000;
#NOTES:
0000
0000
0000
0000
,
0000
0000
0000
0000
,
0000
0000
0000
0000
,
0000
0000
0000
0000
,
0000
0000
0000
0000
0000
0000
0000
0000
0000
0000
0000
0000
0000
0000
1000
0100
,
0010
0001
1000
0010
0110
0100
0001
1000
,
0100
0000
0010
0000
0001
0000
1000
0000
1001
0000
0000
0000
0001
0000
0100
0010
,
1000
0100
0010
1000
0010
0001
1000
0010
,
0100
0001
1000
0100
0110
0000
0010
0000
,
0001
1000
0010
0100
0101
0000
0001
0000
,
1000
0000
1100
0000
,
0100
0010
0001
0100
0110
0000
0010
0000
,
1000
0000
0000
0000
1001
0000
0000
0002
,
10M3
0100
0010
0001
,
0100
0010
1000
0100
,
0010
0100
1000
0001
,
0100
0010
1000
0100
,
0010
0001
1000
0010
,
0100
0001
0010
0100
,
0010
0001
1000
0010
,
0100
0001
1000
0100
,
0010
0001
0010
0100
1000
0010
0100
0001
,
1000
0100
0010
0001
0100
0010
1000
0001
,
0010
0100
1000
0010
0100
0001
0010
0100
,
1000
0001
0100
0010
1000
0100
0010
0001
,
1000
0010
0100
0001
0010
0100
1000
0001
,
1000
0010
0100
0001
0010
0100
0010
0001
,
1000
0000
0000
0000
,
0001
0010
1000
0010
0001
0100
0010
0000
,
2000
0000
0000
0000
,
0000
0000
0000
0000
,
0000
0000
0000
0000
,
0000
0000
0000
0000
,
0000
0000
0000
0000
,
0000
0000
0000
0000
,
0000
0000
0000
0000
,
0000
0000
0000
0000
,
0000
0000
0000
0000
,
0000
0000
0000
0000
,
0000
0000
0000
0000
,
0000
0000
0000
0000
,
3100
0000
0000
0000
,
0020
0000
0000
0000
,
0031
0000
0000
0000
,
0000
0000
0000
0000
,
0200
0000
0000
0000
,
0000
0000
0000
0000
,
0000
0000
0000
0000
,
0000
0000
0000
0000
,
0000
0000
0000
0000
,
0310
0000
0000
0000
,
2000
0000
0000
0000
,
0000
0000
0000
0000
,
3200
0000
0000
0000
,
0000
0000
0000
0000
,
0310
0000
0001
0000
,
0010
0000
0000
0000
,
0001
0000
0000
0000
,
0200
0000
0000
0000
,
0300
0000
0000
0000
,
0000
0000
0000
0000
,
0020
0000
0000
0000
,
0000
0000
0000
0000
,
0000
0000
0000
0000
,
0000
0000
0000
0000
,
0000
0000
0000
0000
,
0000
0000
0000
0000
,
0000
0000
0000
0000
,
0000
0000
0000
0000
,
0000
0000
0000
0000
,
0000
0000
0000
0000
,
0000
0000
0000
0000
,
0000
0000
0000
0000
,
1030
0000
0000
0000
,
0002
0000
0000
0000
,
0023
0000
0000
0000
,
0000
0000
0000
0000
,
0230
0000
0000
0000
,
0000
0000
0000
0000
,
0000
0000
0000
0000
,
0000
0000
0000
0000
,
0000
0000
0000
0000
,
1300
0000
0000
0000
,
0002
0000
0000
0000
,
0000
0000
0000
0000
,
0203
0000
0000
0000
,
0000
0000
0000
0000
,
0310
0000
1000
0000
,
0010
0000
0000
0000
,
0100
0000
0000
0000
,
0002
0000
0000
0000
,
1003
0000
0000
0000
,
0000
0000
0000
0000
,
0001
0000
0000
0000
,
0010
0000
0000
0000
,
1000
0000
0000
0000
,
0010
0000
0000
0000
,
0001
0000
0000
0000
,
0100
0000
0000
0000
,
1000
0000
0000
0000
,
0100
0000
0000
0000
,
0001
0000
0000
0000
,
2000
0000
0000
0000
,
3100
0000
0000
0000
,
0002
0000
0000
0000
,
0103
0000
0000
0000
,
2000
0000
0000
0000
,
3001
0000
0000
0000
,
0000
0000
0000
0000
,
0200
0000
0000
0000
,
0000
0000
0000
0000
,
0000
0000
0000
0000
,
0000
0000
0000
0000
,
0000
0000
0000
0000
,
0301
0000
0000
0000
,
2000
0000
0000
0000
,
0000
0000
0000
0000
,
3200
0000
0000
0000
,
0000
0000
0000
0000
,
1300
0000
0001
0000
,
1000
0000
0000
0000
,
0001
0000
0000
0000
,
0200
0000
0000
0000
,
0300
0000
0000
0000
,
0000
0000
0000
0000
,
0020
0000
0000
0000
,
0000
0000
0000
0000
,
0000
0000
0000
0000
,
0000
0000
0000
0000
,
0000
0000
0000
0000
,
0000
0000
0000
0000
,
0000
0000
0000
0000
,
0000
0000
0000
0000
,
0000
0000
0000
0000
,
0000
0000
0000
0000
,
0000
0000
0000
0000
,
0000
0000
0000
0000
,
1030
0000
0000
0000
,
0002
0000
0000
0000
,
1003
0000
0100
0000
,
1000
0000
0001
0000
,
0200
0000
0000
0000
,
0000
0000
0000
0000
,
0000
0000
0000
0000
,
0000
0000
0000
0000
,
0000
0000
0000
0000
,
0310
0000
0000
0000
,
2000
0000
0000
0000
,
0000
0000
0000
0000
,
3002
0000
0000
0000
,
0000
0000
0000
0000
,
0000
0000
0000
0000
,
0000
0000
0000
0000
,
0000
0000
0000
0000
,
0000
0000
0000
0000
,
0000
0000
0000
0000
,
0000
0000
0000
0000
,
0M23
0000
0000
0000
0000
0000
0000
0000
0000
0000
0000
0000
0130
0000
1000
0020
,
0000
0000
0000
0000
0000
0000
0000
0000
0000
0000
0000
0000
0130
0000
0001
0010
,
0100
0000
0001
0000
0100
0000
2000
0000
0000
0000
0000
0000
3001
0000
0100
0020
,
0000
0000
1000
0000
1000
0000
0100
0000
1030
0000
0000
0000
0001
0000
1000
0100
,
0010
0001
1000
0010
0100
0001
1000
0000
,
0100
0010
0001
0100
0010
1000
0001
0000
,
0010
0100
1000
0010
0100
0001
1000
0000
,
0001
1000
0010
0100
0001
1000
0100
0000
,
1000
0010
0100
0001
0010
0100
1000
0000
,
0001
0100
0010
1000
0100
0010
0001
0000
,
1000
0010
0100
0001
0010
0100
1000
0000
,
0001
0100
0010
0100
0001
1000
0100
0000
,
0010
0001
1000
0010
0100
0001
1000
0100
,
0010
0100
1000
0010
0100
0001
0010
0001
,
0100
0010
1000
0100
1000
0001
0100
0010
,
1000
0100
0010
0001
1000
0010
0100
0001
,
1000
0100
0001
0100
0010
0001
1000
0010
,
0001
1000
0100
0001
0010
0100
1000
0001
,
0100
0000
0000
0000
,
0001
0010
0100
1000
0010
0100
0001
1000
,
0200
0000
0000
0000
0310
2000
0000
3010
,
0002
0000
0000
0000
0103
0000
0020
0000
0000
0000
1030
0001
1000
0000
0010
0000
,
0200
0000
0000
0000
0310
0000
0002
0000
0013
0000
0000
0000
1000
0001
1000
0001
,
1000
0001
0100
0010
1000
0100
0010
0000
,
0002
0000
0000
0000
0103
2000
0000
3100
,
0020
0000
0000
0000
1030
0000
0002
0000
1003
0000
0100
0010
0100
0000
1000
0000
,
0001
0000
0200
0000
1300
0000
0200
0000
0301
0000
0000
0000
1000
0100
1000
0100
,
1000
0000
0001
0100
0000
0001
1000
0000
,
0001
0100
0010
1000
0100
0010
0100
1000
,
0010
0000
0100
0000
0001
0000
1000
0000
0100
0000
0010
0001
0010
0000
0001
0000
,
0100
0000
0010
0000
1000
0000
0100
0000
0010
0000
0001
0000
1000
0010
1000
0010
,
1000
0001
0010
0001
1000
0010
0200
0000
,
0302
0000
0000
0000
1003
0100
0010
0100
,
1000
0000
0001
0000
0100
0000
0010
0000
0100
0000
0001
1000
0001
0000
1000
0000
,
0010
0000
0100
0000
0001
0000
1000
0000
0100
0000
0010
0000
0100
1000
0100
1000
,
0001
1000
0100
0010
0001
0000
1000
0000
,
0001
1001
1000
0010
,
0000
1001
1000
0010
,
0000
1001
1000
0010
,
0100
0001
0010
0100
1000
0001
0100
0000
,
0010
1000
0001
0010
,
0000
0100
1000
0001
,
0000
0100
0010
1000
,
0001
0010
0100
1000
0010
0100
0001
0000
,
2000
0000
0000
0000
,
0000
0000
0000
0000
,
0100
0000
0000
0000
,
0000
0000
0000
0000
,
0001
0000
0000
0000
,
0000
0000
0000
0000
,
0001
0000
0000
0000
,
0000
0000
0000
0000
,
3010
0000
0000
0000
,
0000
0000
0000
0000
,
1000
0000
0000
0000
,
0000
0000
0000
0000
,
0010
0000
0000
0000
,
0000
0000
0000
0000
,
0200
0000
0000
0000
,
0000
0000
0000
0000
,
0302
0000
0000
0000
,
0000
0000
0000
0000
,
0010
0000
0000
0000
,
0000
0000
0000
0000
,
1000
0000
0000
0000
,
0000
0000
0000
0000
,
1000
0000
0000
0000
,
0000
0000
0000
0000
,
1003
0000
0000
0000
,
0100
0000
0000
0000
,
0010
0000
0000
0000
,
0001
0000
0000
0000
,
0000
0000
0000
0000
,
0001
0000
0000
0000
,
1000
0000
0000
0000
,
0000
0000
0000
0000
,
1000
0100
0001
0100
1000
0010
0100
0001
,
0010
0100
1000
0010
0001
0010
0100
0001
,
0010
0100
1000
0010
0100
0010
0001
0010
,
1000
0100
0001
0100
1000
0001
0100
0000
,
0020
0000
0000
0000
,
0000
0000
0000
0000
,
1030
0000
0001
0000
,
1000
0000
0001
0000
,
1000
0000
0000
0000
,
0001
0000
0000
0000
,
2000
0000
0000
0000
,
0000
0000
0000
0000
,
3001
0000
0000
0000
,
0020
0000
0000
0000
,
0230
0000
0000
0000
,
2300
0000
0000
0000
,
3010
0000
0000
0000
,
0000
0000
0000
0000
,
0002
0000
0000
0000
,
0000
0000
0000
0000
,
0023
0000
0000
0000
,
0000
0000
0000
0000
,
0130
0000
0001
0000
,
2000
0000
0000
0000
,
0000
0000
0000
0000
,
3100
0000
0000
0000
,
0020
0000
0000
0000
,
0000
0000
0000
0000
,
0032
0000
0000
0000
,
0000
0000
0000
0000
,
1003
0000
0010
0000
,
1000
0000
0010
0000
,
1000
0000
0000
0000
,
0002
0000
0000
0000
,
0003
0000
0000
0000
,
0000
0000
0000
0000
,
0020
0000
0000
0000
,
0130
0000
1000
0000
,
0002
0000
0000
0000
,
0000
0000
0000
0000
,
0103
0000
0000
0000
,
2000
0000
0000
0000
,
3200
0000
0000
0000
,
0302
0000
0000
0000
,
2003
0000
0000
0000
,
3200
0000
0000
0000
,
0310
0000
0000
0000
,
0001
0000
0000
0000
,
0100
0000
0000
0000
,
2000
0000
0000
0000
,
3100
0000
0000
0000
,
0002
0000
0000
0000
,
2003
0000
0000
0000
,
0000
0000
0000
0000
,
3100
0000
0000
0000
,
0002
0000
0000
0000
,
0000
0000
0000
0000
,
0103
0000
0010
0000
,
0002
0000
0000
0000
,
0000
0000
0000
0000
,
2003
0000
0000
0000
,
0000
0000
0000
0000
,
3001
0000
0100
0000
,
0001
0000
1000
0000
,
0100
0000
0000
0000
,
0020
0000
0000
0000
,
0031
0000
0000
0000
,
0000
0000
0000
0000
,
1000
0000
0000
0000
,
0010
0000
0000
0000
,
0001
0000
0000
0000
,
0010
0000
0000
0000
,
1000
0000
0000
0000
,
0100
0000
0000
0000
,
0001
0000
0000
0000
,
0100
0000
0000
0000
,
1000
0000
0000
0000
,
0002
0000
0000
0000
,
0103
0000
0000
0000
,
2000
0000
0000
0000
,
3100
0000
0000
0000
,
0002
0000
0000
0000
,
1003
0000
0000
0000
,
0000
0000
0000
0000
,
0002
0000
0000
0000
,
0000
0000
0000
0000
,
0000
0000
0000
0000
,
0000
0000
0000
0000
,
0000
0000
0000
0000
,
0103
0000
0000
0000
,
0020
0000
0000
0000
,
0000
0000
0000
0000
,
2030
0000
0000
0000
,
0000
0000
0000
0000
,
3001
0000
1000
0000
,
0001
0000
1000
0000
,
0010
0000
0000
0000
,
0000
0000
0110
0000
,
0000
0000
0000
0000
,
0101
0000
0000
0000
,
0200
0000
0000
0000
,
0000
0000
0000
0000
,
0000
0000
0000
0000
,
2300
0000
0000
0000
,
3200
0000
0000
0000
,
0000
0000
0000
0000
,
0302
0000
0000
0000
,
0203
0000
0000
0000
,
0320
0000
0000
0000
,
2030
0000
0000
0000
,
3002
0000
0000
0000
,
0023
0000
0000
0000
,
0230
0000
0000
0000
,
2300
0000
0000
0000
,
3001
0000
1000
0000
,
0001
0000
1000
0000
,
0020
0000
0000
0000
,
0000
0000
0000
0000
,
0032
0000
0000
0000
,
0023
0000
0000
0000
,
0000
0000
0000
0000
,
0000
0000
0000
0000
,
0000
0000
0000
0000
,
2030
0000
0000
0000
,
3200
0000
0000
0000
,
0000
0000
0000
0000
,
0000
0000
0000
0000
,
0000
0000
0000
0000
,
0000
0000
0000
0000
,
0000
0000
0000
0000
,
0000
0000
0000
0000
,
0000
0000
0000
0000
,
0320
0000
0000
0000
,
0000
0000
0000
0000
,
0000
0000
0000
0000
,
0000
0000
0000
0000
,
0030
0000
0000
0000
;

//---------------dance-single - ----------------
#NOTEDATA:;
#CHARTNAME:;
#CHARTHASH:679903684;
#STEPSTYPE:dance-single;
#BANNER:;
#DESCRIPTION:;
#CHARTSTYLE:;
#DIFFICULTY:Hard;
#METER:18;
#METERF:18.000000;
#LASTSECONDHINT:133.676880;
#RADARVALUES:0.795228,3.432609,0.111630,0.706987,0.260469,748.000000,733.000000,15.000000,95.000000,2.000000,0.000000,0.000000,0.000000,0.000000,0.795228,3.432609,0.111630,0.706987,0.260469,748.000000,733.000000,15.000000,95.000000,2.000000,0.000000,0.000000,0.000000,0.000000;
#CREDIT:YOSEFU;
#DISPLAYBPM:122.625000:245.250000;
#NOTES:
0000
0000
0000
0000
,
0000
0000
0000
0000
,
0000
0000
0000
0000
,
0000
0000
0000
0000
,
0000
0000
0000
0000
0000
0000
0000
0000
0000
0000
0000
0000
0000
0000
1000
0100
,
0010
0001
1000
0010
0110
0100
0001
1000
,
0100
0000
0010
0000
0001
0000
1000
0000
1001
0000
0000
0000
0001
0000
0100
0010
,
1000
0100
0010
1000
0010
0001
1000
0010
,
0100
0001
1000
0100
0110
0000
0010
0000
,
0001
1000
0010
0100
0101
0000
0001
0000
,
1000
0000
1100
0000
,
0100
0010
0001
0100
0110
0000
0010
0000
,
1000
0000
0000
0000
1001
0000
0000
0002
,
10M3
0100
0010
0001
,
0100
0010
1000
0100
,
0010
0100
1000
0001
,
0100
0010
1000
0100
,
0010
0001
1000
0010
,
0100
0001
0010
0100
,
0010
0001
1000
0010
,
0100
0001
1000
0100
,
0010
0001
0010
0100
1000
0010
0100
0001
,
1000
0100
0010
0001
0100
0010
1000
0001
,
0010
0100
1000
0010
0100
0001
0010
0100
,
1000
0001
0100
0010
1000
0100
0010
0001
,
1000
0010
0100
0001
0010
0100
1000
0001
,
1000
0100
0010
0001
1000
0010
0100
0001
1000
0001
0010
0100
1000
0001
0100
0010
,
1000
0000
0000
0000
,
0001
0010
0100
1000
0010
0100
0001
1000
0100
0010
0001
1000
0010
0000
0000
0000
,
2000
0000
0000
0000
,
0000
0000
0000
0000
,
0000
0000
0000
0000
,
0000
0000
0000
0000
,
0000
0000
0000
0000
,
0000
0000
0000
0000
,
0000
0000
0000
0000
,
0000
0000
0000
0000
,
0000
0000
0000
0000
,
0000
0000
0000
0000
,
0000
0000
0000
0000
,
0000
0000
0000
0000
,
3100
0000
0000
0000
,
0020
0000
0000
0000
,
0031
0000
0000
0000
,
0000
0000
0000
0000
,
0200
0000
0000
0000
,
0000
0000
0000
0000
,
0000
0000
0000
0000
,
0000
0000
0000
0000
,
0000
0000
0000
0000
,
0310
0000
0000
0000
,
2000
0000
0000
0000
,
0000
0000
0000
0000
,
3200
0000
0000
0000
,
0000
0000
0000
0000
,
0310
0000
0001
0000
,
0010
0000
0100
0000
,
1000
0000
0001
0000
,
0200
0000
0000
0000
,
0300
0000
0000
0000
,
0000
0000
0000
0000
,
0020
0000
0000
0000
,
0000
0000
0000
0000
,
0000
0000
0000
0000
,
0000
0000
0000
0000
,
0000
0000
0000
0000
,
0000
0000
0000
0000
,
0000
0000
0000
0000
,
0000
0000
0000
0000
,
0000
0000
0000
0000
,
0000
0000
0000
0000
,
0000
0000
0000
0000
,
0000
0000
0000
0000
,
1030
0000
0000
0000
,
0002
0000
0000
0000
,
0023
0000
0000
0000
,
0000
0000
0000
0000
,
0230
0000
0000
0000
,
0000
0000
0000
0000
,
0000
0000
0000
0000
,
0000
0000
0000
0000
,
0000
0000
0000
0000
,
1300
0000
0000
0000
,
0002
0000
0000
0000
,
0000
0000
0000
0000
,
0203
0000
0000
0000
,
0000
0000
0000
0000
,
0310
0000
1000
0000
,
0001
0000
0010
0000
,
0100
0000
1000
0000
,
0002
0000
0000
0000
,
1003
0000
0000
0000
,
0000
0000
0000
0000
,
0001
0000
0100
0000
,
0001
0000
0100
0000
,
0001
0000
0000
0000
,
1000
0000
0000
0000
,
0010
0000
1000
0000
,
0010
0000
1000
0000
,
0010
0000
0000
0000
,
1000
0000
0000
0000
,
0100
0000
0000
0000
,
2000
0000
0000
0000
,
3100
0000
0000
0000
,
0002
0000
0000
0000
,
0103
0000
0000
0000
,
2000
0000
0000
0000
,
3001
0000
0000
0000
,
0000
0000
0000
0000
,
0200
0000
0000
0000
,
0000
0000
0000
0000
,
0000
0000
0000
0000
,
0000
0000
0000
0000
,
0000
0000
0000
0000
,
0301
0000
0000
0000
,
2000
0000
0000
0000
,
0000
0000
0000
0000
,
3200
0000
0000
0000
,
0000
0000
0000
0000
,
0310
0000
0001
0000
,
0010
0000
0100
0000
,
1000
0000
0001
0000
,
0200
0000
0000
0000
,
0300
0000
0000
0000
,
0000
0000
0000
0000
,
0020
0000
0000
0000
,
0000
0000
0000
0000
,
0000
0000
0000
0000
,
0000
0000
0000
0000
,
0000
0000
0000
0000
,
0000
0000
0000
0000
,
0000
0000
0000
0000
,
0000
0000
0000
0000
,
0000
0000
0000
0000
,
0000
0000
0000
0000
,
0000
0000
0000
0000
,
0000
0000
0000
0000
,
1030
0000
0000
0000
,
0002
0000
0000
0000
,
0013
0000
0100
0000
,
1000
0000
0001
0000
,
0200
0000
0000
0000
,
0000
0000
0000
0000
,
0000
0000
0000
0000
,
0000
0000
0000
0000
,
0000
0000
0000
0000
,
0310
0000
0000
0000
,
2000
0000
0000
0000
,
0000
0000
0000
0000
,
3002
0000
0000
0000
,
0000
0000
0000
0000
,
0000
0000
0000
0000
,
0000
0000
0000
0000
,
0000
0000
0000
0000
,
0000
0000
0000
0000
,
0000
0000
0000
0000
,
0000
0000
0000
0000
,
0M23
0000
0000
0000
0000
0000
0000
0000
0000
0000
0000
0000
0130
0000
1000
0020
,
0000
0000
0000
0000
0000
0000
0000
0000
0000
0000
0000
0000
0130
0000
0001
0010
,
0100
0000
0001
0000
0100
0000
2000
0000
0000
0000
0000
0000
3001
0000
0100
0020
,
0000
0000
1000
0000
1000
0000
0100
0000
1030
0000
0000
0000
0001
0000
1000
0100
,
0010
0001
1000
0010
0100
0001
1000
0000
,
0100
0010
0001
0100
0010
1000
0001
0000
,
0010
0100
1000
0010
0100
0001
1000
0000
,
0001
1000
0010
0100
0001
1000
0100
0000
,
1000
0010
0100
0001
0010
0100
1000
0000
,
0001
0100
0010
1000
0100
0010
0001
0000
,
1000
0010
0100
0001
0010
0100
1000
0000
,
0001
0100
0010
0100
0001
1000
0100
0000
,
0010
0001
1000
0010
0100
0001
1000
0100
,
0010
0100
1000
0010
0100
0001
0010
0001
,
0100
0010
1000
0100
1000
0001
0100
0010
,
1000
0100
0010
0001
1000
0010
0100
0001
,
1000
0100
0001
0100
0010
0001
1000
0010
,
1000
0001
0100
0001
1000
0100
0010
0001
1000
0010
0100
0001
1000
0100
0010
0001
,
1000
0000
0000
0000
,
0001
0100
0010
1000
0001
0010
0100
0010
0001
1000
0010
0100
0010
1000
0001
0010
,
0200
0000
0000
0000
0310
2000
0000
3010
,
0002
0000
0000
0000
0103
0000
0020
0000
0000
0000
1030
0001
0010
0100
1000
0001
,
0200
0000
0000
0000
0310
0000
0002
0000
0013
0000
0000
0000
0100
0001
1000
0100
,
0010
0001
0100
0010
1000
0100
0010
0000
,
0002
0000
0000
0000
0103
2000
0000
3100
,
0020
0000
0000
0000
1030
0000
0002
0000
1003
0000
0100
0010
0001
1000
0010
0100
,
0001
0000
0200
0000
1300
0000
0200
0000
0301
0000
0000
0000
1000
0100
0010
0100
,
1000
0000
0001
0100
0000
0001
1000
0000
,
0001
0100
0010
1000
0100
0010
0100
1000
,
0010
0000
0100
0000
0001
0000
1000
0000
0100
0000
0010
0001
0010
0100
1000
0001
,
0100
0000
0010
0000
1000
0000
0100
0000
0010
0000
0001
0000
0100
0010
0100
0001
,
1000
0001
0010
0001
1000
0010
0200
0000
,
0302
0000
0000
0000
1003
0100
0010
0100
,
1000
0000
0001
0000
0100
0000
0010
0000
0100
0000
0001
1000
0100
0010
0001
1000
,
0010
0000
0100
0000
0001
0000
1000
0000
0100
0000
0010
0000
0100
1000
0001
0100
,
0010
1000
0100
0010
0001
0000
1000
0000
,
0001
1000
1010
0010
1000
0100
0010
0000
,
0001
0000
1000
0000
1010
0000
0010
0000
1000
0000
0100
0000
0010
0001
0010
0100
,
1000
0000
0001
0000
0011
0000
0010
0000
0001
0000
0100
0000
0010
1000
0001
0010
,
0100
1000
0100
0001
0100
1000
0010
0000
,
0100
0010
0001
0010
1000
0001
0010
0000
,
0100
0000
0010
0000
1000
0000
0010
0000
0001
0000
1000
0000
0010
0100
0001
1000
,
0100
0000
0010
0000
1000
0000
0010
0000
0001
0000
1000
0000
0010
0100
0001
1000
,
0100
0010
0001
0100
1000
0100
0010
0000
,
2000
0000
0000
0000
,
0000
0000
0000
0000
,
0100
0000
0000
0000
,
0000
0000
0000
0000
,
0001
0000
0000
0000
,
0000
0000
0000
0000
,
0001
0000
0000
0000
,
0000
0000
0000
0000
,
3010
0000
0000
0000
,
0000
0000
0000
0000
,
1000
0000
0000
0000
,
1010
0000
0000
0000
,
0010
0000
0000
0000
,
0000
0000
0000
0000
,
0200
0000
0000
0000
,
0000
0000
0000
0000
,
0302
0000
0000
0000
,
0000
0000
0000
0000
,
0010
0000
0000
0000
,
0000
0000
0000
0000
,
1000
0000
0000
0000
,
0000
0000
0000
0000
,
1000
0000
0000
0000
,
0000
0000
0000
0000
,
1003
0000
0000
0000
,
0100
0000
0000
0000
,
0010
0000
0000
0000
,
0011
0000
0000
0000
,
0000
0000
0000
0000
,
0001
0000
0000
0000
,
1001
0000
0000
0000
,
0000
0000
0000
0000
,
1000
0100
0001
1000
0001
0100
1000
0010
,
0001
1000
0001
0010
1000
0100
0010
0001
,
1000
0001
0100
0010
0001
0010
1000
0001
,
1000
0100
0010
0001
0100
0010
1000
0001
0010
0100
1000
0001
0100
0000
0000
0000
,
0020
0000
0000
0000
,
0000
0000
0000
0000
,
1030
0000
0001
0000
,
0010
0000
0100
0000
,
1000
0000
0010
0000
,
0100
0000
0001
0000
,
2000
0000
0000
0000
,
0000
0000
0000
0000
,
3001
0000
0000
0000
,
0020
0000
0000
0000
,
0230
0000
0000
0000
,
2300
0000
0000
0000
,
3010
0000
0000
0000
,
0000
0000
0000
0000
,
0002
0000
0000
0000
,
0000
0000
0000
0000
,
0023
0000
0000
0000
,
0000
0000
0000
0000
,
0130
0000
0001
0000
,
2000
0000
0000
0000
,
0000
0000
0000
0000
,
3100
0000
0000
0000
,
0020
0000
0000
0000
,
0000
0000
0000
0000
,
0032
0000
0000
0000
,
0000
0000
0000
0000
,
1003
0000
0010
0000
,
0100
0000
0010
0000
,
1000
0000
0000
0000
,
0002
0000
0000
0000
,
0003
0000
0000
0000
,
0000
0000
0000
0000
,
0020
0000
0000
0000
,
0130
0000
1000
0000
,
0002
0000
0000
0000
,
0000
0000
0000
0000
,
0103
0000
0000
0000
,
2000
0000
0000
0000
,
3200
0000
0000
0000
,
0302
0000
0000
0000
,
2003
0000
0000
0000
,
3200
0000
0000
0000
,
0310
0000
0001
0000
,
1000
0000
0010
0000
,
0100
0000
0000
0000
,
2000
0000
0000
0000
,
3100
0000
0000
0000
,
0002
0000
0000
0000
,
2003
0000
0000
0000
,
0000
0000
0000
0000
,
3100
0000
0000
0000
,
0002
0000
0000
0000
,
0000
0000
0000
0000
,
0103
0000
0010
0000
,
0002
0000
0000
0000
,
0000
0000
0000
0000
,
2003
0000
0000
0000
,
0000
0000
0000
0000
,
3010
0000
0100
0000
,
0001
0000
1000
0000
,
0100
0000
0000
0000
,
0020
0000
0000
0000
,
0031
0000
0000
0000
,
0000
0000
0000
0000
,
1000
0000
0010
0000
,
1000
0000
0010
0000
,
1000
0000
0000
0000
,
0001
0000
0000
0000
,
0010
0000
0001
0000
,
0010
0000
0001
0000
,
0010
0000
0000
0000
,
0001
0000
0000
0000
,
0100
0000
0000
0000
,
2000
0000
0000
0000
,
3100
0000
0000
0000
,
0002
0000
0000
0000
,
0013
0000
0000
0000
,
2000
0000
0000
0000
,
3010
0000
0000
0000
,
0000
0000
0000
0000
,
0002
0000
0000
0000
,
0000
0000
0000
0000
,
0000
0000
0000
0000
,
0000
0000
0000
0000
,
0000
0000
0000
0000
,
0103
0000
0000
0000
,
0020
0000
0000
0000
,
0000
0000
0000
0000
,
2030
0000
0000
0000
,
0000
0000
0000
0000
,
3100
0000
0010
0000
,
0001
0000
1000
0000
,
0010
0000
0000
0000
,
0000
0000
0110
0000
,
0000
0000
0000
0000
,
0101
0000
0000
0000
,
0200
0000
0000
0000
,
0000
0000
0000
0000
,
0000
0000
0000
0000
,
2300
0000
0000
0000
,
3200
0000
0000
0000
,
0000
0000
0000
0000
,
0302
0000
0000
0000
,
0203
0000
0000
0000
,
0320
0000
0000
0000
,
2030
0000
0000
0000
,
3002
0000
0000
0000
,
0023
0000
0000
0000
,
0230
0000
0000
0000
,
2300
0000
0000
0000
,
3100
0000
0010
0000
,
0001
0000
1000
0000
,
0020
0000
0000
0000
,
0000
0000
0000
0000
,
0032
0000
0000
0000
,
0023
0000
0000
0000
,
0000
0000
0000
0000
,
0000
0000
0000
0000
,
0000
0000
0000
0000
,
2030
0000
0000
0000
,
3200
0000
0000
0000
,
0000
0000
0000
0000
,
0000
0000
0000
0000
,
0000
0000
0000
0000
,
0000
0000
0000
0000
,
0000
0000
0000
0000
,
0000
0000
0000
0000
,
0000
0000
0000
0000
,
0320
0000
0000
0000
,
0000
0000
0000
0000
,
0000
0000
0000
0000
,
0000
0000
0000
0000
,
0030
0000
0000
0000
;

//---------------dance-single - 1962 @ 0.125 ScrollFactor----------------
#NOTEDATA:;
#CHARTNAME:hello;
#CHARTHASH:4183234433;
#STEPSTYPE:dance-single;
#BANNER:;
#DESCRIPTION:1962 @ 0.125 ScrollFactor;
#CHARTSTYLE:;
#DIFFICULTY:Challenge;
#METER:19;
#METERF:0.000000;
#LASTSECONDHINT:133.676880;
#RADARVALUES:0.824996,4.531044,0.111630,0.706987,0.334889,776.000000,761.000000,15.000000,95.000000,2.000000,0.000000,0.000000,0.000000,0.000000,0.824996,4.531044,0.111630,0.706987,0.334889,776.000000,761.000000,15.000000,95.000000,2.000000,0.000000,0.000000,0.000000,0.000000;
#CREDIT:YOSEFU Retweets;
#DISPLAYBPM:122.625000:245.250000;
#NOTES:
0000
0000
0000
0000
,
0000
0000
0000
0000
,
0000
0000
0000
0000
,
0000
0000
0000
0000
,
0000
0000
0000
0000
0000
0000
0000
0000
0000
0000
0000
0000
0000
0000
1000
0100
,
0010
0001
1000
0010
0110
0100
0001
1000
,
0100
0000
0010
0000
0001
0000
1000
0000
1001
0000
0000
0000
0001
0000
0100
0010
,
1000
0100
0010
1000
0010
0001
1000
0010
,
0100
0001
1000
0100
0110
0000
0010
0000
,
0001
1000
0010
0100
0101
0000
0001
0000
,
1000
0000
1100
0000
,
0100
0010
0001
0100
0110
0000
0010
0000
,
1000
0000
0000
0000
1001
0000
0000
0002
,
10M3
0100
0010
0001
,
0100
0010
1000
0100
,
0010
0100
1000
0001
,
0100
0010
1000
0100
,
0010
0001
1000
0010
,
0100
0001
0010
0100
,
0010
0001
1000
0010
,
0100
0001
1000
0100
,
0010
0001
0010
0100
1000
0010
0100
0001
,
1000
0100
0010
0001
0100
0010
1000
0001
,
0010
0100
1000
0010
0100
0001
0010
0100
,
1000
0001
0100
0010
1000
0100
0010
0001
,
1000
0010
0100
0001
1000
0100
0010
0001
0010
0100
1000
0001
0100
0010
1000
0001
,
1000
0100
0010
0001
1000
0010
0100
0001
1000
0001
0010
0100
1000
0001
0100
0010
,
1000
0000
0000
0000
,
0001
0010
0100
1000
0010
0100
0001
1000
0100
0010
0001
1000
0010
0000
0000
0000
,
2000
0000
0000
0000
,
0000
0000
0000
0000
,
0000
0000
0000
0000
,
0000
0000
0000
0000
,
0000
0000
0000
0000
,
0000
0000
0000
0000
,
0000
0000
0000
0000
,
0000
0000
0000
0000
,
0000
0000
0000
0000
,
0000
0000
0000
0000
,
0000
0000
0000
0000
,
0000
0000
0000
0000
,
3100
0000
0000
0000
,
0020
0000
0000
0000
,
0031
0000
0000
0000
,
0000
0000
0000
0000
,
0200
0000
0000
0000
,
0000
0000
0000
0000
,
0000
0000
0000
0000
,
0000
0000
0000
0000
,
0000
0000
0000
0000
,
0310
0000
0000
0000
,
2000
0000
0000
0000
,
0000
0000
0000
0000
,
3200
0000
0000
0000
,
0000
0000
0000
0000
,
0310
0000
0001
0000
,
0010
0000
0100
0000
,
1000
0000
0001
0000
,
0200
0000
0000
0000
,
0300
0000
0000
0000
,
0000
0000
0000
0000
,
0020
0000
0000
0000
,
0000
0000
0000
0000
,
0000
0000
0000
0000
,
0000
0000
0000
0000
,
0000
0000
0000
0000
,
0000
0000
0000
0000
,
0000
0000
0000
0000
,
0000
0000
0000
0000
,
0000
0000
0000
0000
,
0000
0000
0000
0000
,
0000
0000
0000
0000
,
0000
0000
0000
0000
,
1030
0000
0000
0000
,
0002
0000
0000
0000
,
0023
0000
0000
0000
,
0000
0000
0000
0000
,
0230
0000
0000
0000
,
0000
0000
0000
0000
,
0000
0000
0000
0000
,
0000
0000
0000
0000
,
0000
0000
0000
0000
,
1300
0000
0000
0000
,
0002
0000
0000
0000
,
0000
0000
0000
0000
,
0203
0000
0000
0000
,
0000
0000
0000
0000
,
0310
0000
1000
0000
,
0001
0000
0010
0000
,
0100
0000
1000
0000
,
0002
0000
0000
0000
,
1003
0000
0000
0000
,
0000
0000
0000
0000
,
0001
0000
0010
0000
,
0100
0000
1000
0000
,
0010
0000
0100
0000
,
0001
0000
1000
0000
,
0100
0000
0010
0000
,
0001
0000
0100
0000
,
0010
0000
1000
0000
,
0001
0000
0010
0000
,
0100
0000
0000
0000
,
2000
0000
0000
0000
,
3100
0000
0000
0000
,
0002
0000
0000
0000
,
0103
0000
0000
0000
,
2000
0000
0000
0000
,
3001
0000
0000
0000
,
0000
0000
0000
0000
,
0200
0000
0000
0000
,
0000
0000
0000
0000
,
0000
0000
0000
0000
,
0000
0000
0000
0000
,
0000
0000
0000
0000
,
0301
0000
0000
0000
,
2000
0000
0000
0000
,
0000
0000
0000
0000
,
3200
0000
0000
0000
,
0000
0000
0000
0000
,
0310
0000
0001
0000
,
0010
0000
0100
0000
,
1000
0000
0001
0000
,
0200
0000
0000
0000
,
0300
0000
0000
0000
,
0000
0000
0000
0000
,
0020
0000
0000
0000
,
0000
0000
0000
0000
,
0000
0000
0000
0000
,
0000
0000
0000
0000
,
0000
0000
0000
0000
,
0000
0000
0000
0000
,
0000
0000
0000
0000
,
0000
0000
0000
0000
,
0000
0000
0000
0000
,
0000
0000
0000
0000
,
0000
0000
0000
0000
,
0000
0000
0000
0000
,
1030
0000
0000
0000
,
0002
0000
0000
0000
,
0013
0000
0100
0000
,
1000
0000
0001
0000
,
0200
0000
0000
0000
,
0000
0000
0000
0000
,
0000
0000
0000
0000
,
0000
0000
0000
0000
,
0000
0000
0000
0000
,
0310
0000
0000
0000
,
2000
0000
0000
0000
,
0000
0000
0000
0000
,
3002
0000
0000
0000
,
0000
0000
0000
0000
,
0000
0000
0000
0000
,
0000
0000
0000
0000
,
0000
0000
0000
0000
,
0000
0000
0000
0000
,
0000
0000
0000
0000
,
0000
0000
0000
0000
,
0M23
0000
0000
0000
0000
0000
0000
0000
0000
0000
0000
0000
0130
0000
1000
0020
,
0000
0000
0000
0000
0000
0000
0000
0000
0000
0000
0000
0000
0130
0000
0001
0010
,
0100
0000
0001
0000
0100
0000
2000
0000
0000
0000
0000
0000
3001
0000
0100
0020
,
0000
0000
1000
0000
1000
0000
0100
0000
1030
0000
0000
0000
0001
0000
1000
0100
,
0010
0001
1000
0010
0100
0001
1000
0000
,
0100
0010
0001
0100
0010
1000
0001
0000
,
0010
0100
1000
0010
0100
0001
1000
0000
,
0001
1000
0010
0100
0001
1000
0100
0000
,
1000
0010
0100
0001
0010
0100
1000
0000
,
0001
0100
0010
1000
0100
0010
0001
0000
,
1000
0010
0100
0001
0010
0100
1000
0000
,
0001
0100
0010
0100
0001
1000
0100
0000
,
0010
0001
1000
0010
0100
0001
1000
0100
,
0010
0100
1000
0010
0100
0001
0010
0001
,
0100
0010
1000
0100
1000
0001
0100
0010
,
1000
0100
0010
0001
1000
0010
0100
0001
,
1000
0010
0100
0001
1000
0100
0010
0001
1000
0001
0100
0010
1000
0001
0010
0100
,
1000
0001
0100
0001
1000
0100
0010
0001
1000
0010
0100
0001
1000
0100
0010
0001
,
1000
0000
0000
0000
,
0001
0100
0010
1000
0001
0010
0100
0010
0001
1000
0010
0100
0010
1000
0001
0010
,
0200
0000
0000
0000
0310
2000
0000
3010
,
0002
0000
0000
0000
0103
0000
0020
0000
0000
0000
1030
0001
0010
0100
1000
0001
,
0200
0000
0000
0000
0310
0000
0002
0000
0013
0000
0000
0000
0100
0001
1000
0100
,
0010
0001
0100
0010
1000
0100
0010
0000
,
0002
0000
0000
0000
0103
2000
0000
3100
,
0020
0000
0000
0000
1030
0000
0002
0000
1003
0000
0100
0010
0001
1000
0010
0100
,
0001
0000
0200
0000
1300
0000
0200
0000
0301
0000
0000
0000
1000
0100
0010
0100
,
1000
0000
0001
0100
0000
0001
1000
0000
,
0001
0100
0010
1000
0100
0010
0100
1000
,
0010
0000
0100
0000
0001
0000
1000
0000
0100
0000
0010
0001
0010
0100
1000
0001
,
0100
0000
0010
0000
1000
0000
0100
0000
0010
0000
0001
0000
0100
0010
0100
0001
,
1000
0001
0010
0001
1000
0010
0200
0000
,
0302
0000
0000
0000
1003
0100
0010
0100
,
1000
0000
0001
0000
0100
0000
0010
0000
0100
0000
0001
1000
0100
0010
0001
1000
,
0010
0000
0100
0000
0001
0000
1000
0000
0100
0000
0010
0000
0100
1000
0001
0100
,
0010
1000
0100
0010
0001
0000
1000
0000
,
0001
1000
1010
0010
1000
0100
0010
0000
,
0001
0000
1000
0000
1010
0000
0010
0000
1000
0000
0100
0000
0010
0001
0010
0100
,
1000
0000
0001
0000
0011
0000
0010
0000
0001
0000
0100
0000
0010
1000
0001
0010
,
0100
1000
0100
0001
0100
1000
0010
0000
,
0100
0010
0001
0010
1000
0001
0010
0000
,
0100
0000
0010
0000
1000
0000
0010
0000
0001
0000
1000
0000
0010
0100
0001
1000
,
0100
0000
0010
0000
1000
0000
0010
0000
0001
0000
1000
0000
0010
0100
0001
1000
,
0100
0010
0001
0100
1000
0100
0010
0000
,
2000
0000
0000
0000
,
0000
0000
0000
0000
,
0100
0000
0000
0000
,
0000
0000
0000
0000
,
0001
0000
0000
0000
,
0000
0000
0000
0000
,
0001
0000
0000
0000
,
0000
0000
0000
0000
,
3010
0000
0000
0000
,
0000
0000
0000
0000
,
1000
0000
0000
0000
,
1010
0000
0000
0000
,
0010
0000
0000
0000
,
0000
0000
0000
0000
,
0200
0000
0000
0000
,
0000
0000
0000
0000
,
0302
0000
0000
0000
,
0000
0000
0000
0000
,
0010
0000
0000
0000
,
0000
0000
0000
0000
,
1000
0000
0000
0000
,
0000
0000
0000
0000
,
1000
0000
0000
0000
,
0000
0000
0000
0000
,
1003
0000
0000
0000
,
0100
0000
0000
0000
,
0010
0000
0000
0000
,
0011
0000
0000
0000
,
0000
0000
0000
0000
,
0001
0000
0000
0000
,
1001
0000
0000
0000
,
0000
0000
0000
0000
,
1000
0100
0001
1000
0001
0100
1000
0010
,
0001
1000
0001
0010
1000
0100
0010
0001
,
1000
0000
0001
0000
0100
0000
0010
0000
1000
0001
0010
0100
1000
0010
0100
0001
,
1000
0100
0010
0001
0100
0010
1000
0001
0010
0100
1000
0001
0100
0000
0000
0000
,
0020
0000
0000
0000
,
0000
0000
0000
0000
,
1030
0000
0001
0000
,
0010
0000
0100
0000
,
1000
0000
0010
0000
,
0100
0000
0001
0000
,
2000
0000
0000
0000
,
0000
0000
0000
0000
,
3001
0000
0000
0000
,
0020
0000
0000
0000
,
0230
0000
0000
0000
,
2300
0000
0000
0000
,
3010
0000
0000
0000
,
0000
0000
0000
0000
,
0002
0000
0000
0000
,
0000
0000
0000
0000
,
0023
0000
0000
0000
,
0000
0000
0000
0000
,
0130
0000
0001
0000
,
2000
0000
0000
0000
,
0000
0000
0000
0000
,
3100
0000
0000
0000
,
0020
0000
0000
0000
,
0000
0000
0000
0000
,
0032
0000
0000
0000
,
0000
0000
0000
0000
,
1003
0000
0010
0000
,
0100
0000
0010
0000
,
1000
0000
0000
0000
,
0002
0000
0000
0000
,
0003
0000
0000
0000
,
0000
0000
0000
0000
,
0020
0000
0000
0000
,
0130
0000
1000
0000
,
0002
0000
0000
0000
,
0000
0000
0000
0000
,
0103
0000
0000
0000
,
2000
0000
0000
0000
,
3200
0000
0000
0000
,
0302
0000
0000
0000
,
2003
0000
0000
0000
,
3200
0000
0000
0000
,
0310
0000
0001
0000
,
1000
0000
0010
0000
,
0100
0000
0000
0000
,
2000
0000
0000
0000
,
3100
0000
0000
0000
,
0002
0000
0000
0000
,
2003
0000
0000
0000
,
0000
0000
0000
0000
,
3100
0000
0000
0000
,
0002
0000
0000
0000
,
0000
0000
0000
0000
,
0103
0000
0010
0000
,
0002
0000
0000
0000
,
0000
0000
0000
0000
,
2003
0000
0000
0000
,
0000
0000
0000
0000
,
3010
0000
0100
0000
,
0001
0000
1000
0000
,
0100
0000
0000
0000
,
0020
0000
0000
0000
,
0031
0000
0000
0000
,
0000
0000
0000
0000
,
1000
0000
0010
0000
,
0100
0000
0001
0000
,
0010
0000
0100
0000
,
1000
0000
0001
0000
,
0100
0000
0010
0000
,
1000
0000
0100
0000
,
0010
0000
0001
0000
,
1000
0000
0010
0000
,
0100
0000
0000
0000
,
2000
0000
0000
0000
,
3100
0000
0000
0000
,
0002
0000
0000
0000
,
0013
0000
0000
0000
,
2000
0000
0000
0000
,
3010
0000
0000
0000
,
0000
0000
0000
0000
,
0002
0000
0000
0000
,
0000
0000
0000
0000
,
0000
0000
0000
0000
,
0000
0000
0000
0000
,
0000
0000
0000
0000
,
0103
0000
0000
0000
,
0020
0000
0000
0000
,
0000
0000
0000
0000
,
2030
0000
0000
0000
,
0000
0000
0000
0000
,
3100
0000
0010
0000
,
0001
0000
1000
0000
,
0010
0000
0000
0000
,
0000
0000
0110
0000
,
0000
0000
0000
0000
,
0101
0000
0000
0000
,
0200
0000
0000
0000
,
0000
0000
0000
0000
,
0000
0000
0000
0000
,
2300
0000
0000
0000
,
3200
0000
0000
0000
,
0000
0000
0000
0000
,
0302
0000
0000
0000
,
0203
0000
0000
0000
,
0320
0000
0000
0000
,
2030
0000
0000
0000
,
3002
0000
0000
0000
,
0023
0000
0000
0000
,
0230
0000
0000
0000
,
2300
0000
0000
0000
,
3100
0000
0010
0000
,
0001
0000
1000
0000
,
0020
0000
0000
0000
,
0000
0000
0000
0000
,
0032
0000
0000
0000
,
0023
0000
0000
0000
,
0000
0000
0000
0000
,
0000
0000
0000
0000
,
0000
0000
0000
0000
,
2030
0000
0000
0000
,
3200
0000
0000
0000
,
0000
0000
0000
0000
,
0000
0000
0000
0000
,
0000
0000
0000
0000
,
0000
0000
0000
0000
,
0000
0000
0000
0000
,
0000
0000
0000
0000
,
0000
0000
0000
0000
,
0320
0000
0000
0000
,
0000
0000
0000
0000
,
0000
0000
0000
0000
,
0000
0000
0000
0000
,
0030
0000
0000
0000
;

//---------------dance-single - No Scroll Compensation----------------
#NOTEDATA:;
#CHARTNAME:because why not;
#CHARTHASH:3026643964;
#STEPSTYPE:dance-single;
#BANNER:;
#DESCRIPTION:No Scroll Compensation;
#CHARTSTYLE:;
#DIFFICULTY:Edit;
#METER:20;
#METERF:0.000000;
#LASTSECONDHINT:133.676880;
#RADARVALUES:0.824996,4.531044,0.111630,0.706987,0.334889,776.000000,761.000000,15.000000,95.000000,2.000000,0.000000,0.000000,0.000000,0.000000,0.824996,4.531044,0.111630,0.706987,0.334889,776.000000,761.000000,15.000000,95.000000,2.000000,0.000000,0.000000,0.000000,0.000000;
#CREDIT:YOSEFU Quote Retweets;
#OFFSET:1.369000;
#BPMS:0.000000=122.625000
,52.000000=245.250000
,116.000000=1962.000000
,628.000000=122.625000
,644.000000=245.250000
,804.000000=1962.000000
,932.000000=245.250000
,948.000000=1962.000000
,1460.000000=122.625000
;
#DISPLAYBPM:122.625000:1962.000000;
#STOPS:;
#DELAYS:;
#WARPS:;
#TIMESIGNATURES:0.000000=4=4
;
#TICKCOUNTS:0.000000=4
;
#COMBOS:0.000000=1
;
#SPEEDS:0.000000=1.000000=0.000000=0
;
#SCROLLS:0.000000=1.000000
;
#FAKES:;
#LABELS:0.000000=Song Start
;
#NOTES:
// measure 0
0000
0000
0000
0000
,  // measure 1
0000
0000
0000
0000
,  // measure 2
0000
0000
0000
0000
,  // measure 3
0000
0000
0000
0000
,  // measure 4
0000
0000
0000
0000
0000
0000
0000
0000
0000
0000
0000
0000
0000
0000
1000
0100
,  // measure 5
0010
0001
1000
0010
0110
0100
0001
1000
,  // measure 6
0100
0000
0010
0000
0001
0000
1000
0000
1001
0000
0000
0000
0001
0000
0100
0010
,  // measure 7
1000
0100
0010
1000
0010
0001
1000
0010
,  // measure 8
0100
0001
1000
0100
0110
0000
0010
0000
,  // measure 9
0001
1000
0010
0100
0101
0000
0001
0000
,  // measure 10
1000
0000
1100
0000
,  // measure 11
0100
0010
0001
0100
0110
0000
0010
0000
,  // measure 12
1000
0000
0000
0000
1001
0000
0000
0002
,  // measure 13
10M3
0100
0010
0001
,  // measure 14
0100
0010
1000
0100
,  // measure 15
0010
0100
1000
0001
,  // measure 16
0100
0010
1000
0100
,  // measure 17
0010
0001
1000
0010
,  // measure 18
0100
0001
0010
0100
,  // measure 19
0010
0001
1000
0010
,  // measure 20
0100
0001
1000
0100
,  // measure 21
0010
0001
0010
0100
1000
0010
0100
0001
,  // measure 22
1000
0100
0010
0001
0100
0010
1000
0001
,  // measure 23
0010
0100
1000
0010
0100
0001
0010
0100
,  // measure 24
1000
0001
0100
0010
1000
0100
0010
0001
,  // measure 25
1000
0010
0100
0001
1000
0100
0010
0001
0010
0100
1000
0001
0100
0010
1000
0001
,  // measure 26
1000
0100
0010
0001
1000
0010
0100
0001
1000
0001
0010
0100
1000
0001
0100
0010
,  // measure 27
1000
0000
0000
0000
,  // measure 28
0001
0010
0100
1000
0010
0100
0001
1000
0100
0010
0001
1000
0010
0000
0000
0000
,  // measure 29
2000
0000
0000
0000
,  // measure 30
0000
0000
0000
0000
,  // measure 31
0000
0000
0000
0000
,  // measure 32
0000
0000
0000
0000
,  // measure 33
0000
0000
0000
0000
,  // measure 34
0000
0000
0000
0000
,  // measure 35
0000
0000
0000
0000
,  // measure 36
0000
0000
0000
0000
,  // measure 37
0000
0000
0000
0000
,  // measure 38
0000
0000
0000
0000
,  // measure 39
0000
0000
0000
0000
,  // measure 40
0000
0000
0000
0000
,  // measure 41
3100
0000
0000
0000
,  // measure 42
0020
0000
0000
0000
,  // measure 43
0031
0000
0000
0000
,  // measure 44
0000
0000
0000
0000
,  // measure 45
0200
0000
0000
0000
,  // measure 46
0000
0000
0000
0000
,  // measure 47
0000
0000
0000
0000
,  // measure 48
0000
0000
0000
0000
,  // measure 49
0000
0000
0000
0000
,  // measure 50
0310
0000
0000
0000
,  // measure 51
2000
0000
0000
0000
,  // measure 52
0000
0000
0000
0000
,  // measure 53
3200
0000
0000
0000
,  // measure 54
0000
0000
0000
0000
,  // measure 55
0310
0000
0001
0000
,  // measure 56
0010
0000
0100
0000
,  // measure 57
1000
0000
0001
0000
,  // measure 58
0200
0000
0000
0000
,  // measure 59
0300
0000
0000
0000
,  // measure 60
0000
0000
0000
0000
,  // measure 61
0020
0000
0000
0000
,  // measure 62
0000
0000
0000
0000
,  // measure 63
0000
0000
0000
0000
,  // measure 64
0000
0000
0000
0000
,  // measure 65
0000
0000
0000
0000
,  // measure 66
0000
0000
0000
0000
,  // measure 67
0000
0000
0000
0000
,  // measure 68
0000
0000
0000
0000
,  // measure 69
0000
0000
0000
0000
,  // measure 70
0000
0000
0000
0000
,  // measure 71
0000
0000
0000
0000
,  // measure 72
0000
0000
0000
0000
,  // measure 73
1030
0000
0000
0000
,  // measure 74
0002
0000
0000
0000
,  // measure 75
0023
0000
0000
0000
,  // measure 76
0000
0000
0000
0000
,  // measure 77
0230
0000
0000
0000
,  // measure 78
0000
0000
0000
0000
,  // measure 79
0000
0000
0000
0000
,  // measure 80
0000
0000
0000
0000
,  // measure 81
0000
0000
0000
0000
,  // measure 82
1300
0000
0000
0000
,  // measure 83
0002
0000
0000
0000
,  // measure 84
0000
0000
0000
0000
,  // measure 85
0203
0000
0000
0000
,  // measure 86
0000
0000
0000
0000
,  // measure 87
0310
0000
1000
0000
,  // measure 88
0001
0000
0010
0000
,  // measure 89
0100
0000
1000
0000
,  // measure 90
0002
0000
0000
0000
,  // measure 91
1003
0000
0000
0000
,  // measure 92
0000
0000
0000
0000
,  // measure 93
0001
0000
0010
0000
,  // measure 94
0100
0000
1000
0000
,  // measure 95
0010
0000
0100
0000
,  // measure 96
0001
0000
1000
0000
,  // measure 97
0100
0000
0010
0000
,  // measure 98
0001
0000
0100
0000
,  // measure 99
0010
0000
1000
0000
,  // measure 100
0001
0000
0010
0000
,  // measure 101
0100
0000
0000
0000
,  // measure 102
2000
0000
0000
0000
,  // measure 103
3100
0000
0000
0000
,  // measure 104
0002
0000
0000
0000
,  // measure 105
0103
0000
0000
0000
,  // measure 106
2000
0000
0000
0000
,  // measure 107
3001
0000
0000
0000
,  // measure 108
0000
0000
0000
0000
,  // measure 109
0200
0000
0000
0000
,  // measure 110
0000
0000
0000
0000
,  // measure 111
0000
0000
0000
0000
,  // measure 112
0000
0000
0000
0000
,  // measure 113
0000
0000
0000
0000
,  // measure 114
0301
0000
0000
0000
,  // measure 115
2000
0000
0000
0000
,  // measure 116
0000
0000
0000
0000
,  // measure 117
3200
0000
0000
0000
,  // measure 118
0000
0000
0000
0000
,  // measure 119
0310
0000
0001
0000
,  // measure 120
0010
0000
0100
0000
,  // measure 121
1000
0000
0001
0000
,  // measure 122
0200
0000
0000
0000
,  // measure 123
0300
0000
0000
0000
,  // measure 124
0000
0000
0000
0000
,  // measure 125
0020
0000
0000
0000
,  // measure 126
0000
0000
0000
0000
,  // measure 127
0000
0000
0000
0000
,  // measure 128
0000
0000
0000
0000
,  // measure 129
0000
0000
0000
0000
,  // measure 130
0000
0000
0000
0000
,  // measure 131
0000
0000
0000
0000
,  // measure 132
0000
0000
0000
0000
,  // measure 133
0000
0000
0000
0000
,  // measure 134
0000
0000
0000
0000
,  // measure 135
0000
0000
0000
0000
,  // measure 136
0000
0000
0000
0000
,  // measure 137
1030
0000
0000
0000
,  // measure 138
0002
0000
0000
0000
,  // measure 139
0013
0000
0100
0000
,  // measure 140
1000
0000
0001
0000
,  // measure 141
0200
0000
0000
0000
,  // measure 142
0000
0000
0000
0000
,  // measure 143
0000
0000
0000
0000
,  // measure 144
0000
0000
0000
0000
,  // measure 145
0000
0000
0000
0000
,  // measure 146
0310
0000
0000
0000
,  // measure 147
2000
0000
0000
0000
,  // measure 148
0000
0000
0000
0000
,  // measure 149
3002
0000
0000
0000
,  // measure 150
0000
0000
0000
0000
,  // measure 151
0000
0000
0000
0000
,  // measure 152
0000
0000
0000
0000
,  // measure 153
0000
0000
0000
0000
,  // measure 154
0000
0000
0000
0000
,  // measure 155
0000
0000
0000
0000
,  // measure 156
0000
0000
0000
0000
,  // measure 157
0M23
0000
0000
0000
0000
0000
0000
0000
0000
0000
0000
0000
0130
0000
1000
0020
,  // measure 158
0000
0000
0000
0000
0000
0000
0000
0000
0000
0000
0000
0000
0130
0000
0001
0010
,  // measure 159
0100
0000
0001
0000
0100
0000
2000
0000
0000
0000
0000
0000
3001
0000
0100
0020
,  // measure 160
0000
0000
1000
0000
1000
0000
0100
0000
1030
0000
0000
0000
0001
0000
1000
0100
,  // measure 161
0010
0001
1000
0010
0100
0001
1000
0000
,  // measure 162
0100
0010
0001
0100
0010
1000
0001
0000
,  // measure 163
0010
0100
1000
0010
0100
0001
1000
0000
,  // measure 164
0001
1000
0010
0100
0001
1000
0100
0000
,  // measure 165
1000
0010
0100
0001
0010
0100
1000
0000
,  // measure 166
0001
0100
0010
1000
0100
0010
0001
0000
,  // measure 167
1000
0010
0100
0001
0010
0100
1000
0000
,  // measure 168
0001
0100
0010
0100
0001
1000
0100
0000
,  // measure 169
0010
0001
1000
0010
0100
0001
1000
0100
,  // measure 170
0010
0100
1000
0010
0100
0001
0010
0001
,  // measure 171
0100
0010
1000
0100
1000
0001
0100
0010
,  // measure 172
1000
0100
0010
0001
1000
0010
0100
0001
,  // measure 173
1000
0010
0100
0001
1000
0100
0010
0001
1000
0001
0100
0010
1000
0001
0010
0100
,  // measure 174
1000
0001
0100
0001
1000
0100
0010
0001
1000
0010
0100
0001
1000
0100
0010
0001
,  // measure 175
1000
0000
0000
0000
,  // measure 176
0001
0100
0010
1000
0001
0010
0100
0010
0001
1000
0010
0100
0010
1000
0001
0010
,  // measure 177
0200
0000
0000
0000
0310
2000
0000
3010
,  // measure 178
0002
0000
0000
0000
0103
0000
0020
0000
0000
0000
1030
0001
0010
0100
1000
0001
,  // measure 179
0200
0000
0000
0000
0310
0000
0002
0000
0013
0000
0000
0000
0100
0001
1000
0100
,  // measure 180
0010
0001
0100
0010
1000
0100
0010
0000
,  // measure 181
0002
0000
0000
0000
0103
2000
0000
3100
,  // measure 182
0020
0000
0000
0000
1030
0000
0002
0000
1003
0000
0100
0010
0001
1000
0010
0100
,  // measure 183
0001
0000
0200
0000
1300
0000
0200
0000
0301
0000
0000
0000
1000
0100
0010
0100
,  // measure 184
1000
0000
0001
0100
0000
0001
1000
0000
,  // measure 185
0001
0100
0010
1000
0100
0010
0100
1000
,  // measure 186
0010
0000
0100
0000
0001
0000
1000
0000
0100
0000
0010
0001
0010
0100
1000
0001
,  // measure 187
0100
0000
0010
0000
1000
0000
0100
0000
0010
0000
0001
0000
0100
0010
0100
0001
,  // measure 188
1000
0001
0010
0001
1000
0010
0200
0000
,  // measure 189
0302
0000
0000
0000
1003
0100
0010
0100
,  // measure 190
1000
0000
0001
0000
0100
0000
0010
0000
0100
0000
0001
1000
0100
0010
0001
1000
,  // measure 191
0010
0000
0100
0000
0001
0000
1000
0000
0100
0000
0010
0000
0100
1000
0001
0100
,  // measure 192
0010
1000
0100
0010
0001
0000
1000
0000
,  // measure 193
0001
1000
1010
0010
1000
0100
0010
0000
,  // measure 194
0001
0000
1000
0000
1010
0000
0010
0000
1000
0000
0100
0000
0010
0001
0010
0100
,  // measure 195
1000
0000
0001
0000
0011
0000
0010
0000
0001
0000
0100
0000
0010
1000
0001
0010
,  // measure 196
0100
1000
0100
0001
0100
1000
0010
0000
,  // measure 197
0100
0010
0001
0010
1000
0001
0010
0000
,  // measure 198
0100
0000
0010
0000
1000
0000
0010
0000
0001
0000
1000
0000
0010
0100
0001
1000
,  // measure 199
0100
0000
0010
0000
1000
0000
0010
0000
0001
0000
1000
0000
0010
0100
0001
1000
,  // measure 200
0100
0010
0001
0100
1000
0100
0010
0000
,  // measure 201
2000
0000
0000
0000
,  // measure 202
0000
0000
0000
0000
,  // measure 203
0100
0000
0000
0000
,  // measure 204
0000
0000
0000
0000
,  // measure 205
0001
0000
0000
0000
,  // measure 206
0000
0000
0000
0000
,  // measure 207
0001
0000
0000
0000
,  // measure 208
0000
0000
0000
0000
,  // measure 209
3010
0000
0000
0000
,  // measure 210
0000
0000
0000
0000
,  // measure 211
1000
0000
0000
0000
,  // measure 212
1010
0000
0000
0000
,  // measure 213
0010
0000
0000
0000
,  // measure 214
0000
0000
0000
0000
,  // measure 215
0200
0000
0000
0000
,  // measure 216
0000
0000
0000
0000
,  // measure 217
0302
0000
0000
0000
,  // measure 218
0000
0000
0000
0000
,  // measure 219
0010
0000
0000
0000
,  // measure 220
0000
0000
0000
0000
,  // measure 221
1000
0000
0000
0000
,  // measure 222
0000
0000
0000
0000
,  // measure 223
1000
0000
0000
0000
,  // measure 224
0000
0000
0000
0000
,  // measure 225
1003
0000
0000
0000
,  // measure 226
0100
0000
0000
0000
,  // measure 227
0010
0000
0000
0000
,  // measure 228
0011
0000
0000
0000
,  // measure 229
0000
0000
0000
0000
,  // measure 230
0001
0000
0000
0000
,  // measure 231
1001
0000
0000
0000
,  // measure 232
0000
0000
0000
0000
,  // measure 233
1000
0100
0001
1000
0001
0100
1000
0010
,  // measure 234
0001
1000
0001
0010
1000
0100
0010
0001
,  // measure 235
1000
0000
0001
0000
0100
0000
0010
0000
1000
0001
0010
0100
1000
0010
0100
0001
,  // measure 236
1000
0100
0010
0001
0100
0010
1000
0001
0010
0100
1000
0001
0100
0000
0000
0000
,  // measure 237
0020
0000
0000
0000
,  // measure 238
0000
0000
0000
0000
,  // measure 239
1030
0000
0001
0000
,  // measure 240
0010
0000
0100
0000
,  // measure 241
1000
0000
0010
0000
,  // measure 242
0100
0000
0001
0000
,  // measure 243
2000
0000
0000
0000
,  // measure 244
0000
0000
0000
0000
,  // measure 245
3001
0000
0000
0000
,  // measure 246
0020
0000
0000
0000
,  // measure 247
0230
0000
0000
0000
,  // measure 248
2300
0000
0000
0000
,  // measure 249
3010
0000
0000
0000
,  // measure 250
0000
0000
0000
0000
,  // measure 251
0002
0000
0000
0000
,  // measure 252
0000
0000
0000
0000
,  // measure 253
0023
0000
0000
0000
,  // measure 254
0000
0000
0000
0000
,  // measure 255
0130
0000
0001
0000
,  // measure 256
2000
0000
0000
0000
,  // measure 257
0000
0000
0000
0000
,  // measure 258
3100
0000
0000
0000
,  // measure 259
0020
0000
0000
0000
,  // measure 260
0000
0000
0000
0000
,  // measure 261
0032
0000
0000
0000
,  // measure 262
0000
0000
0000
0000
,  // measure 263
1003
0000
0010
0000
,  // measure 264
0100
0000
0010
0000
,  // measure 265
1000
0000
0000
0000
,  // measure 266
0002
0000
0000
0000
,  // measure 267
0003
0000
0000
0000
,  // measure 268
0000
0000
0000
0000
,  // measure 269
0020
0000
0000
0000
,  // measure 270
0130
0000
1000
0000
,  // measure 271
0002
0000
0000
0000
,  // measure 272
0000
0000
0000
0000
,  // measure 273
0103
0000
0000
0000
,  // measure 274
2000
0000
0000
0000
,  // measure 275
3200
0000
0000
0000
,  // measure 276
0302
0000
0000
0000
,  // measure 277
2003
0000
0000
0000
,  // measure 278
3200
0000
0000
0000
,  // measure 279
0310
0000
0001
0000
,  // measure 280
1000
0000
0010
0000
,  // measure 281
0100
0000
0000
0000
,  // measure 282
2000
0000
0000
0000
,  // measure 283
3100
0000
0000
0000
,  // measure 284
0002
0000
0000
0000
,  // measure 285
2003
0000
0000
0000
,  // measure 286
0000
0000
0000
0000
,  // measure 287
3100
0000
0000
0000
,  // measure 288
0002
0000
0000
0000
,  // measure 289
0000
0000
0000
0000
,  // measure 290
0103
0000
0010
0000
,  // measure 291
0002
0000
0000
0000
,  // measure 292
0000
0000
0000
0000
,  // measure 293
2003
0000
0000
0000
,  // measure 294
0000
0000
0000
0000
,  // measure 295
3010
0000
0100
0000
,  // measure 296
0001
0000
1000
0000
,  // measure 297
0100
0000
0000
0000
,  // measure 298
0020
0000
0000
0000
,  // measure 299
0031
0000
0000
0000
,  // measure 300
0000
0000
0000
0000
,  // measure 301
1000
0000
0010
0000
,  // measure 302
0100
0000
0001
0000
,  // measure 303
0010
0000
0100
0000
,  // measure 304
1000
0000
0001
0000
,  // measure 305
0100
0000
0010
0000
,  // measure 306
1000
0000
0100
0000
,  // measure 307
0010
0000
0001
0000
,  // measure 308
1000
0000
0010
0000
,  // measure 309
0100
0000
0000
0000
,  // measure 310
2000
0000
0000
0000
,  // measure 311
3100
0000
0000
0000
,  // measure 312
0002
0000
0000
0000
,  // measure 313
0013
0000
0000
0000
,  // measure 314
2000
0000
0000
0000
,  // measure 315
3010
0000
0000
0000
,  // measure 316
0000
0000
0000
0000
,  // measure 317
0002
0000
0000
0000
,  // measure 318
0000
0000
0000
0000
,  // measure 319
0000
0000
0000
0000
,  // measure 320
0000
0000
0000
0000
,  // measure 321
0000
0000
0000
0000
,  // measure 322
0103
0000
0000
0000
,  // measure 323
0020
0000
0000
0000
,  // measure 324
0000
0000
0000
0000
,  // measure 325
2030
0000
0000
0000
,  // measure 326
0000
0000
0000
0000
,  // measure 327
3100
0000
0010
0000
,  // measure 328
0001
0000
1000
0000
,  // measure 329
0010
0000
0000
0000
,  // measure 330
0000
0000
0110
0000
,  // measure 331
0000
0000
0000
0000
,  // measure 332
0101
0000
0000
0000
,  // measure 333
0200
0000
0000
0000
,  // measure 334
0000
0000
0000
0000
,  // measure 335
0000
0000
0000
0000
,  // measure 336
2300
0000
0000
0000
,  // measure 337
3200
0000
0000
0000
,  // measure 338
0000
0000
0000
0000
,  // measure 339
0302
0000
0000
0000
,  // measure 340
0203
0000
0000
0000
,  // measure 341
0320
0000
0000
0000
,  // measure 342
2030
0000
0000
0000
,  // measure 343
3002
0000
0000
0000
,  // measure 344
0023
0000
0000
0000
,  // measure 345
0230
0000
0000
0000
,  // measure 346
2300
0000
0000
0000
,  // measure 347
3100
0000
0010
0000
,  // measure 348
0001
0000
1000
0000
,  // measure 349
0020
0000
0000
0000
,  // measure 350
0000
0000
0000
0000
,  // measure 351
0032
0000
0000
0000
,  // measure 352
0023
0000
0000
0000
,  // measure 353
0000
0000
0000
0000
,  // measure 354
0000
0000
0000
0000
,  // measure 355
0000
0000
0000
0000
,  // measure 356
2030
0000
0000
0000
,  // measure 357
3200
0000
0000
0000
,  // measure 358
0000
0000
0000
0000
,  // measure 359
0000
0000
0000
0000
,  // measure 360
0000
0000
0000
0000
,  // measure 361
0000
0000
0000
0000
,  // measure 362
0000
0000
0000
0000
,  // measure 363
0000
0000
0000
0000
,  // measure 364
0000
0000
0000
0000
,  // measure 365
0320
0000
0000
0000
,  // measure 366
0000
0000
0000
0000
,  // measure 367
0000
0000
0000
0000
,  // measure 368
0000
0000
0000
0000
,  // measure 369
0030
0000
0000
0000
;
