#VERSION:0.83;
#TITLE:BEST DROP OF ALL TIME;
#SUBTITLE:;
#ARTIST:Demonicity;
#TITLETRANSLIT:;
#SUBTITLETRANSLIT:;
#ARTISTTRANSLIT:;
#GENRE:Dubstep?;
#ORIGIN:Single Release (2022);
#TAGS:;
#CREDIT:;
#BANNER:BEST DROP OF ALL TIME.png;
#BACKGROUND:BEST DROP OF ALL TIME-bg.png;
#PREVIEWVID:;
#JACKET:BEST DROP OF ALL TIME-jacket.png;
#CDIMAGE:;
#DISCIMAGE:;
#LYRICSPATH:;
#CDTITLE:../_YSD cdtitles/ysd cc3 cdtitle.png;
#MUSIC:BEST DROP OF ALL TIME.ogg;
#OFFSET:-0.650000;
#SAMPLESTART:0.650000;
#SAMPLELENGTH:9.601000;
#SELECTABLE:YES;
#BPMS:0.000000=99.985001
,32.000000=199.970001
;
#STOPS:;
#DELAYS:;
#WARPS:;
#TIMESIGNATURES:0.000000=4=4
;
#TICKCOUNTS:0.000000=4
;
#COMBOS:0.000000=1
;
#SPEEDS:0.000000=1.000000=0.000000=0
;
#SCROLLS:0.000000=1.000000
;
#FAKES:;
#LABELS:0.000000=Song Start
;
#BGCHANGES:;
#KEYSOUNDS:;
#ATTACKS:
;

//---------------dance-single - Lift @ b31----------------
#NOTEDATA:;
#CHARTNAME:is it really tho;
#CHARTHASH:3809523907;
#STEPSTYPE:dance-single;
#BANNER:;
#DESCRIPTION:Lift @ b31;
#CHARTSTYLE:FOF (Probably);
#DIFFICULTY:Challenge;
#METER:18;
#METERF:18.000000;
#LASTSECONDHINT:38.980751;
#RADARVALUES:1.211460,1.073238,0.256200,0.128100,1.985550,331.000000,321.000000,10.000000,5.000000,1.000000,1.000000,0.000000,1.000000,0.000000,1.211460,1.073238,0.256200,0.128100,1.985550,331.000000,321.000000,10.000000,5.000000,1.000000,1.000000,0.000000,1.000000,0.000000;
#CREDIT:YOSEFU;
#NOTES:
// measure 0
0000
0000
0000
0000
,  // measure 1
0000
0000
0000
0000
,  // measure 2
0001
0000
0100
0010
1000
0000
0100
0010
0001
1000
0010
0100
0010
0000
1000
0100
,  // measure 3
0010
0000
0001
1000
0010
0000
0100
0001
1000
0001
0010
0010
2100
0000
0000
0000
,  // measure 4
3012
0000
0100
0010
1000
0000
0010
1000
0010
0100
0010
1000
0010
0000
1003
0001
,  // measure 5
0100
0010
1000
0001
1010
0000
0100
1000
0001
0100
0010
1000
0101
1000
0100
0010
,  // measure 6
0101
0000
1000
0001
1200
0300
0200
0300
0011
0000
1000
0101
0000
0010
0101
1000
,  // measure 7
0021
0000
0000
0000
0000
0030
00L0
0000
,  // measure 8
100M
0100
0010
0100
1000
0001
0100
0010
0100
0001
1000
0100
0010
0001
0010
0100
,  // measure 9
1000
0001
0100
0010
1000
0001
0010
0001
1000
0100
1000
0001
0100
0001
1000
0100
,  // measure 10
0010
0001
1000
0010
0100
0010
1000
0001
0010
0100
1000
0100
1000
0001
0100
0010
,  // measure 11
1000
0001
0010
0001
1000
0001
0100
0010
1000
0001
0010
0100
0010
0001
1000
0010
,  // measure 12
1000
0001
0010
0100
1000
0001
0100
0010
0100
0001
1000
0100
0010
0001
1000
0001
,  // measure 13
0100
0010
0100
0001
1000
0100
0010
0001
1000
0010
0100
0010
1000
0001
0010
0100
,  // measure 14
0010
0001
1000
0010
0100
0010
1000
0001
0010
0001
0010
0100
1000
0001
0100
0001
,  // measure 15
1000
0100
0010
0001
0100
0001
1000
0100
0010
0001
0100
0001
1000
0100
0010
0100
,  // measure 16
1000
0001
0100
0010
0100
0001
1000
0100
0010
0100
1000
0001
0100
0010
1000
0001
,  // measure 17
0010
0100
0010
0001
1000
0010
1000
0010
0100
0001
1000
0100
1000
0100
0010
0100
,  // measure 18
1000
0001
0100
0010
1000
0010
0100
0001
1000
0100
0010
0001
0010
0100
0010
0001
,  // measure 19
1000
0010
0100
0001
0010
0001
1000
0100
0010
0001
0100
0001
1000
0100
0010
0001
,  // measure 20
1000
0010
1000
0001
0010
0001
1000
0100
0010
0100
1000
0001
0100
0001
1000
0100
,  // measure 21
0010
0001
0100
0001
1000
0010
0100
0001
1000
0100
0010
0001
0100
0010
1000
0001
,  // measure 22
0010
0100
1000
0100
0010
0001
1000
0010
1000
0010
0100
0001
0010
0100
1000
0001
,  // measure 23
1000
0100
0010
0001
0100
0010
1000
0001
0010
0100
1000
0010
0100
0001
1000
0100
;
