#VERSION:0.83;
#TITLE:After School Dessert;
#SUBTITLE:;
#ARTIST:KARUT;
#TITLETRANSLIT:;
#SUBTITLETRANSLIT:;
#ARTISTTRANSLIT:;
#GENRE:;
#ORIGIN:Blue Archive Original Soundtrack Vol.3 ~Reaching for the precious time~;
#TAGS:;
#CREDIT:;
#BANNER:After School Dessert.png;
#BACKGROUND:After School Dessert-bg.png;
#PREVIEWVID:;
#JACKET:After School Dessert-jacket.png;
#CDIMAGE:;
#DISCIMAGE:;
#LYRICSPATH:;
#CDTITLE:../_YSD cdtitles/ysd tEYEcoon cdtitle.png;
#MUSIC:After School Dessert.ogg;
#OFFSET:0.000000;
#SAMPLESTART:85.500000;
#SAMPLELENGTH:12.000000;
#SELECTABLE:YES;
#BPMS:0.000000=160.000000
;
#STOPS:;
#DELAYS:;
#WARPS:;
#TIMESIGNATURES:0.000000=4=4
;
#TICKCOUNTS:0.000000=4
;
#COMBOS:0.000000=1
;
#SPEEDS:0.000000=1.000000=0.000000=0
;
#SCROLLS:0.000000=1.000000
;
#FAKES:;
#LABELS:0.000000=Song Start
;
#BGCHANGES:;
#KEYSOUNDS:;
#ATTACKS:
;

//---------------dance-single - ----------------
#NOTEDATA:;
#CHARTNAME:;
#CHARTHASH:758600786;
#STEPSTYPE:dance-single;
#BANNER:;
#DESCRIPTION:;
#CHARTSTYLE:;
#DIFFICULTY:Beginner;
#METER:3;
#METERF:0.000000;
#LASTSECONDHINT:121.500000;
#RADARVALUES:0.184736,0.229130,0.202055,0.000000,0.000000,160.000000,135.000000,25.000000,0.000000,0.000000,0.000000,0.000000,0.000000,0.000000,0.184736,0.229130,0.202055,0.000000,0.000000,160.000000,135.000000,25.000000,0.000000,0.000000,0.000000,0.000000,0.000000,0.000000;
#CREDIT:YOSEFU;
#NOTES:
// measure 0
0000
0000
0000
0000
,  // measure 1
0000
0000
0000
0000
,  // measure 2
0000
0000
0000
0000
,  // measure 3
0000
0000
0000
0000
,  // measure 4
0000
0000
0000
0000
,  // measure 5
1000
0000
0000
0000
,  // measure 6
0001
0000
0000
0000
,  // measure 7
0100
0000
0000
0000
0000
0000
0000
0010
,  // measure 8
0000
0000
0000
0000
,  // measure 9
1001
0000
1000
0000
,  // measure 10
1000
0000
0000
0000
,  // measure 11
0010
0000
0010
0000
,  // measure 12
0010
0000
0000
0000
,  // measure 13
0110
0000
0100
0000
,  // measure 14
0100
0000
0000
0000
,  // measure 15
0001
0000
0000
0000
0000
0000
0000
1001
,  // measure 16
0000
0000
1001
0000
,  // measure 17
1001
0000
0000
0000
0000
0000
0000
0001
,  // measure 18
0000
0000
1000
0000
,  // measure 19
1000
0000
0000
0000
0000
0000
0000
0010
,  // measure 20
0000
0000
0010
0000
,  // measure 21
0110
0000
0000
0000
0000
0000
0000
0100
,  // measure 22
0000
0000
0001
0000
,  // measure 23
0001
0000
0000
0000
0000
0000
0000
1000
,  // measure 24
0000
0000
1000
0000
,  // measure 25
1001
0000
0000
0000
0000
0000
0000
0001
,  // measure 26
0000
0000
0001
0000
,  // measure 27
1001
0000
0000
0000
0000
0000
0000
1000
,  // measure 28
0000
0000
1000
0000
,  // measure 29
1001
0000
0000
0000
0000
0000
0000
0001
,  // measure 30
0000
0000
0001
0000
,  // measure 31
0110
0000
0000
0000
0000
0000
0000
1001
,  // measure 32
0000
0000
0001
0000
,  // measure 33
0001
0001
0001
0000
,  // measure 34
1000
1000
1000
0000
,  // measure 35
0010
0010
0010
0000
,  // measure 36
0100
0100
0100
0000
,  // measure 37
0001
0001
0001
0000
,  // measure 38
1000
1000
1000
0000
,  // measure 39
0100
0000
0100
0000
0000
0000
0000
0100
,  // measure 40
0000
0000
0100
0000
,  // measure 41
1001
0000
0000
0000
0000
0000
0000
0001
,  // measure 42
0000
0000
0001
0000
,  // measure 43
0100
0000
0000
0000
0000
0000
0000
0100
,  // measure 44
0000
0000
0100
0000
,  // measure 45
1001
0000
0000
0000
0000
0000
0000
0010
,  // measure 46
0000
0000
0100
0000
,  // measure 47
0010
0000
0000
0000
0000
0000
0000
0010
,  // measure 48
0000
0000
0010
0000
,  // measure 49
1001
0000
0001
0000
,  // measure 50
1000
0000
0001
0000
,  // measure 51
0100
0000
0001
0000
,  // measure 52
0010
0010
0010
0000
,  // measure 53
0110
0000
1000
0000
,  // measure 54
0001
0000
0100
0000
,  // measure 55
0001
0000
1000
0000
,  // measure 56
0001
0000
1000
0000
,  // measure 57
1001
0000
0001
0000
,  // measure 58
0001
0000
0000
0000
,  // measure 59
1000
0000
1000
0000
,  // measure 60
1000
0000
0000
0000
,  // measure 61
0110
0000
0010
0000
,  // measure 62
0010
0000
0000
0000
,  // measure 63
1000
0000
0000
0000
0000
0000
0000
1001
,  // measure 64
0000
0000
0110
0000
,  // measure 65
1001
0000
0001
0000
,  // measure 66
1000
0000
0001
0000
,  // measure 67
0100
0000
0010
0000
,  // measure 68
0100
0000
0010
0000
,  // measure 69
0110
0000
1000
0000
,  // measure 70
0001
0000
1000
0000
,  // measure 71
0010
0000
0000
0000
0000
0000
0000
0110
,  // measure 72
0000
0000
1001
0000
,  // measure 73
1001
0000
0001
0000
,  // measure 74
1000
0000
0001
0000
,  // measure 75
0100
0000
0010
0000
,  // measure 76
0100
0000
0010
0000
,  // measure 77
1001
0000
0001
0000
,  // measure 78
0100
0000
0010
0000
,  // measure 79
1000
0000
0001
0000
,  // measure 80
1000
0000
0000
0001
,  // measure 81
0001
0000
0000
0000
;

//---------------dance-single - ----------------
#NOTEDATA:;
#CHARTNAME:;
#CHARTHASH:1897199603;
#STEPSTYPE:dance-single;
#BANNER:;
#DESCRIPTION:;
#CHARTSTYLE:;
#DIFFICULTY:Easy;
#METER:6;
#METERF:6.000000;
#LASTSECONDHINT:121.500000;
#RADARVALUES:0.314050,0.327328,0.048493,0.008082,0.000000,272.000000,266.000000,6.000000,1.000000,0.000000,0.000000,0.000000,0.000000,0.000000,0.314050,0.327328,0.048493,0.008082,0.000000,272.000000,266.000000,6.000000,1.000000,0.000000,0.000000,0.000000,0.000000,0.000000;
#CREDIT:Yosefu as ''citrusberry'';
#NOTES:
0000
0000
0000
0000
,
0000
0000
0000
0000
,
0000
0000
0000
0000
,
0000
0000
0000
0000
,
0000
0000
0000
0000
,
1000
0001
0100
0001
,
1000
0100
0010
0000
,
0001
0000
0010
0000
0100
0000
0000
1000
,
0000
1000
0000
1000
0000
0000
0000
0000
,
1001
0001
0100
0001
,
1000
0100
0010
0000
,
0100
1000
0001
0100
,
0010
1000
0100
0010
,
0100
1000
0001
0100
,
0001
1000
0100
0000
,
0010
0000
0100
0000
1000
0000
0000
0001
,
0000
0001
0000
0001
0000
0000
0000
0000
,
0101
0000
0000
0001
0000
0000
0000
1000
,
0000
1000
0000
0000
0001
0000
0010
0000
,
0100
0000
0000
1000
0000
0000
0000
0001
,
0000
0001
0000
0000
0100
0000
0010
0000
,
1001
0000
0000
0001
0000
0000
0000
0010
,
0000
0010
0000
0000
0100
0000
1000
0000
,
0100
0000
0000
0010
0000
0000
0000
0001
,
0000
0001
0000
0000
0001
0000
0000
0000
,
1001
0000
0000
0001
0000
1000
0000
0010
,
0000
0100
0001
1000
,
0010
0000
0000
0100
0000
0001
0000
1000
,
0000
0100
0000
0010
0000
0000
0001
0000
,
0100
0000
0000
0010
0000
1000
0000
0100
,
0000
1000
0001
0100
,
0010
0000
0000
0100
0000
0001
0000
1000
,
0000
1000
0000
1000
0000
0000
0100
0000
,
1000
0010
0100
0001
,
0010
0100
1000
0001
,
0100
0001
1000
0100
,
0010
0001
1000
0010
,
0100
0001
0010
0100
,
1000
0100
0001
0100
,
0010
0000
0001
0000
1000
0000
0000
0010
,
0000
1000
0000
0010
0000
0000
0100
0000
,
0001
0000
0000
1000
0000
0100
0000
0010
,
0000
0100
0000
0000
1000
0000
0001
0000
,
0100
0000
0000
0010
0000
1000
0000
0001
,
0000
0010
0000
0000
0100
0000
1000
0000
,
0001
0000
0000
0100
0000
0001
0000
1000
,
0000
0100
0000
0000
0010
0000
0001
0000
,
1000
0000
0000
0010
0000
0100
0000
0001
,
0000
1000
0100
0010
,
0100
0000
1000
0001
,
0100
0000
0001
1000
,
0100
0000
0010
1000
,
0010
0000
0001
1000
,
0010
0000
0001
0010
,
0100
0000
0001
1000
,
0100
0000
0010
0100
,
1000
0001
1000
0100
,
1100
0100
1000
0001
,
0100
0010
1000
0000
,
0001
0010
0100
1000
,
0010
0100
0001
0010
,
0001
1000
0010
0100
,
0010
1000
0001
0000
,
0010
0000
0100
0000
1000
0000
0000
0001
,
0000
0100
0000
0001
0000
0000
1000
0000
,
0011
0010
0001
0100
,
0010
1000
0100
0010
,
1000
0010
0001
0100
,
0010
1000
0100
0010
,
1000
0010
0001
0100
,
0010
1000
0001
0010
,
1000
0000
0010
0000
0100
0000
0000
1000
,
0000
1000
0000
0001
0000
0000
0000
0000
,
0100
0010
0001
0010
,
1000
0001
0010
0100
,
0001
0100
1000
0001
,
0100
0010
1000
0100
,
0001
0100
0010
0001
,
1000
0010
0001
0010
,
0100
0001
1000
0100
,
0010
0000
0000
0100
0000
0000
2000
0000
,
3000
0000
0000
0000
;

//---------------dance-single - ----------------
#NOTEDATA:;
#CHARTNAME:;
#CHARTHASH:1291477958;
#STEPSTYPE:dance-single;
#BANNER:;
#DESCRIPTION:;
#CHARTSTYLE:;
#DIFFICULTY:Medium;
#METER:11;
#METERF:11.000000;
#LASTSECONDHINT:121.500000;
#RADARVALUES:0.509177,0.458260,0.064657,0.307123,0.064657,441.000000,433.000000,8.000000,38.000000,0.000000,0.000000,0.000000,0.000000,0.000000,0.509177,0.458260,0.064657,0.307123,0.064657,441.000000,433.000000,8.000000,38.000000,0.000000,0.000000,0.000000,0.000000,0.000000;
#CREDIT:Yosefu as ''citrusberry'';
#NOTES:
0000
0000
0000
0000
,
0000
0000
0000
0000
,
0000
0000
0000
0000
,
0000
0000
0000
0000
,
0000
0000
0000
0000
,
1000
0001
0100
0002
0000
1003
0100
2000
,
0000
3001
0100
0002
0000
1003
0100
0000
,
0010
0001
1000
0020
0000
0130
0001
0010
,
0000
0100
0000
1000
0001
0000
2000
0000
,
3010
0100
0010
2000
0000
3001
0010
0200
,
0000
1300
0001
0100
0000
0001
1000
0000
,
0001
1000
0100
2000
0000
3001
0100
0020
,
0000
1030
0001
0000
1000
0010
1000
0000
,
0001
0100
0001
2000
0000
3100
1000
0020
,
0000
1030
0001
0200
0000
0310
1000
0000
,
0001
0010
0100
2000
0000
3100
0010
0001
,
0000
0011
0000
0010
0001
0000
1000
0000
,
1010
0000
0010
1000
0000
0001
0000
0010
,
0000
0001
0000
0001
1000
0001
0100
0010
,
1000
0000
0001
0010
0000
0001
0000
1000
,
0000
0010
0000
0010
0100
0001
1000
0000
,
1010
0000
0010
0100
0000
0001
0000
1000
,
0000
0100
0000
0100
1000
0001
0100
0010
,
1000
0000
0001
0010
0000
0100
0000
0110
,
0000
0010
0000
0001
1000
0000
0010
0100
,
0001
0100
0001
1000
0000
0001
0010
0001
,
0000
1000
0010
1000
0000
0001
0010
0100
,
0010
0000
0001
1000
0000
0010
0000
0001
,
0000
0010
1000
0001
0000
0010
0100
0000
,
1000
0000
0001
0100
0000
0001
0010
0100
,
0000
1000
0100
0010
0000
0001
0100
0010
,
1000
0000
0100
0010
0000
0100
0001
0100
,
0000
1000
0000
0001
0100
0000
0010
0000
,
1000
0000
0000
0000
0001
0000
0000
0010
0000
0000
0100
0000
0010
0000
0000
0000
,
0001
0000
0000
0000
1000
0000
0000
0010
0000
0000
0001
0000
0020
0000
0000
0000
,
0130
0000
0000
0000
0001
0000
0000
1000
0000
0000
0100
0000
0010
0000
0000
0000
,
0100
0000
0000
0000
1000
0000
0000
0001
0000
0000
0100
0000
2000
0000
0000
0000
,
3100
0000
0000
0000
0010
0000
0000
1000
0000
0000
0001
0000
0010
0000
0000
0000
,
0100
0000
0000
0000
0010
0000
0000
0100
0000
0000
1000
0000
0200
0000
0000
0000
,
0301
0000
0000
0000
0100
0000
0000
1000
0000
0000
0001
0000
0100
0000
0010
0000
,
0000
1000
0000
0001
0000
0010
0100
0000
,
1001
0000
0001
0100
0000
0001
0000
1000
,
0000
0100
0000
0100
1000
0001
0100
0010
,
1000
0000
0001
0010
0000
0001
0000
1000
,
0000
0100
0000
0100
0010
0001
1000
0000
,
1100
0000
0100
1000
0000
0100
0000
0010
,
0000
0001
0000
0001
0100
0010
1000
0100
,
0001
0000
0100
1000
0000
0001
0000
0100
,
0000
0010
0000
1000
0010
0001
0010
1000
,
0001
0000
0000
0010
0000
0000
0001
0000
1000
0000
0010
0000
1000
0000
0000
0000
,
0001
0000
0000
0010
0000
0000
0100
0000
1000
0000
0100
0000
2000
0000
0000
0000
,
3001
0000
0000
0100
0000
0000
0010
0000
1000
0000
0001
0000
1000
0000
0000
0000
,
0001
0000
0000
0010
0000
0000
0100
0000
1000
0000
0010
0000
0200
0000
0000
0000
,
0301
0000
0000
0100
0000
0000
0001
0000
1000
0000
0100
0000
1000
0000
0000
0000
,
0001
0000
0000
0100
0000
0000
0010
0000
1000
0000
0001
0000
2000
0000
0000
0000
,
3001
0000
0000
0010
0000
0000
0100
0000
1000
0000
0001
0000
0100
0000
0000
0000
,
1000
0100
0001
0000
1000
0100
0010
0000
,
0100
0010
0100
2000
0000
3001
0100
0020
,
0000
1030
0001
0010
0000
0100
1000
0000
,
0001
1000
0100
2000
0000
3001
0100
0020
,
0000
1030
0001
0000
1000
0100
0010
0000
,
0001
0100
0001
2000
0000
3100
1000
0200
,
0000
1300
0001
0200
0000
0310
1000
0000
,
0001
0100
0010
2000
0000
3100
0010
0001
,
0000
1001
0000
1000
0001
0000
0011
0000
,
0010
0001
1000
0020
0000
0130
0001
0020
,
0000
0130
1000
0002
0000
0103
0010
1000
,
0001
0010
0100
2000
0000
3001
0100
0020
,
0000
0031
0010
2000
0000
3001
0010
0100
,
0010
0001
1000
0020
0000
0130
0001
0020
,
0000
0130
1000
0020
0000
0130
0001
1000
,
0100
0010
0001
0020
0000
0031
0100
1000
,
0000
0100
0000
0010
1000
0000
0001
0000
,
1000
0100
1000
0000
0001
0100
0001
0000
,
1000
0010
1000
0000
0001
0010
0001
0000
,
1000
0100
1000
0000
0001
0100
0001
0000
,
1000
0010
1000
0000
0001
0010
0001
0000
,
1000
0100
0010
0000
0001
0100
0010
0000
,
1000
0100
0010
0000
0001
0100
0010
0000
,
1000
0001
0010
0000
0100
1000
0010
0000
,
0100
0000
0000
0100
0000
0000
0001
0000
0000
0001
0000
0000
2000
0000
0000
0000
,
3100
0000
0000
0000
;

//---------------dance-single - ----------------
#NOTEDATA:;
#CHARTNAME:;
#CHARTHASH:3379137585;
#STEPSTYPE:dance-single;
#BANNER:;
#DESCRIPTION:;
#CHARTSTYLE:;
#DIFFICULTY:Hard;
#METER:13;
#METERF:0.000000;
#LASTSECONDHINT:121.500000;
#RADARVALUES:0.636183,0.687389,0.137397,0.420273,0.234383,551.000000,534.000000,17.000000,52.000000,0.000000,0.000000,0.000000,0.000000,0.000000,0.636183,0.687389,0.137397,0.420273,0.234383,551.000000,534.000000,17.000000,52.000000,0.000000,0.000000,0.000000,0.000000,0.000000;
#CREDIT:Yosefu as ''citrusberry'';
#NOTES:
0000
0000
0000
0000
,
0000
0000
0000
0000
,
0000
0000
0000
0000
,
0000
0000
0000
0000
,
0000
0000
0000
0000
,
1000
0010
0100
0002
0000
1003
0100
0020
,
0000
1030
0010
0002
0000
0103
0010
1000
,
0001
0100
0010
0200
0000
0301
0010
1000
,
0000
0000
0010
0000
0000
0000
0001
0000
1000
0000
0000
0000
0010
0000
1000
0001
,
1000
0100
0010
0002
0000
1003
0010
0200
,
0000
0301
0010
0200
0000
1300
0001
0100
,
0001
1000
0100
0020
0000
0031
1000
0020
,
0000
0130
0001
0010
0100
1000
0010
1000
,
0100
0010
0001
2000
0000
3001
0010
0200
,
0000
0301
0100
2000
0000
3001
0100
0010
,
1000
0001
0010
0002
0000
1003
0010
0001
,
0000
0011
0000
0010
0100
0000
0001
0000
,
0101
0000
0100
0100
0001
0010
0000
1100
,
0000
2000
3200
1300
0010
0100
0001
1000
,
0010
0000
0000
0100
0001
0000
0001
0000
0010
0000
0100
0000
0000
0000
1001
0000
,
0000
0002
0203
0301
0010
0100
2000
3000
,
1001
0000
0000
0001
0100
0000
0100
0000
0010
0000
1000
0000
0000
0000
0101
0000
,
0000
0002
0203
0301
0010
0100
1000
0001
,
0100
0000
0000
0001
1000
0000
1000
0000
0100
0000
0010
0000
0001
0000
1001
0000
,
0000
0000
1000
0000
0000
0000
1000
0000
1010
0000
0000
0000
0010
1000
0010
0000
,
0100
0001
1000
0100
0000
0010
0001
0002
,
0000
0103
0001
2000
0000
3100
1000
0001
,
0100
0000
0000
0001
0010
0000
0100
0000
0010
0000
1000
0000
0000
0000
1010
0000
,
0000
0010
0001
2000
0010
0000
3002
0000
,
0013
0000
0000
0100
1000
0000
0010
0000
0000
0000
0200
0000
0301
0000
0002
0000
,
0000
0013
0100
2000
0000
3001
0100
0001
,
0010
0000
0000
0001
1000
0000
0010
0000
0000
0000
1000
0000
0100
0000
0001
0000
,
0000
0100
0000
1000
1001
0000
0101
0000
,
0001
0000
0000
0000
1000
0000
0001
0010
0000
0001
0010
0000
0100
0000
0000
0000
,
1000
0000
0000
0010
0100
0000
0001
0100
0000
0001
0100
0000
0002
0000
0000
0000
,
1003
0000
0000
0000
0100
0000
1000
0001
0000
1000
0001
0000
0100
0000
0000
0000
,
0010
0000
0000
1000
0001
0000
1000
0100
0000
1000
0100
0000
2000
0000
0000
0000
,
3010
0000
0000
0000
0100
0000
0001
1000
0000
0001
1000
0000
0100
0000
0000
0000
,
0010
0000
0000
0001
1000
0000
0010
1000
0000
0010
1000
0000
0002
0000
0000
0000
,
1003
0000
0000
0000
0100
0000
0010
0001
0000
0010
0001
0000
1000
0000
0010
0000
,
0000
0110
0000
0100
0001
0000
1000
0000
,
1100
0000
0100
0100
1000
0010
0100
0001
,
0000
0100
0001
0100
1000
0100
0010
1000
,
0001
0000
0010
0010
0100
1000
0010
0100
,
0000
0001
0100
0010
0001
0010
0100
0000
,
0101
0000
0001
0001
0010
0100
1000
0010
,
0000
0100
0001
0100
1000
0100
0010
1000
,
0001
0010
0100
0100
0010
1000
0010
0001
,
0000
0000
0101
0000
0000
0000
0100
0000
0010
0000
0001
0000
0010
0000
1000
0010
,
1000
0000
0000
0001
0000
1000
0100
0000
0010
0000
0001
0000
0010
0000
1000
0000
,
0010
0000
0000
0100
0000
1000
0001
0000
0010
0000
0001
0000
0200
0000
0000
0000
,
0301
0000
0000
0010
0000
0001
1000
0000
0010
0000
0100
0000
0010
0000
0001
0000
,
0010
0000
0100
1000
0000
0100
0001
0000
1000
0000
0100
0000
0020
0000
0000
0000
,
0031
0000
0000
0100
0000
0001
0010
0000
0100
0000
1000
0000
0100
0000
0001
0000
,
0100
0000
0000
0010
0000
0001
1000
0000
0010
0000
1000
0000
0200
0000
0000
0000
,
0310
0000
0000
0001
0000
1000
0010
0000
0100
0000
0001
0000
0100
0000
1000
0000
,
0100
0000
0001
0000
0010
0100
0010
0000
1000
0000
0010
0000
0002
0000
0000
0000
,
1003
0010
0100
0002
0000
1003
0100
0020
,
0000
0031
0100
0020
0000
1030
0001
0010
,
0001
1000
0010
0200
0000
0301
1000
0200
,
0000
0310
0001
0100
0010
1000
0100
1000
,
0010
0100
0001
2000
0000
3001
0100
0020
,
0000
0031
0010
2000
0000
3001
0010
0100
,
1000
0001
0100
0002
0000
1003
0100
0001
,
0000
0101
0000
0100
0010
0000
0001
0000
,
1000
0001
0100
0020
0000
1030
0100
0020
,
0000
0000
1030
0000
0010
0000
0001
0010
0000
0001
1000
0000
0002
0000
0000
0000
,
0103
0010
1000
0002
0000
0013
0100
2000
,
0000
3001
0100
2000
0000
3100
0001
1000
,
0100
0010
0001
2000
0000
3001
0100
0020
,
0000
0000
0031
0000
0010
0000
1000
0010
0000
1000
0001
0000
0010
0000
0100
0000
,
1000
0000
0001
0000
0100
0000
0001
1000
0000
0010
1000
0000
0010
0000
0001
0000
,
0000
0011
0000
0010
0100
0000
0001
0000
,
1000
0000
0010
0000
1000
0000
0100
0000
1000
0000
0001
0000
0100
0000
0001
1000
,
0001
0000
0010
0000
0001
0000
0100
0000
0001
0000
1000
0000
0100
0000
1000
0001
,
1000
0000
0001
0000
0100
0000
0001
0000
0010
0000
0001
0000
1000
0000
0001
0100
,
0001
0000
1000
0000
0010
0000
1000
0000
0100
0000
1000
0000
0001
0000
1000
0001
,
1000
0000
0010
0000
0100
0000
0001
0000
0010
0000
0100
0000
1000
0000
0001
0100
,
0001
0000
1000
0000
0100
0000
0010
0000
0001
0000
0100
0000
0010
0000
1000
0001
,
1000
0000
0100
0000
0010
0000
0001
0000
0100
0000
0010
0000
1000
0000
0001
1000
,
0001
0100
0000
0001
0010
0000
0001
1000
0000
0001
0100
0000
0020
0000
0000
0000
,
1030
0000
0000
0000
;
