#TITLE:Abyss of Time (Wayang Kulit);
#SUBTITLE:;
#ARTIST:Akitaka Toyama;
#TITLETRANSLIT:;
#SUBTITLETRANSLIT:;
#ARTISTTRANSLIT:;
#GENRE:;
#CREDIT:;
#BANNER:Abyss of Time (Wayang Kulit).png;
#BACKGROUND:Abyss of Time (Wayang Kulit)-bg.png;
#LYRICSPATH:;
#CDTITLE:../_YSD cdtitles/ysd sc2022 cdtitle.png;
#MUSIC:Abyss of Time (Wayang Kulit).ogg;
#OFFSET:0.000000;
#SAMPLESTART:52.966000;
#SAMPLELENGTH:26.483000;
#SELECTABLE:YES;
#BPMS:0.000000=145.000000
;
#STOPS:
;
#BGCHANGES:;
#KEYSOUNDS:;
#ATTACKS:;

//---------------dance-single - ----------------
#NOTES:
     dance-single:
     :
     Beginner:
     2:
     0.093304,0.161650,0.032657,0.057149,0.000000,80.000000,76.000000,4.000000,7.000000,0.000000,0.000000,0.093304,0.161650,0.032657,0.057149,0.000000,80.000000,76.000000,4.000000,7.000000,0.000000,0.000000:
0000
0000
0000
0000
,
0000
0000
0000
0000
,
0000
0000
0000
0000
,
0000
0000
0000
0000
,
1000
0000
0000
0000
,
0001
0000
0000
0000
,
0100
0000
0000
0000
,
0100
0000
0000
0000
,
1001
0000
0000
0000
,
1000
0000
0000
0000
,
0001
0000
0000
0000
,
0010
0000
0010
0000
,
0010
0000
0000
0000
,
0001
0000
0000
0000
,
1000
0000
0000
0000
,
0010
0000
0010
0000
,
0010
0000
0000
0000
,
0100
0000
0000
0000
,
0001
0000
0000
0000
,
1000
0000
1000
0000
,
1000
0000
0000
0000
,
0100
0000
0000
0000
,
0010
0000
0000
0000
,
0001
0000
0001
0000
,
1001
0000
0000
0000
,
1000
0000
0000
0000
,
0010
0000
0000
0000
,
1000
0000
0000
0000
,
0001
0000
0000
0000
,
0010
0000
0000
0000
,
0001
0000
0000
0000
,
1000
0000
0000
0000
,
1001
0000
0000
0000
,
0001
0000
0000
0000
,
0010
0000
0000
0000
,
0001
0000
0001
0000
,
0001
0000
0000
0000
,
1000
0000
0000
0000
,
0010
0000
0000
0000
,
0100
0100
0100
0100
,
0100
0000
0000
0000
,
0001
0000
0000
0000
,
1000
0000
0000
0000
,
0100
0000
0100
0000
,
0100
0000
0000
0000
,
0010
0000
0000
0000
,
0001
0000
0000
0000
,
1000
1000
1000
1000
,
1000
0000
0000
0000
,
0001
0000
0000
0000
,
0100
0000
0000
0000
,
0002
0000
0000
0000
,
0003
0000
2000
0000
,
0000
0000
3000
0000
,
0001
0000
0000
0000
,
0100
0000
0100
0000
,
0100
0000
0200
0000
,
0300
0000
0000
0000
,
0020
0000
0030
0000
,
2000
0000
3000
0000
,
0001
0000
0002
0000
,
0003
0000
0010
0000
,
0010
0000
0000
0000
,
0001
0000
0001
0000
,
0002
0000
0000
0000
,
0003
0000
0000
0000
,
1001
0000
0000
0000
;

//---------------dance-single - ----------------
#NOTES:
     dance-single:
     :
     Easy:
     5:
     0.218099,0.301052,0.048985,0.212267,0.000000,187.000000,181.000000,6.000000,26.000000,0.000000,0.000000,0.218099,0.301052,0.048985,0.212267,0.000000,187.000000,181.000000,6.000000,26.000000,0.000000,0.000000:
0000
0000
0000
0000
,
0000
0000
0000
0000
,
0000
0000
0000
0000
,
0000
0000
0000
0000
,
1000
0000
0001
0000
,
1000
0000
0010
0000
,
1000
0000
0001
0000
,
0010
0000
0000
0000
,
1001
0000
0001
0000
,
0100
0000
0001
0000
,
1000
0000
0100
0000
,
1000
1000
0001
0001
,
0100
0000
0010
0000
,
1000
0000
0001
0000
,
0010
0000
0001
0000
,
1000
1000
0010
0010
,
1001
0000
0001
0000
,
1000
0000
0100
0000
,
0010
0000
0001
0000
,
0100
0100
0010
0010
,
1000
0000
0001
0000
,
0010
0000
0001
0000
,
0100
0000
0010
0000
,
1000
0000
0000
0000
,
1001
0000
0001
0000
,
0100
0000
0001
0000
,
1000
0000
0100
0000
,
0010
0000
0001
0000
,
1000
1000
1000
0000
,
0001
0001
0001
0000
,
0100
0100
0010
0010
,
2000
0000
0000
3000
,
1001
0001
0100
0100
,
0010
0010
1000
1000
,
0001
0001
1000
1000
,
0100
0100
0010
0010
,
0001
0001
1000
1000
,
0010
0010
0100
0100
,
0001
0001
1000
1000
,
0100
0100
1000
0001
,
1001
1000
0010
0100
,
0010
1000
0001
0010
,
0001
1000
0100
0010
,
0001
1000
0010
0100
,
0001
1000
0100
0010
,
0100
1000
0001
1000
,
0001
0010
0100
1000
,
0010
0100
0001
1000
,
0200
0000
0000
0300
,
2000
3000
0002
0003
,
0200
0000
0000
0300
,
0020
0030
2000
3000
,
0002
0003
0020
0000
,
0000
0030
0002
0003
,
2000
0000
0000
3000
,
2000
3000
0002
0003
,
1001
0000
2000
3000
,
2000
3000
0020
0030
,
0200
0000
0000
0300
,
0002
0003
2000
3000
,
0100
0010
0002
0000
,
0000
0003
2000
3000
,
0002
0000
0000
0003
,
0200
0300
0002
0003
,
0020
0000
0000
0000
,
0000
0000
0000
0030
,
0001
1000
0100
1000
,
0001
0100
0010
0100
,
0001
0010
0100
1000
,
0001
0100
0010
1000
,
0001
0010
0100
0010
,
0001
1000
0010
1000
,
0001
0000
1000
0000
,
0020
0000
0000
0030
;

//---------------dance-single - ----------------
#NOTES:
     dance-single:
     :
     Medium:
     10:
     0.412872,0.511789,0.024492,0.220432,0.155119,354.000000,351.000000,3.000000,27.000000,0.000000,0.000000,0.412872,0.511789,0.024492,0.220432,0.155119,354.000000,351.000000,3.000000,27.000000,0.000000,0.000000:
0000
0000
0000
0000
,
0000
0000
0000
0000
,
0000
0000
0000
0000
,
0000
0000
0000
0000
,
1000
0010
0100
0010
,
1000
0001
0010
0001
,
1000
0100
0010
0001
,
1000
0000
0001
0000
,
1001
1000
0010
0100
,
0001
0010
0100
1000
,
0001
0100
0001
1000
,
0100
0000
0010
0000
0001
0000
1000
0001
,
1000
0010
0100
0001
,
0010
0100
0010
0001
,
1000
0010
0100
0010
,
1000
0000
0001
0000
0100
0001
0100
0001
,
0100
0010
1000
0001
,
0010
0001
1000
0010
,
0100
0001
1000
0100
,
0010
0000
0001
0000
1000
0000
0001
0100
,
0001
1000
0100
0010
,
0100
1000
0001
0100
,
0010
0100
0001
1000
,
0200
0000
0000
0000
1300
0001
1000
0001
,
1000
0000
0001
0100
0001
0000
1000
0100
,
1000
0000
0001
0010
0001
0000
1000
0010
,
1000
0000
0001
1000
0100
0000
1000
0001
,
0100
0000
0001
1000
0010
0000
1000
0001
,
0010
0000
0001
0100
0010
0000
0100
0001
,
0010
0000
0100
1000
0001
0000
0100
0001
,
1000
0010
1000
0010
0100
0001
0100
0001
,
1000
0000
0000
0000
0000
0001
0000
0000
0000
0010
0000
0000
0100
0000
1000
0000
,
0010
0000
0000
1000
0000
0000
0001
0000
0000
0010
0000
0000
0001
0000
1000
0000
,
0010
0000
0000
0100
0000
0000
0001
0000
0000
1000
0000
0000
0100
0000
0010
0000
,
0000
0001
0000
1000
0000
0000
0010
0000
0000
0100
0000
0000
0010
0000
1000
0000
,
0001
0000
0000
0010
0000
0000
0100
0000
0000
0010
0000
0000
0001
0000
1000
0000
,
0010
0000
0000
0100
0000
0000
0001
0000
0000
1000
0000
0000
0100
0000
1000
0000
,
0001
0000
0000
0100
0000
0000
0010
0000
0000
1000
0000
0000
0001
0000
0010
0000
,
0000
0100
0000
0010
0000
0000
0001
0000
0000
1000
0000
0000
0010
0000
0100
0000
,
0001
0000
0000
0000
0000
1000
0000
0000
0000
0100
0000
0000
0010
0000
0001
0000
,
1000
0000
0000
0010
0000
0000
0100
0000
0000
0010
0000
0000
1000
0000
0001
0000
,
0010
0000
0000
0001
0000
0000
1000
0000
0000
0001
0000
0000
0010
0000
0001
0000
,
0000
1000
0000
0010
0000
0000
0100
0000
0000
0001
0000
0000
1000
0000
0100
0000
,
0010
0000
0000
0100
0000
0000
1000
0000
0000
0010
0000
0000
0100
0000
0001
0000
,
1000
0000
0000
0100
0000
0000
0010
0000
0000
0001
0000
0000
0100
0000
0010
0000
,
1000
0000
0000
0001
0000
0000
0010
0000
0000
0100
0000
0000
1000
0000
0010
0000
,
0000
0100
0000
0001
0000
0000
1000
0000
0000
0001
0000
0000
0010
0000
0100
0000
,
1000
0000
0000
0000
0000
0001
0000
0000
0000
0100
0000
0000
0010
0000
1000
0000
,
1002
0100
0010
1000
,
0023
0000
0100
0000
0032
0000
1000
1000
,
0203
0010
1000
0010
,
0302
0000
0100
0000
2003
0000
0100
0100
,
3002
0100
0023
0100
,
1000
0000
0100
0000
0032
0000
1000
1000
,
0203
0010
1000
0010
,
0302
0000
0010
0000
2003
0000
3010
1000
,
1001
1000
0020
0100
,
2030
0000
0100
0000
3002
0000
0100
0100
,
0023
0001
0100
1000
,
0230
0000
0001
0000
2300
0000
0001
0001
,
3020
0100
2030
0100
,
0001
0000
0010
0000
3002
0000
0010
0010
,
0203
0010
1000
0010
,
0302
0000
0100
0000
2003
0000
0100
0100
,
0002
0000
0000
0000
,
0000
0000
0000
3003
,
1000
0010
0100
0010
1000
0010
0100
0010
,
1000
0001
0010
0001
1000
0001
0010
0001
,
1000
0100
0010
0100
1000
0100
0010
0100
,
1000
0001
0100
0010
1000
0000
0001
0000
,
1000
0010
0100
0001
1000
0010
0100
0001
,
1000
0100
0010
0001
1000
0100
0010
0001
,
1000
0000
1000
0100
0010
0000
0001
0000
,
0200
0000
0000
0300
;

//---------------dance-single - ----------------
#NOTES:
     dance-single:
     :
     Hard:
     15:
     0.677623,0.692420,0.000000,0.024492,0.775593,581.000000,581.000000,0.000000,3.000000,0.000000,0.000000,0.677623,0.692420,0.000000,0.024492,0.775593,581.000000,581.000000,0.000000,3.000000,0.000000,0.000000:
// measure 0
0000
0000
0000
0000
,  // measure 1
0000
0000
0000
0000
,  // measure 2
0000
0000
0000
0000
,  // measure 3
0000
0000
0000
0000
,  // measure 4
1000
0000
0001
0000
0010
0000
0001
1000
0000
1000
0000
0010
0000
0000
0000
0000
,  // measure 5
0100
0000
0001
0000
1000
0000
0001
0100
0000
0100
0000
0010
0000
0000
0000
0000
,  // measure 6
1000
0000
0001
0000
0010
0000
0001
1000
0000
1000
0000
0100
0000
0000
0000
0000
,  // measure 7
0010
0000
0001
0000
1000
0010
0100
0000
,  // measure 8
0001
0000
1000
0000
0100
0000
1000
0001
0000
0001
0000
0100
0000
0000
0010
0000
,  // measure 9
1000
0000
0001
0000
0010
0000
0001
1000
0000
1000
0000
0010
0000
0000
0100
0000
,  // measure 10
0001
0000
1000
0000
0100
0000
1000
0001
0000
0001
0000
0100
0000
0000
0001
0000
,  // measure 11
1000
0000
0100
0000
1000
0000
0001
0100
0000
0100
0000
0010
0000
0000
0000
1000
,  // measure 12
0001
0000
0010
0000
0001
0000
1000
0100
0000
0100
0000
0010
0000
0000
0001
0000
,  // measure 13
1000
0000
0100
0000
0010
0000
0100
1000
0000
1000
0000
0001
0000
0000
0100
0000
,  // measure 14
0010
0000
1000
0000
0001
0000
0010
0100
0000
0100
0000
1000
0000
0000
0001
0000
,  // measure 15
0100
0000
0000
0000
0010
0000
0000
0000
1000
0001
1000
0001
0010
0100
0000
1000
,  // measure 16
0001
1000
0001
0000
0100
0000
0010
1000
0000
1000
0000
0001
0000
0000
0010
0100
,  // measure 17
0010
0100
0010
0000
0001
0000
1000
0010
0000
0010
0000
0100
0000
0000
0001
1000
,  // measure 18
0001
1000
0001
0000
0100
0000
0010
1000
0000
1000
0000
0001
0000
0000
1000
0100
,  // measure 19
1000
0100
1000
0000
0001
0000
0100
0010
0000
0010
0000
1000
0000
0000
0001
0010
,  // measure 20
0001
0010
0001
0000
1000
0000
0010
0100
0000
0100
0000
0001
0000
0000
1000
0100
,  // measure 21
1000
0100
1000
0000
0001
0000
0100
0010
0000
0010
0000
1000
0000
0000
0001
0010
,  // measure 22
0001
0010
0001
0000
1000
0000
0010
0100
0000
0100
0000
0001
0000
0000
1000
0100
,  // measure 23
2000
0000
0000
0000
0100
0000
0000
0000
3001
0100
0001
0100
0010
1000
0000
0001
,  // measure 24
1000
0000
0000
0100
0000
0000
1000
0000
0001
0000
0000
0100
0000
0000
0001
0000
,  // measure 25
1000
0000
0000
0010
0000
0000
1000
0000
0001
0000
0000
0010
0000
0000
0001
0000
,  // measure 26
1000
0000
0000
0100
0000
0000
0010
0000
0001
0000
0000
1000
0000
0000
0010
0000
,  // measure 27
0100
0000
0000
0001
0000
0000
1000
0000
0100
0000
0000
0010
0000
0000
0100
0000
,  // measure 28
1000
0000
0000
0001
0000
0000
0100
0000
0010
0000
0000
1000
0000
0000
0100
0000
,  // measure 29
0010
0001
0010
0100
1000
0010
0100
0001
,  // measure 30
1000
0100
1000
0000
0001
0100
0001
0000
1000
0010
0100
0001
1000
0100
0010
0001
,  // measure 31
1000
0000
0000
0001
0000
0100
0000
0010
0000
1000
0000
0001
0000
0000
1000
0100
,  // measure 32
0010
0000
0001
1000
0000
0000
0010
0000
1000
0001
0000
0000
0010
0000
0001
1000
,  // measure 33
0001
0000
1000
0100
0000
0000
1000
0000
0001
0100
0000
0000
0010
0000
1000
0001
,  // measure 34
0010
0100
0000
1000
0000
0000
0001
0000
1000
0010
0000
0000
0100
0000
0001
1000
,  // measure 35
0100
0000
0010
0001
0000
0000
1000
0000
0001
0100
0000
0000
0010
0000
1000
0001
,  // measure 36
0010
0000
0100
1000
0000
0000
0001
0000
0100
0001
0000
0000
1000
0000
0100
0010
,  // measure 37
0001
0000
1000
0010
0000
0000
0100
0000
0001
1000
0000
0000
0100
0000
1000
0001
,  // measure 38
0100
0010
0000
1000
0000
0000
0001
0000
1000
0100
0000
0000
1000
0000
0001
0100
,  // measure 39
0010
0000
0000
1000
0000
0001
0000
0010
0000
0100
0000
1000
0000
0000
0001
0100
,  // measure 40
0010
0000
1000
0001
0000
0000
0010
0000
0001
1000
0000
0000
0010
0000
1000
0001
,  // measure 41
1000
0000
0001
0100
0000
0000
0001
0000
1000
0100
0000
0000
0010
0000
0001
1000
,  // measure 42
0010
0100
0000
0001
0000
0000
1000
0000
0001
0010
0000
0000
0100
0000
1000
0001
,  // measure 43
0100
0000
0010
1000
0000
0000
0001
0000
1000
0100
0000
0000
0010
0000
0001
1000
,  // measure 44
0010
0000
0100
0001
0000
0000
1000
0000
0100
1000
0000
0000
0001
0000
0100
0010
,  // measure 45
1000
0000
0001
0010
0000
0000
0100
0000
1000
0001
0000
0000
0100
0000
0001
1000
,  // measure 46
0100
0010
0000
0001
0000
0000
1000
0000
0001
0100
0000
0000
0001
0000
1000
0100
,  // measure 47
0010
0000
0000
0001
0000
1000
0000
0010
0000
0100
0000
0001
0000
0000
1000
0100
,  // measure 48
0010
0000
0001
0000
1000
0000
0010
0000
0100
0000
0001
0000
1000
0000
0001
0100
,  // measure 49
0001
0000
1000
0000
0100
0000
0010
0000
0001
0000
1000
0000
0010
0000
0100
0001
,  // measure 50
0100
0000
0001
0000
1000
0000
0100
0000
0010
0000
0100
0000
1000
0000
0001
0100
,  // measure 51
0001
0000
1000
0000
0100
0000
0010
0000
0100
0000
1000
0001
1000
0000
0001
0100
,  // measure 52
0001
0000
1000
0000
0010
0000
0100
0000
0001
0000
1000
0000
0100
0000
0010
0001
,  // measure 53
0010
0000
0100
0000
1000
0000
0001
0000
0100
0000
0010
0000
1000
0000
0001
0010
,  // measure 54
0001
0000
1000
0000
0010
0000
0100
0000
0001
0000
0010
0000
0100
0000
1000
0001
,  // measure 55
1000
0000
0001
0000
0100
0000
0010
0000
1000
0000
0100
1000
0100
0000
1000
0001
,  // measure 56
1000
0000
0001
0000
0100
0000
0010
0000
1000
0000
0001
0000
0010
0000
0100
1000
,  // measure 57
0001
0000
0100
0000
0010
0000
1000
0000
0001
0000
1000
0000
0100
0000
0010
0001
,  // measure 58
1000
0000
0010
0000
0100
0000
0001
0000
1000
0000
0100
0000
0010
0000
0100
1000
,  // measure 59
0001
0000
0100
0000
0010
0000
1000
0000
0001
0000
0010
0100
1000
0000
0001
0100
,  // measure 60
0010
0000
1000
0000
0001
0000
1000
0000
0100
0000
0010
0000
0001
0000
1000
0010
,  // measure 61
0100
0000
0001
0000
1000
0000
0001
0000
0010
0000
0100
0000
0010
0000
0001
1000
,  // measure 62
0010
0000
0100
0000
0001
0000
1000
0100
0010
0000
0100
0000
1000
0000
0001
0100
,  // measure 63
0010
0000
1000
0000
0001
0000
1000
0100
0010
0000
0100
0000
1000
0000
0001
0100
,  // measure 64
0020
0000
0000
0000
,  // measure 65
0000
0000
0000
0000
,  // measure 66
1030
0000
0001
0000
0100
0000
0001
1000
0000
1000
0000
0100
0010
0000
0001
0000
,  // measure 67
1000
0000
0100
0000
0010
0000
0100
1000
0000
1000
0000
0001
0100
0000
0010
0000
,  // measure 68
1000
0000
0001
0000
0010
0000
0001
0100
0000
0100
0000
0010
1000
0000
0001
0000
,  // measure 69
0010
0000
0100
0000
1000
0000
0100
0010
0000
0010
0000
0001
1000
0000
0010
0000
,  // measure 70
0100
0000
0001
0000
1000
0000
0100
0010
0000
0010
0000
0001
1000
0000
0010
0000
,  // measure 71
0100
0001
1000
0100
0010
0001
1000
0001
,  // measure 72
0100
0000
0100
0010
1000
0000
0001
0000
,  // measure 73
0200
0000
0000
0300
;

//---------------dance-single - ----------------
#NOTES:
     dance-single:
     :
     Challenge:
     16:
     0.839739,0.993473,0.000000,0.130626,1.212374,720.000000,720.000000,0.000000,16.000000,8.000000,0.000000,0.839739,0.993473,0.000000,0.130626,1.212374,720.000000,720.000000,0.000000,16.000000,8.000000,0.000000:
0000
0000
0000
0000
,
0000
0000
0000
0000
,
0000
0000
0000
0000
,
0000
0000
0000
0000
,
1000
0000
0001
0000
0100
0000
0001
1000
0000
1000
0000
0100
0010
0000
0001
0000
,
1000
0000
0010
0000
1000
0000
0001
1000
0000
1000
0000
0010
0100
0000
0001
0000
,
1000
0000
0100
0000
0010
0000
0001
0100
0000
0100
0000
0010
1000
0000
0001
0000
,
1000
0010
0100
0001
1000
0100
0010
0001
,
1000
0000
0010
0000
0100
0000
0010
1000
0000
1000
0000
0001
0010
0000
0100
0000
,
0010
0000
0001
0000
1000
0000
0010
1000
0000
1000
0000
0100
0010
0000
0001
0000
,
1000
0000
0010
0000
0100
0000
0010
1000
0000
1000
0000
0001
0010
0000
0100
0000
,
0010
0000
0001
0000
1000
0000
0010
0100
0000
0100
0000
0001
1000
0000
0100
0000
,
0010
0000
0100
0000
1000
0000
0001
0100
0000
0100
0000
0010
1000
0000
0001
0000
,
0010
0000
0001
0000
1000
0000
0010
0100
0000
0100
0000
0001
1000
0000
0100
0000
,
0010
0000
0100
0000
1000
0000
0001
0100
0000
0100
0000
0010
1000
0000
0001
0000
,
0100
0000
0001
0000
1000
0000
0010
0000
1000
0100
0010
0001
1000
0001
0100
0010
,
1000
0001
1000
0000
0001
0000
0100
0010
0000
0010
0000
1000
0001
0000
0010
0100
,
0010
0100
0010
0000
0001
0000
1000
0010
0000
0010
0000
0100
0001
0000
1000
0100
,
1000
0100
1000
0000
0001
0000
0100
0010
0000
0010
0000
1000
0001
0000
1000
0010
,
1000
0010
1000
0000
0001
0000
1000
0100
0000
0100
0000
0010
0001
0000
1000
0010
,
0100
0010
1000
0000
0001
0000
0010
0100
0000
0100
0000
1000
0001
0000
0100
0001
,
1000
0001
0100
0000
0010
0000
1000
0001
0000
0001
0000
0010
0100
0000
1000
0001
,
0100
0001
1000
0000
0100
0000
0010
0001
0000
0001
0000
1000
0010
0000
0100
0001
,
1000
0000
0000
0000
0001
0000
0000
0000
1000
0010
0100
0001
0010
0100
1000
0010
,
1000
0000
0001
1000
0000
0010
1000
0000
0001
0000
1000
0001
0000
0100
0001
0000
,
1000
0000
0001
0010
0000
0001
1000
0000
0001
0000
1000
0010
0000
1000
0001
0000
,
1000
0000
0001
0010
0000
0100
0010
0000
0001
0000
1000
0100
0000
0010
0100
0000
,
1000
0000
0001
0100
0000
0010
1000
0000
0001
0000
1000
0100
0000
0010
0001
0000
,
1000
0010
1000
0010
0100
0001
0100
0001
1000
0100
1000
0100
0010
0001
0010
0001
,
1000
0010
1000
0010
0100
0010
0100
0010
0001
0010
0001
0010
0100
0010
0100
0010
,
1000
0001
0010
0100
1000
0001
0100
0010
1000
0010
0001
0010
1000
0001
0010
0100
,
2000
0000
3001
0100
0000
1000
0000
0100
0000
0001
0000
1000
0200
0000
0310
0001
,
2000
0000
0000
0000
3001
0000
0100
0000
0000
0000
0010
0000
0001
0000
0000
0000
0010
0000
0100
0000
0000
0000
0001
0000
1000
0000
0000
0000
0100
00M0
0100
0000
,
0002
0000
1003
0100
0000
0010
1000
0000
0010
0100
0000
1000
0001
0000
0100
0010
,
1000
0000
0001
0000
0010
0000
0100
0000
0000
0000
0010
0000
1000
0000
0000
0000
0010
0000
0100
0000
0000
0000
1000
0000
0001
0000
0000
0000
0100
00M0
0100
0000
,
2000
0000
3001
0010
0000
0100
0001
0000
0100
0010
0000
0001
1000
0000
0100
1000
,
0020
0000
0000
0000
1030
0000
0100
0000
0000
0000
0010
0000
1000
0000
0000
0000
0010
0000
0100
0000
0000
0000
1000
0000
0001
0000
0000
0000
0100
00M0
0100
0000
,
2000
0000
3001
0010
0000
0100
0001
0000
0100
0010
0000
0001
1000
0000
0001
0100
,
0010
0000
1000
0000
0001
0000
0010
0000
0000
0000
0100
0000
0001
0000
0000
0000
0100
0000
0010
0000
0000
0000
0001
0000
1000
0000
0000
0000
0100
00M0
0100
0000
,
0002
0000
1003
0010
0000
0001
0000
0010
0000
1000
0000
0100
0010
0000
0001
1000
,
0020
0000
0000
0000
1030
0000
0100
0000
0000
0000
0010
0000
1000
0000
0000
0000
0010
0000
0100
0000
0000
0000
1000
0000
0001
0000
0000
0000
0100
00M0
0100
0000
,
2000
0000
3001
0100
0000
0010
0001
0000
0010
0100
0000
0001
1000
0000
0100
0010
,
0001
0000
1000
0000
0010
0000
0100
0000
0000
0000
0010
0000
0001
0000
0000
0000
0010
0000
0100
0000
0000
0000
0001
0000
1000
0000
0000
0000
0100
00M0
0100
0000
,
0002
0000
0103
0010
0000
0100
1000
0000
0100
0010
0000
1000
0001
0000
0100
0001
,
0020
0000
0000
0000
0130
0000
0010
0000
0000
0000
0100
0000
0001
0000
0000
0000
0100
0000
0010
0000
0000
0000
0001
0000
1000
0000
0000
0000
0100
00M0
0100
0000
,
0002
0000
0103
0010
0000
0100
1000
0000
0100
0010
0000
1000
0001
0000
0100
0010
,
1000
0000
0001
0000
0010
0000
0100
0000
0000
0000
0010
0000
1000
0000
0000
0000
0010
0000
0100
0000
0000
0000
1000
0000
0001
0000
0000
0000
0100
00M0
0100
0000
,
2000
0000
3001
0100
0000
1000
0000
0100
0000
0001
0000
0010
0100
0000
1000
0001
,
0100
0000
0001
0000
0100
0000
0001
1000
0001
0000
1000
0000
0100
0000
1000
0001
,
1000
0000
0010
0000
0100
0000
0001
1000
0001
0000
1000
0000
0100
0000
0010
0100
,
0010
0000
0100
0000
1000
0000
0001
0100
0001
0000
1000
0000
0100
0000
0010
0001
,
0010
0000
0100
0000
1000
0000
0001
0100
0001
0000
1000
0100
1000
0000
0001
0100
,
0010
0000
1000
0000
0100
0000
0010
0001
0010
0000
0001
0000
1000
0000
0010
0100
,
0010
0000
1000
0000
0001
0000
0010
0100
0010
0000
0001
0000
1000
0000
0010
1000
,
0010
0000
0100
0000
0001
0000
1000
0100
1000
0000
0100
0000
0010
0000
0001
0100
,
0001
0000
1000
0100
1000
0000
0001
1000
0001
0000
1000
0100
1000
0000
0001
0100
,
0010
0000
1000
0001
0100
0000
0001
0000
1000
0000
0100
0010
0001
0000
1000
0000
,
0001
0000
0100
0001
1000
0000
0100
0000
1000
0000
0001
0100
0010
0000
1000
0000
,
0001
0000
0010
0100
1000
0000
0001
0000
0100
0000
0001
1000
0100
0000
0010
0000
,
0100
0000
1000
0001
0100
0000
0010
0000
1000
0000
0001
0010
0100
0000
1000
0001
,
0100
0000
0001
1000
0000
0000
0100
0010
0001
0000
1000
0010
0000
0000
0100
0001
,
1000
0000
0100
0010
0000
0000
0100
1000
0001
0000
0100
0010
0000
0000
1000
0001
,
0010
0000
0100
1000
0001
0000
1000
0010
0100
0000
0001
1000
0100
0000
0010
0100
,
1000
0000
0001
0100
0010
0000
1000
0100
0010
0000
0001
0100
0010
0000
0100
0001
,
0020
0000
0000
0000
,
0000
0000
0000
0000
,
0031
1000
0010
0100
0001
1000
0010
0100
0000
0100
0000
0001
0000
0000
0010
0100
,
1000
0001
0100
0010
1000
0001
0100
0010
0000
0010
0000
1000
0000
0000
0001
0010
,
0100
1000
0001
0100
0010
1000
0001
0100
0000
0100
0000
0010
0000
0000
1000
0001
,
0010
0100
1000
0001
0010
0100
1000
0001
0100
0001
0000
0100
0010
0000
1000
0000
,
0001
1000
0100
0010
0001
1000
0100
0010
0000
0010
0000
0001
0000
0000
1000
0010
,
0100
0001
1000
0010
0100
0001
1000
0010
0000
0010
0000
0100
0000
0000
0001
0000
,
1000
0000
1000
0100
0010
0000
0001
0000
,
2000
0000
0000
3000
;
