#VERSION:0.83;
#TITLE:AIの指示に従って曲を作るずんだもん;
#SUBTITLE:;
#ARTIST:Se-U-Ra;
#TITLETRANSLIT:AI no shiji ni shitagatte kyoku o tsukuruzunda mon;
#SUBTITLETRANSLIT:;
#ARTISTTRANSLIT:;
#GENRE:AI-CORE;
#ORIGIN:Shitpost Release (2023);
#TAGS:;
#CREDIT:;
#BANNER:AI no shiji ni shitagatte kyoku o tsukuruzunda mon.png;
#BACKGROUND:AI no shiji ni shitagatte kyoku o tsukuruzunda mon-bg.png;
#PREVIEWVID:;
#JACKET:AI no shiji ni shitagatte kyoku o tsukuruzunda mon-jacket.png;
#CDIMAGE:;
#DISCIMAGE:;
#LYRICSPATH:;
#CDTITLE:../_YSD cdtitles/ysd cc3 cdtitle.png;
#MUSIC:AI no shiji ni shitagatte kyoku o tsukuruzunda mon.ogg;
#OFFSET:0.000000;
#SAMPLESTART:68.800003;
#SAMPLELENGTH:6.400000;
#SELECTABLE:YES;
#BPMS:0.000000=150.000000
,204.000000=437.000000
,332.000000=218.500000
;
#STOPS:;
#DELAYS:;
#WARPS:;
#TIMESIGNATURES:0.000000=4=4
;
#TICKCOUNTS:0.000000=4
;
#COMBOS:0.000000=1
;
#SPEEDS:0.000000=1.000000=0.000000=0
;
#SCROLLS:0.000000=1.000000
;
#XSCROLLS:0.000000=0.000000 ;
#FAKES:;
#LABELS:0.000000=Song Start
;
#BGCHANGES:0.200=AI no shiji ni shitagatte kyoku o tsukuruzunda mon.mp4=1.000=0=0=1=StretchNoLoop====,
99999=-nosongbg-=1.000=0=0=0 // don't automatically add -songbackground-
;
#KEYSOUNDS:;
#ATTACKS:
;

//---------------dance-single - ----------------
#NOTEDATA:;
#CHARTNAME:;
#CHARTHASH:3659187527;
#STEPSTYPE:dance-single;
#BANNER:;
#DESCRIPTION:;
#CHARTSTYLE:;
#DIFFICULTY:Hard;
#METER:18;
#METERF:0.000000;
#LASTSECONDHINT:101.371170;
#RADARVALUES:0.899518,1.205061,0.351985,0.068442,0.606197,644.000000,608.000000,36.000000,7.000000,0.000000,0.000000,7.000000,0.000000,0.000000,0.899518,1.205061,0.351985,0.068442,0.606197,644.000000,608.000000,36.000000,7.000000,0.000000,0.000000,7.000000,0.000000,0.000000;
#CREDIT:Ai-kun;
#NOTES:
// measure 0
0000
0000
0000
0000
,  // measure 1
0000
0000
0000
0000
,  // measure 2
0000
0000
0000
0000
,  // measure 3
0000
0000
0000
0000
,  // measure 4
0000
0000
0000
0000
,  // measure 5
1000
0100
0010
0001
0001
0010
0100
1000
,  // measure 6
1000
0010
0100
0001
0001
0100
0010
1000
,  // measure 7
0001
0010
0100
1000
1000
0010
0100
0001
,  // measure 8
0001
0010
0100
1000
1000
0010
0100
0001
,  // measure 9
1000
0000
0000
0000
0000
0000
0000
0000
0000
0000
0000
0000
0000
0000
0000
0000
0000
0000
0000
0000
0000
0000
0000
0000
0100
0000
0000
0000
0000
0000
0000
0000
0000
0000
0000
0000
0000
0000
0000
0000
0000
0000
0000
0000
0000
0000
0000
0000
0010
0000
0000
0000
0000
0000
0000
0000
0000
0000
0000
0000
0000
0000
0000
0000
0100
0000
0000
0000
0000
0000
0000
0000
0000
0000
0000
0000
0000
0000
0000
0000
0001
0000
0000
0000
0000
0000
0000
0000
0000
0000
0000
0000
0000
0000
0000
0000
0000
0000
0000
0000
0000
0000
0000
0000
0000
0100
0000
0000
0000
0000
0000
0000
0000
0000
0000
0000
0000
0000
0000
0000
0000
0000
0000
0000
0000
0000
0000
0000
0000
0000
0000
0000
0000
0000
0000
0000
0000
0000
0000
0000
0000
0000
0000
0000
1000
0000
0000
0000
0000
0000
0000
0000
0000
0000
0000
0000
0000
0000
0000
0000
0000
0000
0000
0000
0000
0000
0000
0000
0001
0000
0000
0000
0000
0000
0000
0000
0000
0000
0000
0000
0100
0000
0000
0000
0000
0000
0000
0000
0000
0000
0000
0000
,  // measure 10
0010
0000
1000
0001
0100
0000
0001
0000
0010
0000
0100
0000
0100
0000
1000
0000
,  // measure 11
0010
1000
0100
0001
0001
0100
1000
0010
,  // measure 12
0010
0100
0001
0010
1000
0010
0001
0100
,  // measure 13
0010
1000
0100
0010
0010
0100
1000
0010
,  // measure 14
0100
0001
0010
0100
0100
0010
0001
1000
,  // measure 15
1001
0000
0000
0000
0000
0000
0000
0000
0000
0000
0000
0000
0000
0000
0000
0000
0000
0000
0000
0000
0000
0000
0000
0000
0001
0000
0000
0000
0000
0000
0000
0000
0000
0000
0000
0000
0000
0000
0000
0000
0000
0000
0000
0000
0000
0000
0000
0000
0010
0000
0000
0000
0000
0000
0000
0000
0000
0000
0000
0000
0000
0000
0000
0000
0000
0000
0000
0000
0000
0000
0000
0000
0000
0000
0000
0000
0000
0100
0000
0000
0000
0000
0000
0000
0000
0000
0000
0000
0000
0000
0000
0000
0000
0000
0000
0000
1000
0000
0000
0000
0000
0000
0000
0000
0000
0000
0000
0000
0000
0000
0000
0000
0000
0000
0000
0001
0000
0000
0000
0000
0000
0000
0000
0000
0000
0100
0000
0000
0000
0000
0000
0000
0000
0000
0000
0000
0010
0000
0000
0000
0000
0000
0000
0000
0000
0000
0000
0000
0000
0000
0000
0000
0000
0000
0000
0000
0000
0000
0000
0000
0000
0000
1000
0000
0000
0000
0000
0000
0000
0000
0000
0000
0000
0000
0001
0000
0000
0000
0000
0000
0000
0000
0000
0000
0000
0000
0000
0000
0000
0000
0000
0000
,  // measure 16
0020
0000
0000
0000
0130
0000
0000
0000
1000
0000
0000
0000
0001
0000
1000
0000
0000
0000
0000
0000
0001
1000
0100
0000
1000
0000
0010
0000
0000
0000
0000
0000
,  // measure 17
1010
1000
0001
0011
0010
0100
1100
1000
,  // measure 18
1001
0001
0100
0110
0010
1000
1010
1000
,  // measure 19
1001
0001
0010
0110
0100
1000
1001
0001
,  // measure 20
0101
0000
0100
0000
0010
0000
0110
0000
0100
0000
0010
0000
1010
0000
1000
0001
,  // measure 21
0010
0000
0001
0000
0100
0000
1000
0100
0001
0000
0010
0100
0000
1000
0001
0000
,  // measure 22
0100
0000
0001
1000
0100
0000
0010
0000
0001
0000
0100
0001
0000
0000
0000
0000
,  // measure 23
1000
0000
0000
0000
0000
0000
0000
0000
0000
0000
0000
0000
0100
0000
0000
0000
0000
0000
0000
0000
0000
0000
0000
0000
0010
0000
0000
0000
0000
0000
0000
0000
0000
0000
0000
0000
0000
0000
0000
0000
0001
0000
0000
0000
0000
0000
0000
0000
0000
0000
0000
0000
0000
0000
0000
0000
0000
0000
0000
0000
0000
0000
0000
0000
0000
0000
0000
0000
0000
0000
0000
0000
0000
0000
0000
0000
0000
0000
0000
0000
0000
0000
0000
0000
0000
0000
0000
0000
0000
0000
0000
0000
0000
0000
0000
0000
0100
0000
0000
0000
0000
0000
0000
0000
0000
0000
0000
0000
0010
0000
0000
0000
0000
0000
0000
0000
0000
0000
0000
0000
0000
0000
0000
0000
0000
0000
0000
0000
0000
0000
0000
0000
1000
0000
0000
0000
0000
0000
0000
0000
0000
0000
0000
0000
0001
0000
0000
0000
0000
0000
0000
0000
0000
0000
0000
0000
0000
0000
0000
0010
0000
0000
0000
0000
0000
0000
0000
0000
0000
0000
0000
0000
0000
0000
0100
0000
0000
0000
0000
0000
0000
0000
0000
0000
0000
0000
0002
0000
0000
0000
0000
0000
,  // measure 24
0000
0000
0000
0000
0000
0000
0103
0000
0000
1000
0000
0000
0001
0000
0100
0000
0010
0000
1000
0000
0000
0001
0000
0000
,  // measure 25
1000
0000
0001
0101
0100
0000
0001
1001
,  // measure 26
1000
0000
0001
0000
0010
0100
1000
0000
0010
0000
0000
0000
0100
0000
0101
0000
,  // measure 27
0001
0000
0010
0110
0100
0000
1000
1100
,  // measure 28
0100
0000
1000
0000
0001
0100
0010
0000
1000
0000
0000
0000
0001
0010
0000
0001
,  // measure 29
1000
0000
0100
0000
0010
0001
0000
1000
0001
0000
0100
0010
1000
0000
0000
0000
,  // measure 30
0200
0000
0000
0000
0000
0000
0310
0000
0000
0000
0000
0000
0001
0000
0000
1000
0000
0000
0000
0010
0000
0100
0000
0001
0000
0000
0000
0000
1000
0000
0000
0000
,  // measure 31
0100
0000
0010
1100
0001
0000
0100
1010
,  // measure 32
0001
0000
1000
0000
0100
0010
0001
0000
1000
0000
0000
0000
0010
0000
0101
0000
,  // measure 33
1000
0000
0001
0110
1000
0000
0010
0101
,  // measure 34
1000
0000
0001
0000
0010
0100
1000
0000
0001
0000
0000
0000
0100
0000
1010
0000
,  // measure 35
0001
0000
1000
0000
0100
0010
1000
0000
0010
0000
0100
1000
0001
0000
0000
0000
,  // measure 36
0100
0001
1000
0000
0200
0000
0310
0000
0001
0000
2000
0000
3010
1000
0001
0000
,  // measure 37
1000
0001
0010
0001
1000
0010
0100
0001
1000
0100
0010
0001
1000
0100
0010
0001
,  // measure 38
0100
0000
0001
0000
1000
0100
0000
1000
0001
0000
0100
0001
0000
1000
0100
0000
,  // measure 39
0010
0100
1000
0001
0100
0010
0100
0001
1000
0100
0010
0001
1000
0010
0100
0001
,  // measure 40
1000
0000
0100
0000
0010
0100
0000
1000
0001
0000
0100
0010
0000
0100
0001
0000
,  // measure 41
1000
0000
0000
0000
0001
0000
0000
0000
0100
0000
2000
0000
0000
0000
0000
0000
3100
0000
0000
0000
0010
0000
0000
1000
0000
0000
0000
0000
0001
0000
0010
0000
,  // measure 42
0000
0000
0000
0100
0000
0000
1000
0000
0000
0000
0000
0000
0001
0000
0000
0000
0100
0000
0000
0000
0001
0000
0000
0000
0010
0000
0000
0100
0000
0000
1000
0000
0000
0010
0000
0000
0000
0000
0000
0000
0000
0000
0000
0000
0000
0000
0000
0000
,  // measure 43
1010
0010
0100
0101
0001
0010
0100
1100
,  // measure 44
1000
0010
0100
0101
0001
1000
0100
0110
,  // measure 45
0010
0100
1000
1100
0001
0100
0010
1010
,  // measure 46
0001
0010
0100
1001
1100
0010
1001
0010
,  // measure 47
0101
0000
0000
0001
1000
0000
0100
0000
1000
0010
0000
0000
0100
0000
0001
0000
,  // measure 48
1000
0001
0100
0001
0010
0100
1000
0001
,  // measure 49
0100
0001
0010
0100
1000
0010
0100
0001
1000
0100
0010
0001
0100
0010
1000
0001
,  // measure 50
0010
0000
0000
0100
0000
0000
0000
0000
1000
0000
0000
0000
0001
0000
0100
0000
0001
0000
0010
0000
0100
1000
0000
0000
1001
0000
0000
0000
0000
0000
0000
0000
,  // measure 51
1000
0000
0001
0000
0010
0000
0100
1000
,  // measure 52
0001
0000
0000
0000
0000
0000
0100
0000
0000
0000
0000
0000
0010
0000
1000
0000
0010
0000
1000
0000
0000
0001
0000
0000
,  // measure 53
0010
0000
0001
0000
0100
0000
0010
1000
,  // measure 54
0001
0000
0000
0010
0000
0000
0100
1000
0100
4000
0000
0000
,  // measure 55
3001
0000
0100
0000
0010
0100
0001
0010
,  // measure 56
0100
0000
0000
0000
0000
0000
1000
0000
0000
0000
0000
0000
0010
0000
1000
0000
0010
0000
1000
0000
0000
0001
0000
0000
,  // measure 57
0010
0000
0100
0000
1000
0001
0100
0010
,  // measure 58
0100
0000
0001
0000
0100
0000
0004
0000
0000
0000
0000
0000
0013
0000
0000
0100
0000
0000
1000
0000
0000
0001
0000
0000
,  // measure 59
0100
0000
0010
0000
1000
0000
0001
0010
,  // measure 60
0100
0000
0000
0000
0000
0000
1000
0000
0000
0000
0000
0000
0001
0000
0100
0000
0001
0000
0100
0000
0000
0010
0000
0000
,  // measure 61
1000
0000
0001
0000
0100
0000
0001
0010
,  // measure 62
0100
0000
0000
1000
0000
0000
0010
1000
0010
4000
0000
0000
,  // measure 63
3100
0000
0010
0000
0001
0100
0010
1000
,  // measure 64
0100
0000
0000
0000
0000
0000
0010
0000
0000
0000
0000
0000
0001
0000
0010
0000
0001
0000
1000
0000
0000
0010
0000
0000
,  // measure 65
0100
0000
1000
0100
0001
0100
1000
0100
,  // measure 66
0001
0000
0010
0000
0100
1000
0001
0100
,  // measure 67
0010
0001
0010
0000
0100
0000
0001
0010
,  // measure 68
0100
0000
0000
0000
0000
0000
1000
0000
0000
0000
0000
0000
0001
0000
0100
0000
0001
0000
0100
0000
0000
0010
0000
0000
,  // measure 69
1000
0000
0001
0000
0010
0000
1000
0010
,  // measure 70
0001
0000
0000
1000
0000
0000
0010
0100
0010
0400
0000
0000
,  // measure 71
1300
0000
0100
0000
0001
0000
0010
0100
,  // measure 72
1000
0000
0000
0000
0000
0000
0001
0000
0000
0100
0000
0000
0001
0000
0100
0000
0001
0000
0100
0000
0000
0010
0000
0000
,  // measure 73
0001
0000
0010
0000
0100
0001
1000
0010
,  // measure 74
0100
0000
0001
0000
0100
0000
0004
0000
0000
0000
0000
0000
0013
0000
0000
0100
0000
0000
0001
0000
0000
0100
0000
0000
,  // measure 75
1000
0000
0010
0000
0100
0000
1000
0100
,  // measure 76
0001
0000
0000
0000
0000
0000
0010
0000
0000
0000
0000
0000
0100
0000
0010
0000
0100
0000
0010
0000
0000
0001
0000
0000
,  // measure 77
0100
0000
0010
0000
0001
0000
0010
1000
,  // measure 78
0001
0000
0000
0010
0000
0000
0100
1000
0100
4000
0000
0000
,  // measure 79
3001
0000
0100
0000
1000
0100
0001
0010
,  // measure 80
1000
0000
0000
0010
0000
0000
0001
0000
0000
0000
0000
0000
0010
0000
0100
0000
0010
0000
0100
0000
0000
0001
0000
0000
,  // measure 81
0100
0000
1000
0000
0010
0100
0001
0010
,  // measure 82
1000
0000
0000
0010
0000
0000
0100
0010
0100
4000
0000
0000
,  // measure 83
3002
0000
0000
0000
,  // measure 84
0000
0000
0000
0000
,  // measure 85
0003
0000
0000
0000
;

//---------------dance-single - ----------------
#NOTEDATA:;
#CHARTNAME:;
#CHARTHASH:531005279;
#STEPSTYPE:dance-single;
#BANNER:;
#DESCRIPTION:;
#CHARTSTYLE:;
#DIFFICULTY:Challenge;
#METER:19;
#METERF:0.000000;
#LASTSECONDHINT:101.371170;
#RADARVALUES:0.899518,1.205061,0.351985,0.068442,0.532867,644.000000,608.000000,36.000000,7.000000,0.000000,0.000000,7.000000,0.000000,0.000000,0.899518,1.205061,0.351985,0.068442,0.532867,644.000000,608.000000,36.000000,7.000000,0.000000,0.000000,7.000000,0.000000,0.000000;
#CREDIT:Ai-kun;
#NOTES:
// measure 0
0000
0000
0000
0000
,  // measure 1
0000
0000
0000
0000
,  // measure 2
0000
0000
0000
0000
,  // measure 3
0000
0000
0000
0000
,  // measure 4
0000
0000
0000
0000
,  // measure 5
1000
0100
0010
0001
0001
0010
0100
1000
,  // measure 6
1000
0010
0100
0001
0001
0100
0010
1000
,  // measure 7
0001
0010
0100
1000
1000
0010
0100
0001
,  // measure 8
0001
0010
0100
1000
1000
0010
0100
0001
,  // measure 9
1000
0000
0000
0000
0000
0000
0000
0000
0000
0000
0000
0000
0000
0000
0000
0000
0000
0000
0000
0000
0000
0000
0000
0000
0100
0000
0000
0000
0000
0000
0000
0000
0000
0000
0000
0000
0000
0000
0000
0000
0000
0000
0000
0000
0000
0000
0000
0000
0010
0000
0000
0000
0000
0000
0000
0000
0000
0000
0000
0000
0000
0000
0000
0000
0100
0000
0000
0000
0000
0000
0000
0000
0000
0000
0000
0000
0000
0000
0000
0000
0001
0000
0000
0000
0000
0000
0000
0000
0000
0000
0000
0000
0000
0000
0000
0000
0000
0000
0000
0000
0000
0000
0000
0000
0000
0100
0000
0000
0000
0000
0000
0000
0000
0000
0000
0000
0000
0000
0000
0000
0000
0000
0000
0000
0000
0000
0000
0000
0000
0000
0000
0000
0000
0000
0000
0000
0000
0000
0000
0000
0000
0000
0000
0000
1000
0000
0000
0000
0000
0000
0000
0000
0000
0000
0000
0000
0000
0000
0000
0000
0000
0000
0000
0000
0000
0000
0000
0000
0001
0000
0000
0000
0000
0000
0000
0000
0000
0000
0000
0000
0100
0000
0000
0000
0000
0000
0000
0000
0000
0000
0000
0000
,  // measure 10
0010
0000
1000
0001
0100
0000
0001
0000
0010
0000
0100
0000
0100
0000
1000
0000
,  // measure 11
0010
1000
0100
0001
0001
0100
1000
0010
,  // measure 12
0010
0100
0001
0010
1000
0010
0001
0100
,  // measure 13
0010
1000
0100
0010
0010
0100
1000
0010
,  // measure 14
0100
0001
0010
0100
0100
0010
0001
1000
,  // measure 15
1001
0000
0000
0000
0000
0000
0000
0000
0000
0000
0000
0000
0000
0000
0000
0000
0000
0000
0000
0000
0000
0000
0000
0000
0001
0000
0000
0000
0000
0000
0000
0000
0000
0000
0000
0000
0000
0000
0000
0000
0000
0000
0000
0000
0000
0000
0000
0000
0010
0000
0000
0000
0000
0000
0000
0000
0000
0000
0000
0000
0000
0000
0000
0000
0000
0000
0000
0000
0000
0000
0000
0000
0000
0000
0000
0000
0000
0100
0000
0000
0000
0000
0000
0000
0000
0000
0000
0000
0000
0000
0000
0000
0000
0000
0000
0000
1000
0000
0000
0000
0000
0000
0000
0000
0000
0000
0000
0000
0000
0000
0000
0000
0000
0000
0000
0001
0000
0000
0000
0000
0000
0000
0000
0000
0000
0100
0000
0000
0000
0000
0000
0000
0000
0000
0000
0000
0010
0000
0000
0000
0000
0000
0000
0000
0000
0000
0000
0000
0000
0000
0000
0000
0000
0000
0000
0000
0000
0000
0000
0000
0000
0000
1000
0000
0000
0000
0000
0000
0000
0000
0000
0000
0000
0000
0001
0000
0000
0000
0000
0000
0000
0000
0000
0000
0000
0000
0000
0000
0000
0000
0000
0000
,  // measure 16
0020
0000
0000
0000
0130
0000
0000
0000
1000
0000
0000
0000
0001
0000
1000
0000
0000
0000
0000
0000
0001
1000
0100
0000
1000
0000
0010
0000
0000
0000
0000
0000
,  // measure 17
1010
1000
0001
0011
0010
0100
1100
1000
,  // measure 18
1001
0001
0100
0110
0010
1000
1010
1000
,  // measure 19
1001
0001
0010
0110
0100
1000
1001
0001
,  // measure 20
0101
0000
0100
0000
0010
0000
0110
0000
0100
0000
0010
0000
1010
0000
1000
0001
,  // measure 21
0010
0000
0001
0000
0100
0000
1000
0100
0001
0000
0010
0100
0000
1000
0001
0000
,  // measure 22
0100
0000
0001
1000
0100
0000
0010
0000
0001
0000
0100
0001
0000
0000
0000
0000
,  // measure 23
1000
0000
0000
0000
0000
0000
0000
0000
0000
0000
0000
0000
0100
0000
0000
0000
0000
0000
0000
0000
0000
0000
0000
0000
0010
0000
0000
0000
0000
0000
0000
0000
0000
0000
0000
0000
0000
0000
0000
0000
0001
0000
0000
0000
0000
0000
0000
0000
0000
0000
0000
0000
0000
0000
0000
0000
0000
0000
0000
0000
0000
0000
0000
0000
0000
0000
0000
0000
0000
0000
0000
0000
0000
0000
0000
0000
0000
0000
0000
0000
0000
0000
0000
0000
0000
0000
0000
0000
0000
0000
0000
0000
0000
0000
0000
0000
0100
0000
0000
0000
0000
0000
0000
0000
0000
0000
0000
0000
0010
0000
0000
0000
0000
0000
0000
0000
0000
0000
0000
0000
0000
0000
0000
0000
0000
0000
0000
0000
0000
0000
0000
0000
1000
0000
0000
0000
0000
0000
0000
0000
0000
0000
0000
0000
0001
0000
0000
0000
0000
0000
0000
0000
0000
0000
0000
0000
0000
0000
0000
0010
0000
0000
0000
0000
0000
0000
0000
0000
0000
0000
0000
0000
0000
0000
0100
0000
0000
0000
0000
0000
0000
0000
0000
0000
0000
0000
0002
0000
0000
0000
0000
0000
,  // measure 24
0000
0000
0000
0000
0000
0000
0103
0000
0000
1000
0000
0000
0001
0000
0100
0000
0010
0000
1000
0000
0000
0001
0000
0000
,  // measure 25
1000
0000
0001
0101
0100
0000
0001
1001
,  // measure 26
1000
0000
0001
0000
0010
0100
1000
0000
0010
0000
0000
0000
0100
0000
0101
0000
,  // measure 27
0001
0000
0010
0110
0100
0000
1000
1100
,  // measure 28
0100
0000
1000
0000
0001
0100
0010
0000
1000
0000
0000
0000
0001
0010
0000
0001
,  // measure 29
1000
0000
0100
0000
0010
0001
0000
1000
0001
0000
0100
0010
1000
0000
0000
0000
,  // measure 30
0200
0000
0000
0000
0000
0000
0310
0000
0000
0000
0000
0000
0001
0000
0000
1000
0000
0000
0000
0010
0000
0100
0000
0001
0000
0000
0000
0000
1000
0000
0000
0000
,  // measure 31
0100
0000
0010
1100
0001
0000
0100
1010
,  // measure 32
0001
0000
1000
0000
0100
0010
0001
0000
1000
0000
0000
0000
0010
0000
0101
0000
,  // measure 33
1000
0000
0001
0110
1000
0000
0010
0101
,  // measure 34
1000
0000
0001
0000
0010
0100
1000
0000
0001
0000
0000
0000
0100
0000
1010
0000
,  // measure 35
0001
0000
1000
0000
0100
0010
1000
0000
0010
0000
0100
1000
0001
0000
0000
0000
,  // measure 36
0100
0001
1000
0000
0200
0000
0310
0000
0001
0000
2000
0000
3010
1000
0001
0000
,  // measure 37
1000
0001
0010
0001
1000
0010
0100
0001
1000
0100
0010
0001
1000
0100
0010
0001
,  // measure 38
0100
0000
0001
0000
1000
0100
0000
1000
0001
0000
0100
0001
0000
1000
0100
0000
,  // measure 39
0010
0100
1000
0001
0100
0010
0100
0001
1000
0100
0010
0001
1000
0010
0100
0001
,  // measure 40
1000
0000
0100
0000
0010
0100
0000
1000
0001
0000
0100
0010
0000
0100
0001
0000
,  // measure 41
1000
0000
0000
0000
0001
0000
0000
0000
0100
0000
2000
0000
0000
0000
0000
0000
3100
0000
0000
0000
0010
0000
0000
1000
0000
0000
0000
0000
0001
0000
0010
0000
,  // measure 42
0000
0000
0000
0100
0000
0000
1000
0000
0000
0000
0000
0000
0001
0000
0000
0000
0100
0000
0000
0000
0001
0000
0000
0000
0010
0000
0000
0100
0000
0000
1000
0000
0000
0010
0000
0000
0000
0000
0000
0000
0000
0000
0000
0000
0000
0000
0000
0000
,  // measure 43
1010
0010
0100
0101
0001
0010
0100
1100
,  // measure 44
1000
0010
0100
0101
0001
1000
0100
0110
,  // measure 45
0010
0100
1000
1100
0001
0100
0010
1010
,  // measure 46
0001
0010
0100
1001
1100
0010
1001
0010
,  // measure 47
0101
0000
0000
0001
1000
0000
0100
0000
1000
0010
0000
0000
0100
0000
0001
0000
,  // measure 48
1000
0001
0100
0001
0010
0100
1000
0001
,  // measure 49
0100
0001
0010
0100
1000
0010
0100
0001
1000
0100
0010
0001
0100
0010
1000
0001
,  // measure 50
0010
0000
0000
0100
0000
0000
0000
0000
1000
0000
0000
0000
0001
0000
0100
0000
0001
0000
0010
0000
0100
1000
0000
0000
1001
0000
0000
0000
0000
0000
0000
0000
,  // measure 51
1000
0000
0001
0000
0010
0000
0100
1000
,  // measure 52
0001
0000
0000
0000
0100
0000
0000
0000
0010
1000
0010
0000
1000
0000
0001
0000
,  // measure 53
0010
0000
0001
0000
0100
0000
0010
1000
,  // measure 54
0001
0000
0000
0000
0010
0000
0000
0000
0100
1000
0100
0000
4000
0000
0000
0000
,  // measure 55
3001
0000
0100
0000
0010
0100
0001
0010
,  // measure 56
0100
0000
0000
0000
1000
0000
0000
0000
0010
0100
0010
0000
1000
0000
0001
0000
,  // measure 57
0010
0000
0100
0000
1000
0001
0100
0010
,  // measure 58
0100
0001
0100
0000
0004
0000
0000
0000
0013
0000
0100
0000
1000
0000
0001
0000
,  // measure 59
0100
0000
0010
0000
1000
0000
0001
0010
,  // measure 60
0100
0000
0000
0000
1000
0000
0000
0000
0001
0100
0001
0000
0100
0000
0010
0000
,  // measure 61
1000
0000
0001
0000
0100
0000
0001
0010
,  // measure 62
0100
0000
0000
0000
1000
0000
0000
0000
0010
1000
0010
0000
4000
0000
0000
0000
,  // measure 63
3100
0000
0010
0000
0001
0100
0010
1000
,  // measure 64
0100
0000
0000
0000
0010
0000
0000
0000
0001
0010
0001
0000
1000
0000
0010
0000
,  // measure 65
0100
0000
1000
0100
0001
0100
1000
0100
,  // measure 66
0001
0000
0010
0000
0100
1000
0001
0100
,  // measure 67
0010
0001
0010
0000
0100
0000
0001
0010
,  // measure 68
0100
0000
0000
0000
1000
0000
0000
0000
0001
0100
0001
0000
0100
0000
0010
0000
,  // measure 69
1000
0000
0001
0000
0010
0000
1000
0010
,  // measure 70
0001
0000
0000
0000
1000
0000
0000
0000
0010
0100
0010
0000
0400
0000
0000
0000
,  // measure 71
1300
0000
0100
0000
0001
0000
0010
0100
,  // measure 72
1000
0000
0000
0000
0001
0000
0100
0000
0001
0100
0001
0000
0100
0000
0010
0000
,  // measure 73
0001
0000
0010
0000
0100
0001
1000
0010
,  // measure 74
0100
0001
0100
0000
0004
0000
0000
0000
0013
0000
0100
0000
0001
0000
0100
0000
,  // measure 75
1000
0000
0010
0000
0100
0000
1000
0100
,  // measure 76
0001
0000
0000
0000
0010
0000
0000
0000
0100
0010
0100
0000
0010
0000
0001
0000
,  // measure 77
0100
0000
0010
0000
0001
0000
0010
1000
,  // measure 78
0001
0000
0000
0000
0010
0000
0000
0000
0100
1000
0100
0000
4000
0000
0000
0000
,  // measure 79
3001
0000
0100
0000
1000
0100
0001
0010
,  // measure 80
1000
0000
0010
0000
0001
0000
0000
0000
0010
0100
0010
0000
0100
0000
0001
0000
,  // measure 81
0100
0000
1000
0000
0010
0100
0001
0010
,  // measure 82
1000
0000
0000
0000
0010
0000
0000
0000
0100
0010
0100
0000
4000
0000
0000
0000
,  // measure 83
3002
0000
0000
0000
,  // measure 84
0000
0000
0000
0000
,  // measure 85
0003
0000
0000
0000
;
