#TITLE:A Tair;
#SUBTITLE:-Tight And Solid ReMix-;
#ARTIST:Shinji Orito;
#TITLETRANSLIT:;
#SUBTITLETRANSLIT:;
#ARTISTTRANSLIT:;
#GENRE:;
#CREDIT:skeleton made by Nezemarth;
#BANNER:A Tair -Tight And Solid ReMix-.png;
#BACKGROUND:A Tair -Tight And Solid ReMix--bg.png;
#LYRICSPATH:;
#CDTITLE:../_YSD cdtitles/ysd sale3 cdtitle.png;
#MUSIC:A Tair -Tight and Solid ReMix-.ogg;
#OFFSET:-0.172000;
#SAMPLESTART:113.772003;
#SAMPLELENGTH:25.600000;
#SELECTABLE:YES;
#BPMS:0.000000=150.000000
;
#STOPS:219.000000=0.200000
;
#BGCHANGES:;
#KEYSOUNDS:;
#ATTACKS:;

//---------------dance-single - ----------------
#NOTES:
     dance-single:
     :
     Beginner:
     1:
     0.090210,0.149073,0.123548,0.000000,0.000000,92.000000,74.000000,18.000000,0.000000,0.000000,0.000000,0.090210,0.149073,0.123548,0.000000,0.000000,92.000000,74.000000,18.000000,0.000000,0.000000,0.000000:
0000
0000
0000
0000
,
0000
0000
0000
0000
,
0000
0000
0000
0000
,
0000
0000
0000
0000
,
0000
0000
0000
0000
,
1000
0000
0000
0000
,
0001
0000
0000
0000
,
0100
0000
0000
0000
,
0010
0000
0000
0000
,
1000
0000
0000
0000
,
0001
0000
0000
0000
,
0010
0000
0000
0000
,
0100
0000
0000
0000
,
1000
0000
0000
0000
,
0001
0000
0000
0000
0000
0000
0000
1001
,
0000
0000
0000
0000
,
1000
0000
0000
0000
,
0110
0000
0000
0000
,
0001
0000
0000
0000
,
1000
0000
0000
0000
,
0100
0000
0000
0000
,
0110
0000
0000
0000
,
0001
0000
0000
0000
0000
0000
0000
1001
,
0000
0000
0000
0000
,
1000
0000
0000
0000
,
1001
0000
0000
0000
,
0001
0000
0000
0000
,
0100
0000
0000
0000
,
0010
0000
0000
0000
,
1001
0000
0000
0000
,
1000
0000
0000
0000
,
0100
0000
0000
0000
,
0010
0000
0000
0000
,
1001
0000
0000
0000
,
0001
0000
0000
0000
,
0100
0000
0000
0000
,
0010
0000
0000
0000
,
1001
0000
0000
0000
,
1000
0000
0000
0000
,
0100
0000
0000
0000
,
0010
0000
0000
0000
,
1001
0000
0000
0000
,
0010
0000
0000
0000
,
0100
0000
0000
0000
,
0010
0000
0000
0000
,
1001
0000
0000
0000
,
0001
0000
0000
0000
,
1000
0000
0000
0000
,
0010
0000
0000
0000
,
0110
0000
0000
0000
,
0100
0000
0000
0000
,
0001
0000
0000
0000
,
1000
0000
0000
0000
,
1001
0000
0000
0000
,
0100
0000
0000
0000
,
0000
0000
0000
0000
,
0000
0000
0000
0000
0000
0000
0000
0010
,
0000
0000
0000
0000
,
0000
0000
0000
0000
0000
0000
0000
0001
,
0000
0000
0000
0000
,
0000
0000
0000
0000
0000
0000
0000
0100
,
0000
0000
0000
0000
,
0000
0000
0000
0000
0000
0000
0000
0110
,
0000
0000
0000
0000
,
0000
0000
0000
0000
0000
0000
0000
1000
,
0000
0000
0000
0000
,
0000
0000
0000
0000
0000
0000
0000
0001
,
0000
0000
0000
0000
,
0000
0000
0000
0000
0000
0000
0000
0010
,
0000
0000
0000
0000
,
0000
0000
0000
0000
0000
0000
0000
0110
,
0000
0000
0000
0000
0000
0000
0000
1000
,
0000
0000
0000
0000
0000
0000
0000
0001
,
0000
0000
0000
0000
0000
0000
0000
0100
,
0000
0000
0000
0000
0000
0000
0000
0110
,
0000
0000
0000
0000
0000
0000
0000
0001
,
0000
0000
0000
0000
0000
0000
0000
1000
,
0000
0000
0000
0000
0000
0000
0000
0100
,
0000
0000
0000
0000
0000
0000
0000
1001
,
0000
0000
0000
0000
0000
0000
0000
0001
,
0000
0000
0000
0000
0000
0000
0000
0100
,
0000
0000
0000
0000
0000
0000
0000
0010
,
0000
0000
0000
0000
0000
0000
0000
1001
,
0000
0000
0000
0000
0000
0000
0000
1000
,
0000
0000
0000
0000
0000
0000
0000
0100
,
0000
0000
0000
0000
0000
0000
0000
0010
,
0000
0000
0000
0000
0000
0000
0000
1001
;

//---------------dance-single - ----------------
#NOTES:
     dance-single:
     :
     Easy:
     3:
     0.155906,0.213507,0.109821,0.205914,0.000000,159.000000,143.000000,16.000000,30.000000,0.000000,0.000000,0.155906,0.213507,0.109821,0.205914,0.000000,159.000000,143.000000,16.000000,30.000000,0.000000,0.000000:
0000
0000
0000
0000
,
0000
0000
0000
0000
,
0000
0000
0000
0000
,
0000
0000
0000
0000
,
0000
0000
0000
0000
,
2000
0000
0000
0000
0000
3000
0000
0000
,
0020
0000
0030
0000
,
0200
0000
0000
0000
0000
0300
0000
0000
,
0002
0000
0003
0000
,
0020
0000
0000
0000
0000
0030
0000
0000
,
0200
0000
0300
0000
,
2000
0000
0000
0000
0000
3000
0000
0000
,
0002
0000
0003
0000
,
0200
0300
0020
0030
,
2000
0000
0000
0000
3001
0000
0000
1001
,
0000
0001
0000
0100
,
0000
0010
0000
1000
,
1001
0000
0001
0000
,
1000
0000
0010
0000
,
0100
0000
0010
0000
,
1000
0000
0001
0000
,
1001
0000
1000
0000
,
0100
0000
0000
0000
0010
0000
0000
0110
,
0000
0010
0000
0001
,
0000
1000
1000
0010
,
1010
0000
1000
0000
,
0100
0000
0010
0000
,
0001
0000
0100
0000
,
0010
0000
1000
0000
,
1001
0000
0001
0000
,
0100
0000
0010
0000
,
0100
0000
0001
0000
,
1000
0000
0100
0000
,
0110
0000
0010
0000
,
0001
0000
1000
0000
,
0010
0000
0100
0000
,
0001
0000
0010
0000
,
1001
0000
1000
0000
,
0001
0000
0100
0000
,
0010
0000
1000
0000
,
0100
0000
0010
0000
,
1001
0000
0001
0000
,
0100
0000
0010
0000
,
1000
0000
0100
0000
,
0010
0000
0001
0000
,
1001
0000
1000
0000
,
0010
0000
0100
0000
,
0001
0000
0010
0000
,
0100
0000
1000
0000
,
1001
0000
0001
0000
,
1000
0000
0010
0000
,
0100
0000
0010
0000
,
1000
0000
0100
0000
,
0010
0000
0001
0000
,
0100
0000
0000
0000
0010
0000
0000
2000
,
0000
0000
0000
0000
0000
3000
0000
0020
,
0000
0000
0000
0000
0000
0030
0000
0200
,
0000
0000
0000
0000
0000
0300
0000
0002
,
0000
0000
0000
0000
0000
0003
0000
0020
,
0000
0000
0000
0000
0000
0030
0000
0200
,
0000
0000
0000
0000
0000
0300
0000
2000
,
0000
0000
0000
0000
0000
3000
0000
0002
,
0000
0000
0000
0000
0000
0003
0000
0200
,
0000
0000
0000
0000
0000
0300
0000
0020
,
0000
0000
0000
0000
0000
0030
0000
2000
,
0000
0000
0000
0000
0000
3000
0000
0200
,
0000
0000
0000
0000
0000
0300
0000
0020
,
0000
0000
0000
0000
0000
0030
0000
0002
,
0000
0000
0000
0000
0000
0003
0000
2000
,
0000
0000
0000
0000
0000
3000
0000
0020
,
0000
0000
0000
0000
0000
0030
0000
0110
,
0000
0000
0000
1000
0000
0000
0000
0001
,
0000
0000
0000
0010
0000
0000
0000
0100
,
0000
0000
0000
1000
0000
0000
0000
0010
,
0000
0000
0000
0100
0000
0000
0000
0110
,
0000
0000
0000
0001
0000
0000
0000
1000
,
0000
0000
0000
0100
0000
0000
0000
0010
,
0000
0000
0000
0001
0000
0000
0000
1000
,
0000
0000
0000
0010
0000
0000
0000
1001
,
0000
0000
0000
0001
0000
0000
0000
1000
,
0000
0000
0000
0100
0000
0000
0000
0010
,
0000
0000
0000
0001
0000
0000
0000
1000
,
0000
0000
0000
0010
0000
0000
0000
0110
,
0000
0000
0000
0100
0000
0000
0000
0001
,
0000
0000
0000
0010
0000
0000
0000
0100
,
0000
0000
0000
1000
0000
0000
0000
0002
,
0000
0000
0000
0000
0000
0003
0000
2002
,
0000
0000
0000
0000
,
0000
0000
0000
0000
0000
0000
0000
3003
;

//---------------dance-single - ----------------
#NOTES:
     dance-single:
     :
     Medium:
     7:
     0.280435,0.366012,0.034319,0.720698,0.147572,286.000000,281.000000,5.000000,105.000000,0.000000,0.000000,0.280435,0.366012,0.034319,0.720698,0.147572,286.000000,281.000000,5.000000,105.000000,0.000000,0.000000:
0000
0000
0000
0000
,
0000
0000
0000
0000
,
0000
0000
0000
0000
,
0000
0000
0000
0000
,
0000
0000
0000
0000
,
2000
0000
0000
0000
0000
3010
0000
0000
,
2000
0000
0000
0000
0000
0000
0000
3100
,
0020
0000
0000
0000
0000
0000
0000
0000
0000
0000
0031
0000
0000
0100
0000
0000
,
0020
0000
2030
0000
,
3002
0000
0000
0000
0000
0000
0000
0000
0000
0000
0013
0000
0000
0100
0000
0000
,
2000
0000
0000
0000
0000
3001
0200
0000
,
0320
0000
0000
0000
0000
0000
0000
0000
0000
0000
1030
0000
0000
0100
0000
0000
,
0020
0000
0032
2003
,
3020
0000
0000
0130
0000
0000
0002
0000
,
0023
0000
0000
0000
0230
0000
1300
0001
,
0000
0000
0100
0000
0000
0100
0000
0000
0100
0000
0000
0100
0000
0000
0100
0000
,
0000
0000
0010
0000
0000
0010
0000
0000
0010
0000
0000
0010
0000
0000
0010
0000
,
0000
0000
1000
0000
0000
1000
0000
0000
1000
0000
0000
1000
0000
0000
1000
0000
,
0000
0000
0100
0000
0000
0100
0000
0000
0100
0000
0000
0100
0000
0000
0100
0000
,
0000
0000
0010
0000
0000
0010
0000
0000
0010
0000
0000
0010
0000
0000
0010
0000
,
0000
0000
0001
0000
0000
0001
0000
0000
0001
0000
0000
0001
0000
0000
0001
0000
,
0000
0000
1000
0000
0000
1000
0000
0000
0010
0000
0000
0010
0000
0000
1000
0000
,
0000
0000
0001
0000
0000
0001
0000
0000
0010
0000
0000
0010
0000
0000
0110
0000
,
0000
0000
1000
0000
0000
1000
0000
0000
0001
0000
0000
0001
0000
0000
0100
0000
,
0000
0000
0001
0000
0000
0001
0000
0000
1000
0000
0000
1000
0000
0000
0100
0000
,
0020
0000
0000
0000
0000
0000
0000
0000
0000
0000
0031
0000
0000
0100
0000
0000
,
0020
0000
0000
0000
0000
1030
0002
0000
,
0023
0000
0000
0000
0000
0000
0000
0000
0000
0000
0031
0000
0000
0100
0000
0000
,
0020
0000
2030
3002
,
0023
0000
0000
0000
0000
0000
0000
0000
0000
0000
0130
0000
0000
0100
0000
0000
,
2000
0000
0000
0000
0000
0000
0000
3001
,
0200
0000
0000
0000
0000
0000
0000
0000
0000
0000
0310
0000
0000
1000
0000
0000
,
0002
0000
0023
0000
,
0032
0000
0000
0000
0000
0000
0000
0000
0000
0000
1003
0000
0000
0010
0000
0000
,
0200
0000
0000
0000
0000
0301
2000
0000
,
3200
0000
0000
0000
0000
0000
0000
0000
0000
0000
0301
0000
0000
0100
0000
0000
,
2000
0000
3002
0203
,
0320
0000
0000
0000
0000
0000
0000
1030
,
0002
0000
0000
0013
0000
0000
0200
0000
,
2300
0000
0000
0000
0000
0000
0000
0000
0000
0000
3010
0000
0000
0100
0000
0000
,
0002
0000
0023
0000
,
0230
0000
0000
0300
,
0200
0000
0000
1300
0000
0000
0020
0000
,
0230
0000
0000
0000
,
0302
0000
0000
0000
,
0023
0000
0000
0030
,
0020
0000
0000
0031
0000
0000
0200
0000
,
0320
0000
0000
0000
,
2030
0000
0000
0000
0000
0000
0000
0000
0000
0000
3100
0000
0000
0010
0000
0000
,
0002
0000
0000
0000
0000
0000
0000
0000
0000
0000
0103
0000
0000
0010
0000
0000
,
2000
0000
0000
3001
0000
0000
0020
0000
,
0230
0000
0000
1300
0000
0000
0020
0000
,
0230
0000
0000
0000
0302
0000
0023
0030
,
0020
0000
0000
1030
0000
0010
0001
0010
,
0200
0000
0000
0000
0000
0000
1300
0000
0001
0000
0000
1001
0000
0000
2000
0000
,
0000
0000
0000
0000
,
3010
0100
0002
0000
1003
0200
0000
0320
,
0000
0000
0032
0000
0000
0203
0000
0000
,
0000
0000
0000
0000
0310
1000
0001
0200
,
0000
0000
0000
0000
0000
0301
2000
0000
,
0000
0000
0000
3200
0000
0000
0000
0320
,
0000
0000
0000
0000
0000
0000
0000
0032
,
0000
0023
0000
0130
1000
0010
0100
0002
,
0000
0000
0000
0000
,
1003
0100
0020
0000
0130
1000
0001
0200
,
0000
0000
0320
0000
0000
0032
0000
0000
,
0000
0000
0000
0000
0013
0100
0001
2000
,
0000
0000
0000
0000
0000
0000
0000
3200
,
0000
0000
0000
0320
0000
0032
0000
2003
,
0000
0000
0000
0000
0000
0000
0000
3020
,
0000
0000
0000
0000
0000
0000
0130
0000
0000
0100
0000
0000
0100
0000
0002
0000
,
0000
0000
1003
0000
0000
0000
0100
0000
0010
0000
0000
0001
0000
0000
2000
0000
,
0000
3001
0000
0100
0010
2000
0000
3002
,
0000
0000
1003
0000
0000
0000
0100
0000
0010
0000
0000
0001
0000
0000
0200
0000
,
0000
0310
0000
2000
0000
3001
0000
0011
,
0000
0010
0000
0100
2000
0000
3001
2000
,
0000
3010
0000
0100
0000
0001
1000
0200
,
0000
0000
0310
0000
0000
0000
0001
0000
1000
0000
0000
0010
0000
0000
0200
0000
,
0000
0301
0000
2000
0000
3100
0000
0110
,
0000
0000
0010
0000
0000
0000
0001
0000
1000
0000
0000
0010
0000
0000
0200
0000
,
0000
0301
0000
1000
0100
0020
0000
0032
,
0000
0000
0103
0000
0000
0000
0010
0000
0001
0000
0000
0010
0000
0000
2000
0000
,
0000
3100
0000
0020
0000
0031
0000
1001
,
0000
1000
0020
0000
0130
0002
0000
2003
,
0000
3100
0000
0020
0000
0031
1000
0010
,
0100
0000
0000
0100
0000
0000
0100
0000
0000
0100
0000
0000
0100
0000
0000
0000
,
0010
0000
0000
0010
0000
0000
0010
0000
0000
0010
0000
0000
0010
0000
2000
0000
,
0000
0000
0000
0000
,
0000
0000
0000
0000
0000
0000
0000
3000
;

//---------------dance-single - ----------------
#NOTES:
     dance-single:
     :
     Hard:
     12:
     0.408886,0.610020,0.013728,0.803064,0.212778,417.000000,415.000000,2.000000,117.000000,0.000000,0.000000,0.408886,0.610020,0.013728,0.803064,0.212778,417.000000,415.000000,2.000000,117.000000,0.000000,0.000000:
// measure 0
0000
0000
0000
0000
,  // measure 1
0000
0000
0000
0000
,  // measure 2
0000
0000
0000
0000
,  // measure 3
0000
0000
0000
0000
,  // measure 4
0000
0000
0000
0000
,  // measure 5
2000
0000
0000
0000
0000
3020
0000
0000
,  // measure 6
2030
0000
0000
0000
0000
0000
0000
0000
0000
0000
0000
0000
0000
0000
3100
0010
,  // measure 7
0002
0000
0000
0000
0000
0000
0000
0000
0000
0000
0203
0000
0000
0320
0000
0000
,  // measure 8
2030
0000
3200
0000
,  // measure 9
0320
0000
0000
0000
0000
0000
0000
0000
0000
0000
0032
0000
0000
2003
0000
0000
,  // measure 10
3020
0000
0000
0000
0000
0130
0002
0000
,  // measure 11
0023
0000
0000
0000
0000
0000
0000
0000
0000
0000
2030
0000
0000
3020
0000
0000
,  // measure 12
0032
0000
0203
0320
,  // measure 13
2030
0000
0000
3200
0000
0000
0320
0000
,  // measure 14
0032
0000
0000
0000
2003
0000
0010
3001
,  // measure 15
0000
0000
0001
0000
0000
0001
0000
0000
0100
0000
0000
0100
0000
0000
0100
0000
,  // measure 16
0001
0000
1000
0000
0000
1000
0000
0000
0100
0000
0000
0100
0000
0000
0100
0000
,  // measure 17
0010
0000
0001
0000
0000
0001
0000
0000
0100
0000
0000
0100
0000
0000
0100
0000
,  // measure 18
0010
0000
1000
0000
0000
1000
0000
0000
0100
0000
0000
0100
0000
0000
0100
0000
,  // measure 19
0010
0000
0001
0000
0000
0001
0000
0000
0100
0000
0000
0100
0000
0000
0100
0000
,  // measure 20
0010
0000
1000
0000
0000
1000
0000
0000
0100
0000
0000
0100
0000
0000
0100
0010
,  // measure 21
0001
0000
1000
0000
0000
1000
0000
0000
0010
0000
0000
0010
0000
0000
0010
0000
,  // measure 22
0100
0000
0001
0000
0000
0001
0000
0000
0010
0000
0000
0010
0100
0000
0110
0000
,  // measure 23
0000
0000
1000
0000
0000
1000
0000
0000
0010
0000
0000
0010
0000
0000
0100
0000
,  // measure 24
0001
0000
0010
0000
0000
0010
0000
0000
0100
0000
0000
0100
1000
0001
1000
0000
,  // measure 25
0020
0000
0000
0000
0100
0000
0000
0000
1030
0000
0200
0000
0000
0320
0000
0000
,  // measure 26
0032
0000
0010
0000
0103
0001
2000
0000
,  // measure 27
3200
0000
0000
0000
0010
0000
0000
0000
1300
0000
0002
0000
0000
0203
0000
0000
,  // measure 28
0320
0000
0000
0000
0001
0000
0000
0000
0230
0000
0000
0000
0301
0000
1000
0100
,  // measure 29
0020
0000
0000
0000
0001
0000
0000
0000
0130
0000
2000
0000
3000
2000
0000
3000
,  // measure 30
0002
0000
0000
0000
0100
0000
0000
0000
0010
0000
0000
0000
1003
0000
0001
0100
,  // measure 31
0002
0000
0000
0000
1000
0000
0000
0000
0103
0000
0020
0000
0000
2030
0000
0000
,  // measure 32
3200
0000
0000
0000
0010
0000
0000
0000
2300
0000
0000
0000
3010
0100
0001
0000
,  // measure 33
0200
0000
0000
0000
0010
0000
0000
0000
0301
0000
2000
0000
0000
3200
0000
0000
,  // measure 34
0320
0000
0001
0000
0130
1000
0002
0000
,  // measure 35
0203
0000
0000
0000
0010
0000
0000
0000
0301
0000
0020
0000
0000
2030
0000
0000
,  // measure 36
3020
0000
0000
0000
0100
0000
0000
0000
0032
0000
0000
0000
1003
0000
0010
0100
,  // measure 37
0002
0000
0000
0000
0010
0000
0000
0000
0100
0000
0000
0000
1003
0000
0010
0100
,  // measure 38
0002
0000
0013
0100
2000
0000
3002
0000
,  // measure 39
0203
0000
0000
0000
1000
0000
0000
0000
0310
0000
2000
0000
3100
0010
0000
0010
,  // measure 40
0002
0000
0000
0000
0100
0000
0000
0000
2003
0000
0000
0000
3100
0010
0001
0000
,  // measure 41
0200
0010
1000
0001
,  // measure 42
0320
0000
1030
0200
0010
0000
2300
0000
,  // measure 43
3020
0100
0001
1000
,  // measure 44
0230
0000
0000
0000
1000
0000
0000
0000
0010
0000
0000
0000
0301
0000
0100
0010
,  // measure 45
2000
0100
0001
0010
,  // measure 46
3200
0000
0310
0002
1000
0000
0203
0000
,  // measure 47
0320
0001
0100
1000
,  // measure 48
0230
0000
0000
0000
1000
0000
0000
0000
0301
0000
1000
0000
0100
0010
0001
0000
,  // measure 49
2000
0000
0000
0000
0100
0000
0000
0000
3010
0000
0100
0000
0001
2000
0000
0000
,  // measure 50
3200
0000
0310
0002
0100
0000
0023
0000
,  // measure 51
0230
0000
1300
0020
0100
0000
0032
0000
,  // measure 52
0023
0000
0000
0000
0100
0000
0000
0000
2030
0000
0000
0000
3100
0000
0010
0001
,  // measure 53
2000
0000
0000
0000
3010
0000
0100
0000
0001
0000
1000
0000
0100
0010
0001
0000
,  // measure 54
1000
0000
0010
0000
1000
0000
0100
0000
0010
0001
0010
0001
0000
0000
2001
0000
,  // measure 55
0000
0000
0000
0000
,  // measure 56
3100
0010
0002
0000
0103
0020
0000
2030
,  // measure 57
0000
0000
3002
0000
0000
0023
0000
0000
,  // measure 58
0000
0000
0000
0000
0130
1000
0010
0200
,  // measure 59
0000
0000
0000
0000
0000
0301
0200
0000
,  // measure 60
0000
0000
0000
0302
0000
0000
0000
2003
,  // measure 61
0000
0000
0000
0000
0000
0000
3000
2000
,  // measure 62
0000
3200
0000
1300
0010
0001
0010
0200
,  // measure 63
0000
0000
0000
0000
,  // measure 64
0301
1000
0200
0000
0310
0001
0010
0200
,  // measure 65
0000
0000
2300
0000
0000
3020
0000
0000
,  // measure 66
0000
0000
0000
0000
0031
0010
1000
0002
,  // measure 67
0000
0000
0000
0000
0000
0000
0000
0023
,  // measure 68
0000
0000
0000
0230
0000
2300
0000
3020
,  // measure 69
0000
0000
0000
0000
0000
0000
0000
0130
,  // measure 70
0001
0000
0000
0001
0000
0000
0001
0000
0000
0000
0100
0001
0100
0001
0100
0000
,  // measure 71
0001
0000
1000
0000
0000
0000
0100
0000
0010
0000
0001
0020
0000
0000
0130
0000
,  // measure 72
1000
0001
0000
0100
0010
2000
0000
3001
,  // measure 73
0010
0000
0100
0000
0000
0000
1000
0000
0010
0000
0001
0020
0000
0000
0130
0000
,  // measure 74
0001
1000
0000
0200
0000
0310
0001
0100
,  // measure 75
0010
1000
0000
0001
0010
0100
0000
1000
,  // measure 76
0010
0000
0100
0000
0000
0000
0001
0000
1000
0000
0100
0000
0010
0001
1000
0000
,  // measure 77
0010
0000
0100
0000
0000
0000
0001
0000
1000
0000
0100
0010
0000
0000
0001
0000
,  // measure 78
0100
0010
0000
1000
0001
0010
0100
1000
,  // measure 79
0001
0000
0100
0000
0000
0000
0010
0000
1000
0000
0001
0020
0000
0000
0130
0000
,  // measure 80
1000
0001
0000
0100
0010
2000
0000
3100
,  // measure 81
0010
0000
0001
0000
0000
0000
1000
0000
0010
0000
0001
0020
0000
0000
1030
0000
,  // measure 82
0100
0010
0000
0002
0000
0103
0010
1000
,  // measure 83
0100
0010
0001
0100
0001
2000
0000
3100
,  // measure 84
0010
0001
1000
0020
0000
0130
0001
1000
,  // measure 85
0010
0000
0000
0010
0000
0000
0010
0000
0000
0010
0000
0000
0010
0000
1000
0000
,  // measure 86
0100
0000
0000
0100
0000
0000
0100
0000
0010
0000
0001
1000
0001
1000
0002
0000
,  // measure 87
0000
0000
0000
0000
,  // measure 88
0000
0000
0000
0000
0000
0000
0000
0003
;
