#TITLE:9876734123;
#SUBTITLE:;
#ARTIST:Silentroom;
#TITLETRANSLIT:;
#SUBTITLETRANSLIT:;
#ARTISTTRANSLIT:;
#GENRE:;
#CREDIT:;
#BANNER:9876734123.png;
#BACKGROUND:9876734123-bg.png;
#LYRICSPATH:;
#CDTITLE:../_YSD cdtitles/ysd plat cdtitle.png;
#MUSIC:9876734123.ogg;
#OFFSET:0.694000;
#SAMPLESTART:86.440002;
#SAMPLELENGTH:24.459000;
#SELECTABLE:YES;
#DISPLAYBPM:157.000000;
#BPMS:0.000000=157.000000
,140.000000=314.000000
,140.500000=157.000000
;
#STOPS:140.000000=0.095543,
226.000000=0.191086,
226.500000=0.191078
;
#BGCHANGES:;
#KEYSOUNDS:;
#ATTACKS:;

//---------------dance-single - ----------------
#NOTES:
     dance-single:
     You are (NOT) safe.:
     Beginner:
     9:
     0.378754,0.419011,0.169746,0.024249,0.088915,328.000000,307.000000,21.000000,3.000000,0.000000,0.000000,0.378754,0.419011,0.169746,0.024249,0.088915,328.000000,307.000000,21.000000,3.000000,0.000000,0.000000:
0000
0000
0000
0000
,
0000
0000
0000
0000
,
0000
0000
0000
0000
,
0000
0000
0000
0000
,
0000
0000
0000
0000
,
1000
0100
0010
0001
,
1000
0010
0100
0001
,
1000
0100
0010
0001
,
0010
0022
0000
0033
,
0001
0000
0001
0000
1000
0010
1000
0000
,
0001
0000
0001
0000
1000
0100
1000
0000
,
0001
0000
0001
0000
0100
0010
0100
0000
,
0001
1000
0100
0010
,
0100
0000
0100
0000
1000
0001
1000
0000
,
0001
0000
0001
0000
0100
0001
0100
0000
,
0101
0000
0001
0000
,
1000
0000
0001
0000
,
1000
0000
0100
0000
0010
0100
0010
0000
,
0001
0010
0001
0000
1000
0001
1000
0000
,
0010
0000
0100
0000
0001
0100
0001
0000
,
1000
0100
1000
0000
0001
0000
0100
0000
,
0010
0000
1000
0000
0001
0010
0001
0000
,
1000
0010
1000
0000
0001
0000
0010
0000
,
0100
0000
1000
0000
,
0001
0000
0100
0000
,
0001
0100
0010
1000
,
0001
0000
0010
0000
0100
1000
0001
1000
,
0001
0100
0010
1000
,
0001
1000
0001
0000
1000
0000
0100
0000
,
0010
0000
0100
0000
1000
0000
0001
0100
,
0001
0000
0100
0000
0010
1000
0010
1000
,
0010
0000
0000
0000
1000
0000
0000
0000
0001
0000
0000
0000
0000
1000
0000
0000
,
0000
0000
0000
0001
0000
0000
0000
0000
0000
1000
0000
0000
0001
0000
1000
0000
,
0001
0000
1000
0000
0000
0010
0000
0000
1000
0000
0000
0000
0000
0000
0000
0001
,
0000
0000
0010
0000
0000
0001
0000
0000
0000
0000
0000
0000
1000
0000
0001
0000
,
0020
0000
0031
0000
0000
0000
1000
0000
0001
0000
0000
1000
0000
0000
0010
0000
,
0000
0100
0000
0000
0000
0001
0000
0000
0000
0010
0000
0000
0000
0100
0000
0000
,
0000
1100
0000
0000
0000
0000
0000
0000
0000
1001
0000
0000
0000
0000
0000
0000
,
0000
0101
0000
0000
0000
0000
0000
0001
0000
0000
0000
1000
0000
0001
0000
0000
,
0000
1000
0000
0000
1000
0000
0000
1000
,
0000
0001
0000
0100
0000
0010
0000
1000
,
0001
0000
0000
0000
,
0000
0000
0000
0000
,
0000
0000
0000
0000
0000
1001
0000
0000
,
0101
0000
0000
1001
0000
0000
1000
0001
,
1000
0000
0000
0000
,
0000
0000
0000
0000
,
0000
0000
0000
0000
0000
0101
0000
0000
,
1001
0000
0000
0000
0000
0000
1100
0000
0000
0000
0000
0000
0000
0100
0000
0000
,
1001
0000
0000
0000
0010
0100
0010
0000
,
1001
0000
0000
0000
0100
0010
0100
0000
,
1001
0000
0000
0000
0110
0000
0010
0100
,
1001
0000
0000
0011
0000
0000
0001
1000
,
0010
0100
0001
1000
,
0100
0010
0100
1000
,
0001
0000
0100
0000
0010
1000
0010
1000
,
0010
0000
0000
0000
1000
1000
1010
0000
,
0010
1000
0001
0010
,
0100
0000
1000
0000
0100
0000
0010
0001
,
0010
0001
1000
0000
0010
0000
0100
0000
,
0001
0000
0100
0000
0001
1000
0001
0000
,
1000
0000
0100
0000
0010
0001
0010
0000
,
0001
0000
1000
0000
0010
0000
0100
0001
,
0100
0000
0001
1000
0001
0000
1000
0100
,
1000
0100
1000
0000
0100
0000
1000
0000
,
0001
0100
0001
0000
1000
0100
1000
0000
,
0001
0010
0001
0000
1000
0010
1000
0000
,
0001
0100
0001
0000
1000
0100
1000
0000
,
0001
0010
0001
0000
1000
0010
1000
0000
,
0001
0100
0000
0001
,
1000
0100
0000
1000
,
0100
0000
0010
0001
0010
0001
0010
0000
,
0000
0000
0000
0001
,
0001
0000
1000
0010
1000
0000
0001
0010
,
0001
1000
0100
0010
,
0010
0000
0001
1000
0001
0000
1000
0010
,
1000
0001
0100
0101
,
0000
1001
0000
0000
0001
0000
0000
0000
0000
1000
0000
0000
1010
0000
0000
0000
,
0000
0010
0000
0000
0000
0010
0000
0000
1000
0000
0000
0000
1000
0000
0000
0000
,
0100
0000
0010
0000
0001
0010
0100
0000
;

//---------------dance-single - XO------------------
#NOTES:
     dance-single:
     :
     Easy:
     12:
     0.543881,0.612400,0.193996,0.282911,0.295035,471.000000,447.000000,24.000000,35.000000,0.000000,0.000000,0.543881,0.612400,0.193996,0.282911,0.295035,471.000000,447.000000,24.000000,35.000000,0.000000,0.000000:
0000
0000
0000
0000
,
0000
0000
0000
0000
,
0000
0000
0000
0000
,
0000
0000
0000
0000
,
0000
0000
0000
0000
,
1000
0100
0010
0001
0010
0100
1000
0001
,
0100
0010
0100
0001
1000
0100
0010
0001
,
0100
0000
0000
0010
0000
0000
1000
0000
0000
0001
0000
0000
0010
0000
0100
0000
0010
0000
0100
0000
1000
0000
0001
0000
,
1000
0220
0000
0330
,
1001
0000
0000
0000
1001
0000
0000
0000
0001
0000
0000
0100
0000
0000
0001
0000
,
1001
0000
0000
0000
1001
0000
0000
0000
1000
0000
0000
0100
0000
0000
1000
0000
,
1001
0000
0000
0000
1001
0000
0000
0000
0001
0000
0000
0100
0000
0000
0010
0000
,
0100
0010
1000
0001
0010
0100
1000
0100
,
0110
0000
0000
0000
0110
0000
0000
0000
0010
0000
0000
0001
0000
0000
1000
0000
,
1010
0000
0000
0000
1010
0000
0000
0000
0010
0000
0000
0100
0000
0000
0001
0000
,
0102
0000
0000
0000
0000
0000
0000
1003
0010
0000
0000
0000
1020
0000
0000
0000
,
0000
0000
1030
0000
0001
0000
0000
1000
0000
0001
0000
0000
0100
0000
0000
0000
,
0010
1000
0001
0010
0100
1000
0020
0000
,
0130
0001
2000
0000
3100
0010
0001
0100
,
0010
1000
0010
0100
0001
0010
0200
0000
,
1300
0001
0200
0000
0310
1000
0001
0010
,
0100
1000
0100
0010
0001
0100
0020
0000
,
1030
0001
0020
0000
0130
1000
0001
0100
,
0201
0000
0000
0000
0000
0000
0301
0000
1000
0000
0001
0000
1000
0000
0000
0100
,
0000
0000
0010
0000
0000
0001
0000
0000
0010
0000
0000
0100
0000
0000
1000
0000
,
0002
0000
0203
0000
0000
0000
0000
0310
,
2000
0000
3002
0000
0000
0013
0100
1000
,
0020
0000
0230
0000
0000
0000
0000
0301
,
1000
0000
0100
0000
0010
0000
0000
0200
0000
0000
1300
0000
0001
0000
0100
0000
,
0020
0000
2030
0000
0000
0000
0000
3001
,
0010
0000
0100
0000
0010
0000
0002
0000
0000
0000
0000
0000
0000
0000
0000
0103
0000
0000
0010
0000
0000
1000
0000
0000
,
0002
0000
0000
0000
0000
0000
0013
0000
0100
0000
1000
0000
0000
0001
0000
0000
,
1000
0000
0000
0100
0000
0000
0010
0000
0000
0001
0000
0000
0010
0000
0100
0000
,
1000
0000
0000
0000
0000
0001
0000
0000
0100
0000
0000
0000
0010
0000
0000
1000
,
0000
0001
0000
0010
0000
0100
1000
0001
,
0200
0000
0310
0000
0000
0000
1000
0000
0001
0000
0000
0010
0000
0000
0100
0000
,
0000
1000
0000
0001
0000
0100
0000
0001
0000
1000
0000
0100
0000
1000
0000
0001
,
0000
1000
0000
0000
0100
0000
0000
0010
0000
0100
0000
1000
0000
0000
0001
0000
,
0000
1000
0000
0000
0010
0000
0000
0100
0000
0001
0000
0000
1000
0000
0100
0000
,
0010
0001
1000
0010
0100
0001
1000
0100
,
0010
0100
0001
0100
1000
0001
0100
0010
,
2000
0000
0000
0000
,
0000
0000
3002
0000
,
0023
0000
0000
0000
0000
0000
0000
0000
0030
0000
0001
0000
0000
0001
0000
0000
,
1000
0000
0000
1000
0000
0000
0001
0000
0000
0001
0000
0000
1000
0000
0001
0000
,
1002
0000
0000
0000
,
0000
0000
2003
0000
,
0000
0000
0000
0000
0000
0000
0000
0000
0000
0000
3010
0000
0000
0010
0000
0000
,
1000
0000
0000
1000
0000
0000
0010
0000
0000
1000
0000
0010
0000
1000
0000
0000
,
0001
0000
0000
0101
0000
0000
0000
0000
1000
0000
0001
0000
1000
0000
0001
0000
,
1000
0000
0000
1100
0000
0000
0000
0000
0001
0000
1000
0000
0001
0000
1000
0000
,
0001
0000
1000
0000
1010
0000
0001
0010
,
0011
0000
0000
0101
0000
0000
0001
1000
,
0100
0010
0001
1000
,
0010
0200
0302
2003
,
3100
0010
0001
0010
0100
1000
0001
0100
,
0010
1000
0001
0000
0010
1001
1000
0100
,
0010
0100
1000
0001
0100
0001
1000
0010
,
0100
0001
0010
0100
1000
0001
0100
0010
,
1000
0010
0100
0001
1000
0100
0010
0001
,
1000
0010
0100
0001
0010
0100
1000
0001
,
0100
0001
1000
0100
0010
0001
0100
0010
,
1000
0000
0010
0000
0100
0000
0001
0000
0010
0000
0100
0000
1000
0000
0000
0001
,
0000
1000
0000
0001
0000
0000
1000
0000
0010
0000
1000
0000
0001
0000
0010
0000
,
1000
0010
0100
1000
0001
0100
0010
1000
,
0000
0001
0000
0001
0000
0000
0010
0000
0000
0001
0000
0001
0000
0000
1000
0000
,
0000
0010
0000
0010
0000
0000
1000
0000
0000
0100
0000
0100
1000
0000
0001
0000
,
0000
0100
0000
0100
0000
0000
0001
0000
0000
0010
0000
0010
0001
0000
1000
0000
,
0000
0010
0000
0010
1000
0000
0001
0000
0000
0010
0000
0010
0001
0000
1000
0000
,
0100
1000
0010
0001
0010
1000
0001
0010
,
0100
0010
1000
0010
0001
0100
0010
1000
,
0001
0010
1000
0010
0001
0100
0010
1000
,
0100
0010
0001
0010
0100
1000
0001
0000
,
0101
0000
0100
0010
2000
0000
3100
0010
,
0002
0000
0103
0010
1000
0010
0100
0001
,
0101
0000
0100
0001
2000
0000
3100
0010
,
0002
0000
1003
0010
0100
0001
1000
0010
,
0000
0100
0000
0000
0001
0000
1000
0000
0000
0100
0000
0000
0010
0000
0001
0000
,
0000
1000
0000
0010
0000
1000
0000
0000
0001
0000
0010
0000
0001
0000
1000
0000
,
0010
0100
0001
0010
0100
1000
1001
0000
;

//---------------dance-single - "XMOD", XO-----------------
#NOTES:
     dance-single:
     :
     Medium:
     16:
     0.817554,0.999180,0.493073,0.444574,1.111434,708.000000,647.000000,61.000000,55.000000,0.000000,0.000000,0.817554,0.999180,0.493073,0.444574,1.111434,708.000000,647.000000,61.000000,55.000000,0.000000,0.000000:
0000
0000
0000
0000
,
0000
0000
0000
0000
,
0000
0000
0000
0000
,
0000
0000
0000
0000
,
0000
0000
0000
0000
,
1000
0100
1000
0000
0001
0100
0001
0000
1000
0010
1000
0000
0001
0010
0001
0000
,
1000
0010
0100
0000
0001
0010
0100
0000
1000
0010
0100
0000
0001
0010
0100
0000
,
1000
0000
0000
0001
0000
0000
1000
0000
0000
0001
0000
0000
1000
0000
0000
0001
0000
0000
1000
0000
0000
0001
0000
0000
1000
0000
0000
0000
0100
0000
0000
0000
0010
0000
0000
0000
0001
0000
0000
0000
1000
0000
0000
0000
0010
0000
0000
0000
,
0100
0202
0000
0303
,
0101
0000
0000
0000
0101
0000
0000
0000
0001
0100
0000
0001
0000
0100
0001
0000
,
1001
0000
0000
0000
1001
0000
0000
0000
1000
0010
0000
0100
0000
0010
1000
0000
,
1010
0000
0000
0000
1010
0000
0000
0000
0010
0100
0000
0010
0000
0100
0010
0000
,
1001
0000
0000
0000
1001
0000
0000
0000
0001
0100
0001
0100
0010
1000
0010
1000
,
0001
0000
0000
0000
0011
0000
0000
0000
0001
0010
0000
0001
0000
0010
0001
0000
,
0101
0000
0000
0000
0101
0000
0000
0000
0100
0001
0000
0100
0000
0001
0100
0000
,
0102
0000
0000
0000
0000
0000
0000
1003
0200
0000
0000
0000
0320
0000
0000
0000
,
0000
0000
0031
0000
1000
0000
0000
1010
0000
1001
0000
0000
0001
1000
0001
0000
,
1001
0000
0000
0000
1001
0000
0000
0000
1000
0100
0000
1000
0200
0000
0000
0000
,
1300
0001
0000
1000
0002
0000
0000
0000
1003
0010
0000
0100
0000
0010
1000
0000
,
0001
1000
0001
0000
0101
0000
0000
0000
0001
0100
0000
0001
0200
0000
0000
0000
,
0301
0000
0000
1000
0000
0000
0000
0000
0000
0001
0000
0000
2000
0000
0000
0000
0000
0000
0000
0000
0000
0000
0000
0000
3100
0000
0000
0000
0000
0000
0000
0000
0100
0000
0000
0000
0010
0000
0000
0000
0001
0000
0000
0000
1000
0000
0000
0000
,
1001
0000
0000
0000
1001
0000
0000
0000
0001
1000
0000
0001
2000
0000
0000
0000
,
3001
0010
0000
0001
0020
0000
0000
0000
0031
0000
0000
0000
1000
0010
1000
0010
,
2000
0000
0000
0000
0000
0000
0100
0000
0001
0000
0100
0000
3100
1000
0100
1000
,
0000
0001
1000
0000
0001
0100
0000
0001
1000
0000
0100
0010
0000
0001
1000
0010
,
0100
0000
0001
2000
0100
0000
0000
0000
0010
0000
0000
0000
0001
0000
3100
0010
,
0200
0000
0000
0000
0320
0000
0000
0000
0100
0000
0031
1000
0020
0000
1030
0001
,
0020
0000
0000
0000
0230
0000
0000
0000
0001
0000
0000
0000
0010
0000
1300
0001
,
0200
0000
0320
0000
0032
0000
0000
0023
0000
0000
0130
0001
1000
0100
0010
0001
,
0200
0000
0000
0000
2300
0000
0000
0000
0000
0000
0000
0000
0000
0000
3100
0010
,
1000
0000
0100
0000
0010
0000
0002
0000
0000
0000
0000
0000
0100
0000
0000
1003
0000
0000
0010
0000
0000
0100
0000
0000
,
0002
0000
0000
0000
0010
0000
1003
0100
0010
0000
0100
1000
0000
0001
0000
1000
,
0010
0000
0100
0001
1000
0001
1000
0001
0010
0100
0010
0100
1000
0001
1000
0001
,
0100
0000
0101
0000
0000
1001
0000
0000
1100
0000
0000
0000
1000
0100
0010
0001
,
0000
0000
0101
0000
0000
0110
0000
0000
1010
0000
0000
0000
1000
0010
0100
0001
,
0020
0000
0031
0000
0000
0000
0101
0000
0000
0110
0000
0010
1000
0000
1001
0000
,
0000
0001
0010
0001
0010
0100
1000
0100
1000
0001
0100
0001
0100
0010
1000
0000
,
0000
0010
1000
0000
0001
0000
1000
0100
0000
0010
0001
0010
0001
1000
0010
0000
,
0000
0100
0001
0000
0100
0001
0000
1000
0100
0000
0000
1000
0100
0010
0001
0010
,
0100
1000
0001
1000
0000
0001
0100
0000
0001
1000
0000
0001
0010
0000
0001
1000
,
0000
0100
1000
0100
1000
0001
0100
0001
0100
0010
2000
0000
0000
0000
0000
0000
,
3002
0000
0000
0000
,
0000
0000
0000
0000
0000
0000
1003
0100
0010
0000
0001
1000
0000
0001
0100
0001
,
0100
0000
0010
1000
0000
0001
0000
1000
0000
0000
1001
0000
0000
0101
0000
0000
,
0110
0000
0000
1010
0000
0000
1001
0000
0000
1100
0000
0000
1000
0000
0001
0000
,
1002
0000
0000
0000
0000
0000
0013
0100
2000
0000
0000
0000
0000
0000
0000
0000
,
0000
0000
0000
0000
0000
0000
3001
0100
0010
0000
1000
0001
0000
0010
0100
1000
,
0001
0000
0100
0010
0000
0100
0000
0001
0000
0000
1001
0000
0000
1100
0000
0000
,
0110
0000
0000
0011
0000
0000
0001
1000
0000
1010
0000
0110
0000
0101
0000
0000
,
0001
0000
1000
0100
0000
1000
0000
0001
1000
0001
1000
0001
0100
0010
0100
0010
,
1000
0000
0001
0010
0000
0100
0000
1000
0001
0100
0001
0100
0010
1000
0010
1000
,
0002
0000
0000
0013
0100
1000
0002
0000
0000
0103
0010
0100
,
2000
0000
0000
0000
3000
0000
0200
0000
0000
0000
0300
0000
0001
1000
0001
0000
,
1000
0100
0001
0100
,
1000
0002
0203
0320
,
1030
0000
0001
0000
0010
0000
0100
1000
0001
1000
0001
1000
0010
1000
0010
1000
,
0100
0010
0001
1000
0010
0000
0000
0000
1010
0000
1001
0000
1000
0000
0010
0100
,
0000
0001
0000
0020
0000
0000
0000
0000
2030
0000
0000
0000
3020
0000
0000
0000
,
0031
0000
0100
0010
2000
0000
0000
0000
3200
0000
0000
0000
0310
0000
0001
0000
,
1000
0020
0000
0130
1000
0200
0001
0000
,
0010
0000
0301
1000
0002
0000
0000
0000
0100
0000
1003
0100
1000
0000
0001
0010
,
0000
0001
2000
0000
0010
0000
0000
0000
0100
0000
3001
0010
0200
0000
0000
1300
,
0000
0000
0020
0000
0032
0000
0000
0023
0000
0000
0130
0001
1000
0000
0100
1000
,
0000
0001
0000
0100
0000
0010
1000
0001
0000
0010
0001
0000
0000
1000
0010
0100
,
0001
0100
0010
1000
0000
0001
0010
0100
0000
1000
0100
0010
0001
0000
1000
0000
,
0010
0100
0000
0010
0100
0000
0001
0000
1000
0010
0000
1000
0001
0000
0010
0000
,
0100
0010
0000
0001
0010
0000
0100
0000
1000
0010
0000
1000
0001
0000
0100
0000
,
0010
0100
0000
0001
0100
0000
0010
0000
1000
0001
0000
0100
0001
0000
1000
0000
,
0100
1000
0001
0100
0010
0000
1000
0000
0001
0010
0100
1000
0010
0000
1000
0001
,
0000
1000
0000
0001
1000
0010
1000
0010
0100
0001
0100
0001
1000
0000
0100
0010
,
0000
0001
0000
1000
0001
0100
0001
0100
0010
1000
0010
1000
0001
0000
0010
0100
,
0000
1000
0000
0001
0000
0100
0010
1000
0001
0010
0100
1000
0000
0001
0100
0010
,
1000
0010
0100
0001
0000
1000
0100
0010
0001
0010
0100
1000
0001
0000
0000
0000
,
1001
0000
0000
0000
1000
0100
0000
1000
0200
0000
0000
0000
1300
0001
0000
1000
,
0002
0000
0000
0000
1003
0010
0000
1000
0000
0010
1000
0000
0001
1000
0001
0000
,
1001
0000
0000
0000
1000
0001
0000
1000
0002
0000
0000
0000
1003
0010
0000
1000
,
0020
0000
0000
0000
0130
0001
0100
0001
0100
0000
0010
0000
1010
0000
1001
0000
,
0000
0011
0000
0000
0110
0000
1100
0000
0000
1001
0000
0000
0101
0000
1001
0000
,
0000
1100
0000
1001
0000
0101
0000
0000
0110
0000
1010
0000
1001
0000
0001
0010
,
0100
1000
0100
0010
0001
1000
0010
0100
0001
0010
0100
1000
0010
0000
0000
0000
;

//---------------dance-single - "XMOD", BU- (32nd), XO, STR (2/1/6*/1/1/5/4)----------------
#NOTES:
     dance-single:
     :
     Hard:
     18:
     1.036954,1.063643,0.420324,0.290994,1.685339,898.000000,846.000000,52.000000,36.000000,0.000000,0.000000,1.036954,1.063643,0.420324,0.290994,1.685339,898.000000,846.000000,52.000000,36.000000,0.000000,0.000000:
0000
0000
0000
0000
,
0000
0000
0000
0000
,
0000
0000
0000
0000
,
0000
0000
0000
0000
,
0000
0000
0000
0000
,
1000
0010
1000
0010
0100
0001
0100
0001
1000
0100
1000
0100
0010
0001
0010
0001
,
1000
0100
0010
0001
1000
0001
0010
0100
1000
0001
1000
0010
0100
0001
1000
0100
,
0010
0000
0000
0001
0000
0000
1000
0000
0000
0010
0000
0000
0100
0000
0000
0001
0000
0000
1000
0000
0000
0100
0000
0000
0010
0000
0000
0000
0001
0000
0000
0000
1000
0000
0000
0000
0010
0000
0000
0000
0100
0000
0000
0000
0001
0000
0000
0000
,
0010
0022
0000
0033
,
0101
0000
0000
0000
0101
0000
0000
0000
0001
0100
0000
0010
0000
0100
0001
0000
,
1001
0000
0000
0000
1001
0000
0000
0000
1000
0100
0000
0010
0000
0100
1000
0000
,
1001
0000
0000
0000
1001
0000
0000
0000
0001
1000
0000
0100
0000
1000
0001
0000
,
1000
0100
0010
0001
1000
0001
0100
0010
1000
0001
1000
0001
0010
0100
0010
0100
,
1000
0000
0000
0000
1001
0000
0000
0000
0001
0010
0000
0100
0000
0010
0001
0000
,
0101
0000
0000
0000
0101
0000
0000
0000
0100
0010
0000
1000
0000
0010
0100
0000
,
0201
0000
0000
0000
0000
0000
0301
1000
0020
0000
0000
1030
0002
0000
0010
0000
,
0000
0000
0000
0000
0000
0000
0013
0000
0000
0000
0000
0000
0001
0000
0000
0000
0000
0000
0000
0000
0000
0011
0000
0000
0000
0000
0000
1100
0000
0000
0000
0000
0000
0000
0000
0000
1000
0000
0001
0000
1000
0000
0001
0000
0000
0000
0000
0000
,
1001
0000
0000
0000
1001
0000
0000
0000
1000
0100
0000
1000
0200
0000
0000
0000
,
1300
0010
0000
1000
0002
0000
0000
0000
0013
0100
1000
0001
0000
1000
0001
0000
,
2000
0000
3010
0000
1001
0000
1000
0000
0001
0010
0000
0001
0200
0000
0000
0000
,
0301
0000
0000
0010
0000
0000
0000
0000
0000
0001
0000
0000
2000
0000
0000
0000
0000
0000
0000
0000
0000
0000
0000
0000
3100
0000
0000
0000
0000
0000
0010
0000
0001
0000
0010
0000
0001
0000
0000
0000
1000
0000
0000
0000
0010
0000
0000
0000
,
0100
0000
0001
0000
1000
0000
0000
0000
0001
0100
0000
0001
2000
0000
0000
0000
,
3001
0100
0000
0001
0020
0000
0000
0000
0130
1000
0001
0100
0010
0100
0001
1000
,
1002
0000
0000
0000
0000
0000
1000
0000
0010
0000
1000
0000
1003
0100
0010
0001
,
0000
0100
0010
1000
0001
0010
0000
0100
1000
0001
0100
0010
0000
0100
0001
1000
,
0100
0010
0100
0010
0001
1000
0001
1000
0010
0100
0010
0100
0001
1000
0001
1000
,
0001
0010
0001
0010
0100
1000
0100
1000
0001
0100
0001
0100
0010
1000
0010
1000
,
0001
0010
0100
1000
0001
1000
0100
0010
0001
0100
0010
1000
0001
1000
0010
0100
,
0001
1000
0100
0010
0100
1000
0001
0100
0010
1000
0001
0010
0100
1000
0100
0010
,
0001
1000
0010
1000
0001
0010
0100
0010
0001
1000
0010
1000
0001
0100
0010
0100
,
0001
0000
0000
0000
1000
0000
0000
0000
0100
0000
0000
0000
0010
0000
0000
0001
0000
0000
1000
0000
0000
0010
0000
0000
0100
0000
0000
0001
0000
0000
1000
0000
0000
0100
0000
0000
0010
0000
0000
0001
0000
0000
0010
0000
0000
0100
0000
0000
,
1000
0001
0100
0010
0100
0001
1000
0100
0010
0001
1000
0010
0000
0100
0000
0001
,
1000
0000
0100
0010
0100
1000
0001
0100
0010
0100
0001
1000
0100
0010
0001
1000
,
0010
0000
0100
0000
0001
0200
0000
0000
0001
0000
0000
0000
0310
1000
0001
0020
,
0000
0000
0032
0000
0000
0000
0103
0010
2000
0000
0000
0000
3100
0010
0001
0100
,
2000
0000
3200
0000
0000
0000
0310
1000
0002
0000
0000
0023
0000
0000
0130
0000
,
0000
1000
0010
0100
0001
1000
0100
0010
0001
1000
0010
1000
0100
0010
1000
0010
,
0001
1000
0010
0000
0001
0010
0000
1000
0000
0001
0010
0000
1000
0010
0000
0001
,
0000
1000
0010
0100
0001
1000
0100
0010
0000
0100
1000
0000
0001
1000
0000
0001
,
0100
0000
0001
0100
0010
1000
0000
0000
0100
0010
0001
1000
0000
0010
0100
0001
,
1000
0100
0010
0001
0100
0010
1000
0001
0010
0100
0001
0100
0010
0001
1000
0010
,
0100
0000
0010
1000
0001
0000
1000
0200
0000
0000
0000
0000
0000
1300
0100
0020
,
0000
0000
0000
0000
0000
0000
0031
1000
0010
0000
0100
0010
0000
0001
0010
0100
,
0010
0000
1000
0001
0000
0010
0000
0100
0000
0000
1100
0000
0000
0110
0000
0000
,
0011
0000
0000
0101
0000
0000
0110
0000
0000
1010
0000
0000
1100
0000
1001
0000
,
0101
0000
0001
0100
0000
0010
1000
0200
0000
0000
0000
0000
0000
1300
0001
0200
,
0000
0000
0000
0000
0000
0000
0301
1000
0100
0000
0010
0100
0000
0001
0100
1000
,
0001
0000
0100
0010
0000
1000
0000
0001
0000
1000
0010
0000
0000
1010
0000
0000
,
1001
0000
0000
0011
0000
0000
0001
1000
0000
1010
0000
1001
0000
0011
0000
0001
,
1000
0000
0010
1000
0000
0001
0000
0010
0100
1000
0100
0010
0001
1000
0010
0100
,
0001
0000
1000
0100
0000
0010
0000
0001
1000
0010
0100
0001
0100
0010
1000
0001
,
0020
0000
0000
0000
0000
0000
0031
0000
1000
0000
0010
0000
0200
0000
0000
0000
0000
0000
0301
1000
0001
1000
0100
1000
,
0002
0000
0000
0000
0003
0000
0200
0000
0000
0000
0000
0000
0301
0010
0100
1000
,
0001
0000
0010
0001
0000
1000
0000
0020
0100
0000
0000
0000
1030
0000
0000
0000
,
0001
0000
0010
0000
0100
0000
0010
0100
,
0001
0000
0000
0000
0000
0000
0100
0000
0000
0000
0000
0000
0010
0000
0000
0000
0000
0000
0001
0000
0000
0100
0000
0000
0001
0000
0000
0100
0000
0000
0010
0000
0000
1000
0000
0000
0001
0000
0010
0000
0001
0000
1000
0000
0010
0000
0100
0000
,
0001
1000
0100
0010
0002
0000
0003
0000
0101
0000
1001
0000
1000
0100
0010
0001
,
1000
0010
0100
0010
1000
0001
0010
0100
0010
0001
1000
0010
0100
0001
1000
0100
,
0010
0100
1000
0001
0100
0010
0100
0001
1000
0100
0010
0001
0100
0001
1000
0001
,
0010
0100
1000
0010
1000
0001
0010
0100
1000
0010
0100
0001
1000
0100
0010
0001
,
0010
0100
1000
0001
0100
0001
1000
0100
0010
0001
1000
0010
0100
0010
1000
0001
,
0010
0100
0010
0001
1000
0010
0100
0001
1000
0001
0010
0100
1000
0001
0100
0010
,
1000
0000
0000
0001
0000
0000
0010
0000
0000
0100
0000
0000
0000
0000
0000
0000
0000
0000
1100
0000
0000
0000
0000
0000
0000
0000
0000
1001
0000
0000
0000
0000
0000
0001
0000
0000
1000
0000
0001
0000
0010
0000
0100
0000
0000
1000
0000
0000
,
0001
0000
0000
0000
0101
0000
0000
0000
0000
0000
0100
0001
0100
0000
0000
0000
0001
0100
0001
0000
0000
0000
0000
0000
0100
0000
1000
0000
0100
0000
0010
0000
,
1000
0001
0010
1000
0000
0010
0100
1000
0000
0001
0100
0010
1000
0001
1000
0001
,
0100
0010
1000
0001
0010
0100
0010
0001
1000
0010
0100
0001
1000
0010
0100
0001
,
0010
0100
1000
0001
0100
0010
1000
0100
0010
0001
1000
0010
0100
0001
1000
0010
,
0100
0001
0010
0100
1000
0001
0100
0010
1000
0001
0010
0100
1000
0001
0100
0010
,
1000
0001
0010
0100
1000
0010
0100
0001
0010
0100
0010
0001
1000
0000
0010
1000
,
0000
0000
0001
0000
0000
0000
0100
0000
0001
0100
0001
0000
0000
0000
0100
0001
0100
0000
0000
0000
0001
0100
0001
0000
1000
0000
0000
0000
0100
0000
0010
0000
,
0000
0000
0001
0000
0000
0000
1000
0000
0001
1000
0001
0000
0000
0000
1000
0001
1000
0000
0000
0000
0001
1000
0001
0000
1000
0000
0000
0000
0010
0000
0100
0000
,
0000
0010
0000
0001
0000
0010
0100
0001
1000
0100
0010
0100
0000
0001
0100
1000
,
0001
0100
0010
0002
0000
0013
0100
0001
1000
0100
0010
0001
1000
0000
0000
0000
,
1010
0000
0000
0000
0010
1000
0000
0010
0200
0000
0000
0000
0301
0010
0000
0001
,
2000
0000
0000
0000
0000
0000
0000
0000
3100
0000
0010
0000
0000
0000
0001
0000
0000
0000
0010
0000
0100
0000
0000
0000
1000
0001
1000
0000
0001
0000
0000
0000
,
1001
0000
0000
0000
1000
0010
0000
1000
0200
0000
0000
0000
1300
0010
0000
1000
,
0002
0000
0000
0000
0013
0100
0010
0100
1000
0001
1000
0001
0100
0000
0101
0000
,
0000
1001
0000
0000
1100
0000
0110
0000
0000
0011
0000
0000
0101
0000
1001
0000
,
0000
1100
0000
1001
0000
0101
0000
0000
0011
0000
0110
0000
1100
0000
1000
0100
,
1000
0000
0000
0100
0000
0000
0010
0000
0000
0001
0000
0000
0010
0000
0000
0001
0000
0000
1000
0000
0000
0010
0000
0000
1000
0000
0001
0000
1000
0000
0001
0000
1000
0000
0001
0000
0100
0000
0000
0000
0000
0000
0000
0000
0000
0000
0000
0000
;

//---------------dance-single - "XMOD", BR, BU+ (32nd), FS-, XO, STR (2/1/1/8*/1/15/1)----------------
#NOTES:
     dance-single:
     Tone Row:
     Challenge:
     19:
     1.155892,1.450422,0.363742,0.282911,1.952083,1001.000000,956.000000,45.000000,35.000000,6.000000,0.000000,1.155892,1.450422,0.363742,0.282911,1.952083,1001.000000,956.000000,45.000000,35.000000,6.000000,0.000000:
// measure 0
0000
0000
0000
0000
,  // measure 1
0000
0000
0000
0000
,  // measure 2
0000
0000
0000
0000
,  // measure 3
0000
0000
0000
0000
,  // measure 4
0000
0000
0000
0000
,  // measure 5
1000
0010
0100
0001
1000
0100
0010
0100
1000
0001
0100
0010
1000
0001
0010
0100
,  // measure 6
1000
0100
0010
0001
1000
0010
0100
0010
1000
0001
0010
0100
0010
0001
1000
0010
,  // measure 7
0100
0000
0000
0001
0000
0000
1000
0000
0000
0100
0000
0000
0010
0000
0000
0100
0000
0000
1000
0000
0000
0001
0000
0000
1000
0000
0000
0000
0010
0000
0000
0000
0100
0000
0000
0000
0001
0000
0000
0000
0010
0000
0000
0000
0100
0000
0000
0000
,  // measure 8
1000
2020
0000
3030
,  // measure 9
0101
0000
0000
0000
0101
0000
0000
0000
0001
0100
0000
0010
0000
0100
0001
0000
,  // measure 10
1001
0000
0000
0000
1001
0000
0000
0000
1000
0100
0000
0010
0000
0100
1000
0000
,  // measure 11
1010
0000
0000
0000
1010
0000
0000
0000
0010
0100
0000
0001
0000
0100
0010
0000
,  // measure 12
1000
0001
0010
0100
1000
0001
0100
0010
1000
0001
0010
0100
0010
0001
1000
0010
,  // measure 13
0100
0000
0000
0000
0101
0000
0000
0000
0001
0100
0000
1000
0000
0100
0001
0000
,  // measure 14
0101
0000
0000
0000
0101
0000
0000
0000
0100
0010
0000
0001
0000
0010
0100
0000
,  // measure 15
0201
0000
0000
0000
0000
0000
0301
0100
2000
0000
0000
3100
0020
0000
1000
0000
,  // measure 16
0000
0000
0000
0000
0000
0000
0130
0000
0000
0000
0000
0000
1001
0000
0000
0000
0000
0000
0000
0000
0000
1010
0000
0000
0000
0000
0000
0101
0000
0000
0000
0000
0000
0000
0000
0000
0001
0000
0010
0000
0100
0000
1000
0000
0000
0000
0000
0000
,  // measure 17
0001
0100
0010
0100
0001
1000
0100
0010
0100
1000
0001
0100
0020
0000
0130
0001
,  // measure 18
1000
0100
0010
0001
0200
0000
0310
1000
0001
0010
0100
1000
0010
1000
0001
0100
,  // measure 19
0001
0100
0001
0100
0001
0000
1000
0000
0100
0000
0010
0000
0100
0000
1000
0000
0001
0000
0100
0000
0010
0000
1000
0000
0002
0000
0000
0000
0013
0000
0100
0000
,  // measure 20
1000
0000
0000
0001
0000
0000
0100
0000
0000
0010
0000
0000
0200
0000
0000
0000
0000
0000
0301
0000
0000
1000
0000
0000
0100
0000
0000
0010
0000
0000
0100
0000
1000
0000
0001
0000
1000
0000
0000
0000
0010
0000
0000
0000
0100
0000
0000
0000
,  // measure 21
0010
1000
0100
0010
0001
1000
0010
0100
0010
1000
0001
0010
0200
0000
1300
0001
,  // measure 22
0100
0010
1000
0100
0020
0000
0130
1000
0001
0100
0010
0100
0001
1000
0100
0010
,  // measure 23
0002
0000
0000
0000
0000
0000
0000
0000
0000
0000
0000
0000
1000
0000
0000
0000
0010
0000
0000
0000
1003
0000
0000
0000
0001
0100
0001
0100
0001
0000
1000
0000
,  // measure 24
0000
0000
0001
0000
0100
0000
0100
0000
1000
0000
0100
0000
0100
0000
0001
1000
0001
0000
0000
0000
1000
0100
1000
0000
0001
0000
1000
0100
1000
0000
0001
0000
,  // measure 25
0100
0001
0010
0100
0010
0001
1000
0010
0100
0001
1000
0100
0010
0100
1000
0001
,  // measure 26
0100
0010
1000
0001
0010
0100
0010
0001
1000
0010
0100
0001
0010
0001
0100
0010
,  // measure 27
1000
0100
0010
0100
0001
0100
0010
0001
1000
0010
0100
0001
1000
0100
0010
0001
,  // measure 28
1000
0010
0100
0010
0001
0010
0100
0001
1000
0010
1000
0100
0010
0001
0010
0100
,  // measure 29
1000
0001
0100
0010
0001
0010
1000
0001
0010
0100
1000
0001
0100
0010
1000
0001
,  // measure 30
0010
0000
0000
0000
0100
0000
0000
0000
1000
0000
0000
0000
0010
0000
0000
0100
0000
0000
0001
0000
0000
1000
0000
0000
0100
0000
0000
0010
0000
0000
0100
0000
0000
1000
0000
0000
0001
0000
0000
0100
0000
0000
0010
0000
0000
1000
0000
0000
,  // measure 31
0100
0000
0010
0000
0001
0000
1000
0000
0010
0000
0100
0000
0010
0000
1000
0000
0001
0000
0010
0000
0100
0000
0010
0000
0001
0000
1000
0001
1000
0001
1000
0000
,  // measure 32
0001
0100
0001
0100
0001
0000
1000
0100
1000
0000
0001
0000
1000
0100
1000
0000
0001
0000
0100
00M0
0100
0000
1000
0000
0001
0000
0010
0000
0100
0000
0010
0000
,  // measure 33
0001
1000
0001
0000
1000
0200
0000
0000
0010
0000
0000
0000
0301
0100
1000
0002
,  // measure 34
0000
0000
0000
0000
0000
0000
2003
0000
0000
0000
0000
0000
0000
0000
0000
0000
0000
0000
3010
0000
0000
0100
0000
0000
2000
0000
0000
0000
0000
0000
0000
0000
0000
0000
0000
0000
3100
0000
0010
0000
0100
0000
0001
0000
0000
1000
0000
0000
,  // measure 35
0020
0000
2030
0000
0000
0000
3001
0010
2000
0000
0000
3020
0000
0000
0130
0000
,  // measure 36
0000
0000
1000
0000
0001
0000
0100
0000
0010
0000
0100
0000
0001
0000
1000
0000
0100
0000
0010
0000
0001
0000
1000
0000
0010
0000
1000
0010
1000
0000
0010
0000
,  // measure 37
0000
0100
0010
0000
0001
0000
0010
1000
0000
0001
1000
0001
0010
0100
2000
0001
,  // measure 38
0000
0001
0000
0000
0001
0000
0000
3100
0000
1000
0100
00M0
0100
0001
0010
0100
,  // measure 39
1000
0000
0000
0000
0001
1000
0001
0000
0000
0000
0100
0000
0010
0000
0000
0000
1000
0010
1000
0000
0000
0000
0001
0000
1000
0000
0001
0100
0001
0000
1000
0000
,  // measure 40
0000
0100
0010
0001
0100
0010
1000
0001
0010
0100
0001
0100
0010
0001
1000
0010
,  // measure 41
0100
0000
0010
1000
0001
0000
1000
0200
0000
0000
0000
0000
0000
1300
0100
0020
,  // measure 42
0100
0000
0000
0100
0000
0000
0031
1000
0010
0000
0100
0010
0000
0001
0010
0100
,  // measure 43
0010
0000
1000
0001
0000
0010
0000
0100
0000
0000
1100
0000
0000
0110
0000
0000
,  // measure 44
0011
0000
0000
0101
0000
0000
0110
0000
0000
1010
0000
0000
1100
0000
1001
0000
,  // measure 45
0101
0000
0001
0100
0000
0010
1000
0200
0010
0000
0000
0000
0000
1300
0001
0200
,  // measure 46
0010
0000
0000
0010
0000
0000
0301
1000
0100
0000
0010
0100
0000
0001
0100
1000
,  // measure 47
0001
0000
0100
0010
0000
1000
0000
0001
0000
0010
0100
0000
0000
1001
0000
0000
,  // measure 48
1000
0010
0001
0010
0100
0001
0010
0100
0001
0100
1000
0010
1000
0100
0010
0000
,  // measure 49
1001
0000
0001
0100
0000
0001
0000
0010
1000
0010
0001
1000
0010
0100
0010
1000
,  // measure 50
0001
0000
1000
0100
0000
0010
0000
0100
0001
0100
0010
0001
1000
0010
0100
0001
,  // measure 51
2000
0000
0000
3000
0000
0000
0001
0000
0010
0000
0100
0000
2000
0000
0000
3000
0000
0000
0001
0100
0010
1000
0100
0010
,  // measure 52
0002
0000
0000
0000
0000
0000
0000
0000
0003
0000
0000
0000
0200
0000
0000
0000
0000
0000
0000
0000
0300
0000
0000
0000
0001
0000
1000
0000
0010
0M00
0010
0000
,  // measure 53
0001
0000
1000
0100
0000
0010
0000
0001
1000
0000
0010
0000
0100
0001
0000
0000
,  // measure 54
0101
0000
0100
0000
0001
0100
0000
0001
1000
0000
0100
0000
0010
0001
1000
0010
,  // measure 55
0100
0000
0000
0000
0000
0000
0001
0000
0000
0000
0000
0000
1000
0000
0000
0000
0000
0000
0100
0000
0000
0010
0000
0000
0001
0000
0000
1000
0000
0000
0010
0000
0000
0100
0000
0000
0010
0000
1000
0000
0001
0000
0010
0000
0100
0000
0010
0000
,  // measure 56
0100
0001
0100
1000
0002
0000
0003
0000
0110
0000
1001
0000
1000
0100
0010
0001
,  // measure 57
1000
0010
0100
0010
1000
0001
0010
0100
0010
0001
1000
0010
0100
0001
1000
0100
,  // measure 58
0010
0100
1000
0001
0100
0010
0100
0001
1000
0100
0010
0001
0100
0001
1000
0001
,  // measure 59
0010
0100
1000
0010
1000
0001
0010
0100
1000
0010
0100
0001
1000
0100
0010
0001
,  // measure 60
0010
0100
1000
0001
0100
0001
1000
0100
0010
0001
1000
0010
0100
0010
1000
0001
,  // measure 61
0010
0100
0010
0001
1000
0010
0100
0001
1000
0001
0010
0100
1000
0001
0100
0010
,  // measure 62
1000
0000
0000
0001
0000
0000
0010
0000
0000
0100
0000
0000
0001
0000
0000
0100
0000
0000
0010
0000
0000
0001
0000
0000
1000
0000
0000
0010
0000
0000
0100
0000
0000
0010
0000
0000
1000
0000
0001
0000
0010
0000
0100
0000
0000
1000
0000
0000
,  // measure 63
0001
0000
1000
0000
0010
0000
1000
0000
0001
0000
0100
0001
0100
0000
0001
0000
1000
0001
1000
0000
0001
0000
1000
0000
0100
0000
0001
0000
0100
0000
1000
0000
,  // measure 64
0100
0000
0010
0000
0001
0000
1000
0000
0010
0000
0100
M000
0100
0000
1000
0000
0001
0000
0010
0000
0100
0000
1000
0000
0001
0000
1000
0000
0001
0000
1000
0000
,  // measure 65
0010
0100
0001
1000
0100
0010
0100
1000
0001
0100
0010
1000
0001
0100
0010
1000
,  // measure 66
0100
0010
0001
1000
0010
0100
1000
0100
0010
1000
0001
0010
0100
1000
0001
0100
,  // measure 67
0010
1000
0100
0010
0001
1000
0010
0100
0001
1000
0100
0010
0100
1000
0010
0100
,  // measure 68
0001
1000
0100
0010
0001
0010
0100
1000
0010
0100
0001
1000
0100
0010
0001
0010
,  // measure 69
0100
0000
1000
0000
0001
0000
0100
0000
0001
0100
0001
0100
0001
0000
1000
0100
1000
0100
1000
0000
0001
0100
0001
0100
0001
0000
1000
0000
0100
0000
0010
0000
,  // measure 70
0001
0000
1000
0000
0001
0000
0100
0000
0001
0100
0001
0100
0001
0000
1000
0100
1000
0100
1000
0000
0001
0100
0001
0100
0001
0000
1000
0000
0001
0000
0010
0000
,  // measure 71
0100
1000
0010
0100
0001
1000
0100
0010
0001
1000
0001
1000
0010
0001
0010
1000
,  // measure 72
0001
0000
0010
0000
0100
0000
0002
0000
0000
0000
0103
0000
0010
0000
0001
0000
1000
0000
0010
0000
0100
0000
0001
0000
1000
0000
0000
0000
0100
00M0
0100
0000
,  // measure 73
0001
0000
0000
0000
1000
0010
0000
0100
0002
0000
0000
0000
1003
0000
0000
0000
,  // measure 74
2100
0000
0000
0000
0000
0000
0000
0000
3001
0000
0100
00M0
0100
0000
0010
0000
0000
0000
0001
0000
1000
0000
0000
0000
0001
1000
0001
1000
0001
0000
0000
0000
,  // measure 75
1001
0000
0000
0000
1000
0010
0000
0100
0002
0000
0000
0000
1003
0000
0000
0000
,  // measure 76
1020
0000
0000
0000
0130
0001
1000
0100
0010
0001
1000
0010
1010
0000
1001
0000
,  // measure 77
0000
0011
0000
0000
0110
0000
1100
0000
0000
1010
0000
0000
0110
0000
0101
0000
,  // measure 78
0000
1001
0000
1100
0000
0011
0000
0000
1001
0000
0101
0000
1010
0000
1000
0100
,  // measure 79
0010
0000
0000
0001
0000
0000
0100
0000
0000
0010
0000
0000
1000
0000
0000
0001
0000
0000
0100
0000
0000
0001
0000
0000
1000
0000
0100
0000
0010
0000
0001
0000
0100
0000
0010
0000
1000
0000
0000
0000
0000
0000
0000
0000
0000
0000
0000
0000
;
