#TITLE:《ORDERBREAKER》;
#SUBTITLE:;
#ARTIST:Blacklolita;
#TITLETRANSLIT:(ORDERBREAKER);
#SUBTITLETRANSLIT:;
#ARTISTTRANSLIT:;
#GENRE:GODSPEED;
#CREDIT:skeleton made by t7r;
#BANNER:(ORDERBREAKER).png;
#BACKGROUND:(ORDERBREAKER)-bg.png;
#LYRICSPATH:;
#CDTITLE:../_YSD cdtitles/ysd sale3 cdtitle.png;
#MUSIC:(ORDERBREAKER).ogg;
#OFFSET:0.000000;
#SAMPLESTART:70.843002;
#SAMPLELENGTH:23.132000;
#SELECTABLE:YES;
#BPMS:0.000000=166.000000
;
#STOPS:
;
#BGCHANGES:;
#KEYSOUNDS:;
#ATTACKS:;

//---------------dance-single - ----------------
#NOTES:
     dance-single:
     :
     Beginner:
     3:
     0.164299,0.297311,0.220230,0.228387,0.000000,141.000000,114.000000,27.000000,28.000000,0.000000,0.000000,0.164299,0.297311,0.220230,0.228387,0.000000,141.000000,114.000000,27.000000,28.000000,0.000000,0.000000:
// measure 0
0000
0000
0000
0000
,  // measure 1
0000
0000
0000
0000
,  // measure 2
0000
0000
0000
0000
,  // measure 3
0000
0000
0000
0000
,  // measure 4
0000
0000
0000
0000
,  // measure 5
1000
0000
0000
0000
,  // measure 6
0100
0000
0000
0000
,  // measure 7
0010
0000
0000
0000
,  // measure 8
0001
0000
1001
0000
,  // measure 9
2000
0000
3000
0000
,  // measure 10
0020
0000
0030
0000
,  // measure 11
0200
0000
0300
0000
,  // measure 12
0002
0000
0003
0000
,  // measure 13
2000
0000
3000
0000
,  // measure 14
0200
0000
0300
0000
,  // measure 15
0020
0000
0030
0000
,  // measure 16
0002
0000
0003
0000
,  // measure 17
1000
0000
1001
0002
,  // measure 18
0000
0003
0110
0000
,  // measure 19
1001
0000
0110
0200
,  // measure 20
0000
0300
1001
0000
,  // measure 21
1000
0000
1001
0020
,  // measure 22
0000
0030
0110
0000
,  // measure 23
1001
0000
0110
0000
,  // measure 24
0100
0000
1001
0000
,  // measure 25
0100
0000
1001
2000
,  // measure 26
0000
3000
1001
0000
,  // measure 27
0010
0000
0110
0200
,  // measure 28
0000
0300
0110
0000
,  // measure 29
0001
0000
0010
0010
,  // measure 30
0010
0010
0010
0000
,  // measure 31
0110
0000
0000
0000
,  // measure 32
0000
0000
0000
0000
,  // measure 33
1001
0000
0000
0000
,  // measure 34
1000
0000
0000
0000
,  // measure 35
0010
0000
0000
0000
,  // measure 36
0100
0000
0000
0000
,  // measure 37
0001
0000
0000
0000
,  // measure 38
0010
0000
0000
0000
,  // measure 39
0100
0000
0000
0000
,  // measure 40
1000
0000
0000
0000
,  // measure 41
1001
0000
0001
0000
,  // measure 42
0001
0000
0100
0000
,  // measure 43
0100
0000
0010
0000
,  // measure 44
0010
0000
1000
0000
,  // measure 45
1001
0000
0000
0000
,  // measure 46
0110
0000
0010
0000
,  // measure 47
2002
0000
0000
0000
,  // measure 48
0000
0000
3003
0000
,  // measure 49
2000
0000
3000
0000
,  // measure 50
0002
0000
0003
0000
,  // measure 51
0010
0010
0000
0100
,  // measure 52
0100
0100
0100
0000
,  // measure 53
0020
0000
0030
0000
,  // measure 54
2000
0000
3000
0000
,  // measure 55
0100
0000
0010
0010
,  // measure 56
0010
0010
0010
0000
,  // measure 57
0002
0000
0003
0000
,  // measure 58
0200
0000
0300
0000
,  // measure 59
0010
0000
1000
1000
,  // measure 60
1000
1000
1000
0000
,  // measure 61
0002
0000
0003
0000
,  // measure 62
0020
0000
0030
0000
,  // measure 63
0001
0000
0100
0100
,  // measure 64
0100
0100
0100
0000
,  // measure 65
0020
0000
0030
0000
,  // measure 66
2000
0000
3000
0000
,  // measure 67
0002
0000
0003
0000
,  // measure 68
0020
0000
0030
0000
,  // measure 69
0100
0000
0000
0000
,  // measure 70
1000
0000
0000
0000
,  // measure 71
0001
0000
0000
0000
,  // measure 72
0200
0300
0000
0000
0000
0000
0000
0000
,  // measure 73
0110
0000
0000
0000
,  // measure 74
1000
0000
0000
0000
,  // measure 75
1001
0000
0000
0000
,  // measure 76
0100
0000
0000
0000
,  // measure 77
0110
0000
0000
0000
,  // measure 78
0001
0000
1000
0000
,  // measure 79
1001
0000
0000
0000
,  // measure 80
0000
0000
0110
0000
,  // measure 81
1001
0000
0000
0000
;

//---------------dance-single - ----------------
#NOTES:
     dance-single:
     :
     Easy:
     7:
     0.329763,0.462483,0.505714,0.913547,0.028548,283.000000,221.000000,62.000000,112.000000,0.000000,0.000000,0.329763,0.462483,0.505714,0.913547,0.028548,283.000000,221.000000,62.000000,112.000000,0.000000,0.000000:
// measure 0
0000
0000
0000
0000
,  // measure 1
0000
0000
0000
0000
,  // measure 2
0000
0000
0000
0000
,  // measure 3
0000
0000
0000
0000
,  // measure 4
0000
0000
0000
0000
,  // measure 5
1000
0000
0000
1000
0000
0000
0000
0000
,  // measure 6
0001
0000
0000
0001
0000
0000
0000
0000
,  // measure 7
0010
0000
0000
0010
0000
0000
0000
0000
,  // measure 8
0100
1000
0002
0000
,  // measure 9
0203
0000
0000
0320
0000
0000
2030
0000
,  // measure 10
3200
0000
0000
0320
0000
0000
0032
0000
,  // measure 11
2003
0000
0000
3002
0000
0000
0023
0000
,  // measure 12
2030
0000
0000
3020
0000
0000
0032
0000
,  // measure 13
0203
0000
0000
0320
0000
0000
2030
0000
,  // measure 14
3002
0000
0000
0023
0000
0000
0230
0000
,  // measure 15
2300
0000
0000
3020
0000
0000
0230
0000
,  // measure 16
0302
1003
1100
0011
,  // measure 17
0202
0303
1001
2000
,  // measure 18
3200
0310
0022
0033
,  // measure 19
0100
0000
0000
0100
0000
0000
0000
0000
1001
0000
0000
0000
0002
0000
0000
0000
,  // measure 20
0023
0130
2200
3300
,  // measure 21
2000
3001
0101
0200
,  // measure 22
0320
1030
2002
3003
,  // measure 23
0001
0000
0000
0010
0100
0000
1000
0000
,  // measure 24
0000
0010
0000
0000
0110
0000
0001
0000
,  // measure 25
2000
3000
1100
0002
,  // measure 26
0203
0310
2020
3030
,  // measure 27
0100
0000
0000
0100
0000
0000
0000
0000
1001
0000
0000
0000
0002
0000
0000
0000
,  // measure 28
0023
0130
2200
3300
,  // measure 29
2000
3001
0101
0110
,  // measure 30
0110
0110
2002
3003
,  // measure 31
0002
0000
0000
0000
,  // measure 32
0000
0000
0000
0000
,  // measure 33
0023
0000
0000
0230
0000
0000
2300
0000
,  // measure 34
0000
3020
0000
0000
0130
0000
0001
0000
,  // measure 35
1000
0100
0000
0020
0000
0000
0031
0000
,  // measure 36
0100
0010
0000
2000
0000
0000
3100
0000
,  // measure 37
0020
0032
0203
0000
,  // measure 38
0320
0000
0000
0000
2030
0000
0000
3001
,  // measure 39
0010
0100
0000
2000
0000
0000
3001
0000
,  // measure 40
0200
0000
0000
0310
,  // measure 41
1001
1000
0100
0010
,  // measure 42
0001
0100
0010
1000
,  // measure 43
0110
0001
0100
0010
,  // measure 44
1000
0001
0100
1010
,  // measure 45
1001
0000
0000
1001
0000
0000
1001
0000
,  // measure 46
0011
0000
0000
0011
0000
0000
0011
0000
,  // measure 47
0220
0000
0000
0000
,  // measure 48
0000
0000
0330
0000
2002
3003
0000
0000
,  // measure 49
2002
3003
0110
0000
,  // measure 50
2002
3003
0110
0000
,  // measure 51
0001
1000
1100
0200
,  // measure 52
0320
0031
2002
3003
,  // measure 53
0220
0330
1001
0000
,  // measure 54
0220
0330
1001
0000
,  // measure 55
1000
0000
0000
1000
0000
0000
0000
0000
1010
0000
0000
0000
0020
0000
0000
0000
,  // measure 56
0230
0301
1001
0200
,  // measure 57
0320
0030
1001
0000
,  // measure 58
0220
0330
1001
0000
,  // measure 59
2000
3100
0011
0002
,  // measure 60
0203
0310
2002
3003
,  // measure 61
2000
3100
0011
0002
,  // measure 62
0203
0300
1010
0000
,  // measure 63
0100
0000
0000
0100
0000
0000
0000
0000
1001
0000
0000
0000
0002
0000
0000
0000
,  // measure 64
0203
0310
1001
0001
,  // measure 65
0200
0000
0000
0000
,  // measure 66
0302
0000
0000
0000
,  // measure 67
2003
0000
0000
0000
,  // measure 68
3200
0000
0320
0000
,  // measure 69
0031
0000
1001
1000
,  // measure 70
0000
0010
0110
0000
,  // measure 71
0002
0003
1001
1000
,  // measure 72
0200
0300
0000
0000
0011
0000
0000
0000
,  // measure 73
1000
0000
0000
1000
0000
0000
0000
0000
1001
0000
0000
0000
0100
0000
0000
0000
,  // measure 74
0020
0030
1001
0001
,  // measure 75
0010
0000
0000
0010
0000
0000
0000
0000
0110
0000
0000
0000
2000
0000
0000
0000
,  // measure 76
3002
0103
0220
0330
,  // measure 77
0001
0000
0000
0001
0000
0000
0000
0000
1001
0000
0000
0000
0100
0000
0000
0000
,  // measure 78
0010
0000
1001
1000
,  // measure 79
0020
0000
0030
2000
0000
3000
0200
0000
,  // measure 80
0000
0000
0020
0330
,  // measure 81
1001
0000
0000
0000
;

//---------------dance-single - ----------------
#NOTES:
     dance-single:
     :
     Medium:
     12:
     0.484739,0.627656,0.530184,0.579124,0.354815,416.000000,351.000000,65.000000,71.000000,0.000000,0.000000,0.484739,0.627656,0.530184,0.579124,0.354815,416.000000,351.000000,65.000000,71.000000,0.000000,0.000000:
// measure 0
0000
0000
0000
0000
,  // measure 1
0000
0000
0000
0000
,  // measure 2
0000
0000
0000
0000
,  // measure 3
0000
0000
0000
0000
,  // measure 4
0000
0000
0000
0000
,  // measure 5
1001
0000
0000
1001
0000
0000
0001
0000
,  // measure 6
0101
0000
0000
0101
0000
0000
0100
0000
,  // measure 7
0110
0000
0000
0110
0000
0000
0010
0000
,  // measure 8
1000
0010
0202
0303
,  // measure 9
0202
0000
0000
0303
0000
0000
2002
0000
0000
3003
0000
0000
1000
0000
0000
0000
,  // measure 10
2200
0000
0000
3300
0000
0000
0220
0000
0000
0330
0000
0000
0010
0000
0000
0000
,  // measure 11
0022
0000
0000
0033
0000
0000
0202
0000
0000
0303
0000
0000
0100
0000
0000
0000
,  // measure 12
2020
0000
0000
3030
0000
0000
2002
0000
0000
3003
0000
0000
0001
0000
0000
0000
,  // measure 13
0010
0001
0010
0200
0000
0000
1300
0001
,  // measure 14
0200
0000
0000
0320
0000
0000
1030
0100
,  // measure 15
0010
0100
1000
0001
0100
0010
0100
0001
,  // measure 16
1000
0000
0200
0000
0000
0300
0000
0000
0011
0000
0000
0000
1001
0000
0000
0000
,  // measure 17
2020
0000
0000
3030
0000
0000
1001
0000
0000
0001
0000
0001
,  // measure 18
0010
0000
0000
0000
0010
0000
0100
0000
1000
0000
0100
0000
0020
0000
0000
0000
0000
0000
0031
0000
0000
1000
0000
0000
,  // measure 19
0010
0000
0000
0000
0000
0000
0000
0000
0000
1010
0000
0000
0000
0000
0000
0000
0000
0000
0000
0000
0000
0000
0000
0000
1001
0000
0000
0000
0000
0000
0000
0000
0000
0000
0000
0000
0001
0000
0000
0000
0000
0000
0000
0000
0001
0000
0000
0000
,  // measure 20
0100
0000
0100
0010
0000
0010
1000
0010
0100
0001
1000
0100
,  // measure 21
0010
0000
0010
0001
0000
0000
0011
0000
0000
0010
0000
0010
,  // measure 22
0001
0000
0001
0100
0010
1000
0002
0000
0000
0000
0000
0000
,  // measure 23
0013
0000
0000
0100
0000
0000
1000
0000
1001
0000
0000
0000
0001
0000
0100
0000
,  // measure 24
0010
0000
0000
0000
0000
0000
1000
0000
0000
0000
0000
0000
0000
0000
0000
0001
0000
0000
0000
0000
0000
0000
0000
0000
0011
0000
0000
0000
0000
0000
0000
0000
0010
0000
0000
0000
0100
0000
0000
0000
0000
0000
0000
0000
0100
0000
0000
0000
,  // measure 25
2000
0000
0000
0000
0000
0000
3001
0000
0000
0100
0000
0100
,  // measure 26
0001
0000
0000
0000
0001
0000
0010
0000
0100
0000
1000
0000
0200
0000
0000
0000
0000
0000
0000
0000
0000
0310
0000
0000
,  // measure 27
0001
0000
0000
0000
0000
0000
0000
0000
0000
0011
0000
0000
0000
0000
0000
0000
0000
0000
0000
0000
0000
0000
0000
0000
1001
0000
0000
0000
0000
0000
0000
0000
0000
0000
0000
0000
1000
0000
0000
0000
0000
0000
0000
0000
1000
0000
0000
0000
,  // measure 28
0010
0000
0010
0100
0001
1000
0200
0000
0000
0000
0000
0000
,  // measure 29
0310
0000
0010
0001
0000
0000
1001
0000
0000
1010
0000
0000
,  // measure 30
0101
0000
0011
0000
2200
0000
0300
3000
,  // measure 31
0002
0000
0000
0203
0000
0000
0320
0000
,  // measure 32
0000
2030
0000
0000
3200
0000
0000
0000
,  // measure 33
0310
0000
0001
1000
0000
0001
1000
0000
,  // measure 34
0010
0000
0100
0001
0000
0100
0001
0000
,  // measure 35
1000
0001
0000
1000
0001
0000
0010
0000
,  // measure 36
0100
0000
1000
0001
0000
1000
0001
0000
,  // measure 37
0100
0000
0010
1000
0000
0010
1000
0000
,  // measure 38
0001
0000
0010
0100
0000
0010
0100
0000
,  // measure 39
1000
0001
0000
0100
0010
0000
1000
0000
,  // measure 40
0002
0000
0000
0013
,  // measure 41
1001
1000
0010
0100
,  // measure 42
0001
1000
0100
0010
,  // measure 43
0011
1000
0010
0100
,  // measure 44
0001
0000
0010
0000
0100
1000
1001
0000
,  // measure 45
0001
0000
0100
0010
0000
1000
0001
0010
,  // measure 46
0100
0010
0001
1000
0010
0100
0001
1000
,  // measure 47
0200
0000
0000
0000
,  // measure 48
0000
0000
0300
0000
2002
3003
0000
0000
,  // measure 49
2002
3003
0202
0303
,  // measure 50
1000
0100
0110
0010
,  // measure 51
0001
1000
0001
1000
0000
0000
1010
0000
0000
0010
0000
0010
,  // measure 52
0100
0000
0100
0001
1000
0100
0020
0000
0000
0000
0000
0000
,  // measure 53
0032
0003
0202
0303
,  // measure 54
0100
0010
1010
1000
,  // measure 55
0001
0000
0000
0000
0000
0000
0000
0000
0000
0101
0000
0000
0000
0000
0000
0000
0000
0000
0000
0000
0000
0000
0000
0000
1001
0000
0000
0000
0000
0000
0000
0000
0000
0000
0000
0000
1000
0000
0000
0000
0000
0000
0000
0000
1000
0000
0000
0000
,  // measure 56
0100
0000
0100
0010
0001
0010
0100
0000
0100
1000
0001
0100
,  // measure 57
0002
0003
2020
3030
,  // measure 58
1000
0100
0110
0010
,  // measure 59
0001
0100
0001
0100
0000
0000
0110
0000
0000
0010
0000
0010
,  // measure 60
1000
0000
1000
0100
0010
0001
0200
0000
0000
0000
0000
0000
,  // measure 61
0310
0000
0010
1000
0000
1000
0001
0000
0001
0010
0100
0010
,  // measure 62
0001
0100
0110
0010
,  // measure 63
1000
0000
0000
0000
0000
0000
0000
0000
0000
1001
0000
0000
0000
0000
0000
0000
0000
0000
0000
0000
0000
0000
0000
0000
0011
0000
0000
0000
0000
0000
0000
0000
0000
0000
0000
0000
0010
0000
0000
0000
0000
0000
0000
0000
0010
0000
0000
0000
,  // measure 64
0100
0000
0100
1000
0100
0010
0001
0010
0100
1000
0001
0100
,  // measure 65
0020
0000
0000
0000
,  // measure 66
2030
0000
0000
0000
,  // measure 67
3002
0000
0000
0000
,  // measure 68
0023
0000
0230
0000
,  // measure 69
1300
0000
0000
0001
0100
0010
1000
0000
,  // measure 70
0100
0000
0010
0001
2002
0000
3003
0000
,  // measure 71
0020
0030
0110
1001
,  // measure 72
0200
0300
0010
0100
2002
0000
3003
0000
,  // measure 73
0001
0000
0000
0101
0000
0000
1000
0000
1100
0000
0000
0000
0100
0000
0010
0000
,  // measure 74
0002
0000
0000
0003
0000
0000
0101
0000
0000
0001
1000
0001
,  // measure 75
1000
0000
0000
0000
0000
0000
0000
0000
0000
1100
0000
0000
0000
0000
0000
0000
0000
0000
0001
0000
0000
0000
0000
0000
0101
0000
0000
0000
0000
0000
0000
0000
0000
0000
0000
0000
1000
0000
0000
0000
0000
0000
0000
0000
1000
0000
0000
0000
,  // measure 76
0100
0000
0100
0010
0000
0000
0011
0000
0000
0001
0100
0010
,  // measure 77
1000
0000
0000
1001
0000
0000
0010
0000
0110
0000
0000
0000
2001
0000
0000
0000
,  // measure 78
0000
0000
0000
3100
0000
0000
0011
0000
0001
0100
0000
0100
,  // measure 79
0020
0000
0000
0030
0000
0000
2020
0000
0000
3030
0000
0000
2200
0000
0000
0000
,  // measure 80
0000
0000
0300
0000
0020
0000
0030
3000
,  // measure 81
0001
0000
0000
0000
;

//---------------dance-single - ----------------
#NOTES:
     dance-single:
     :
     Hard:
     15:
     0.658360,0.792829,0.636221,0.880921,0.770806,565.000000,487.000000,78.000000,108.000000,0.000000,0.000000,0.658360,0.792829,0.636221,0.880921,0.770806,565.000000,487.000000,78.000000,108.000000,0.000000,0.000000:
// measure 0
0000
0000
0000
0000
,  // measure 1
0000
0000
0000
0000
,  // measure 2
0000
0000
0000
0000
,  // measure 3
0000
0000
0000
0000
,  // measure 4
0000
0000
0000
0000
,  // measure 5
1001
0000
1000
0001
0000
0100
0001
1000
,  // measure 6
0100
0000
0010
0001
0000
1000
0010
0200
,  // measure 7
0301
0000
1000
0100
0000
1000
0001
0100
,  // measure 8
0010
1000
0000
0000
1000
0001
0000
0000
0202
0000
0000
0000
0303
0000
0000
0000
,  // measure 9
2002
0000
3003
2200
0000
3300
0011
0000
,  // measure 10
2002
0000
3003
2020
0000
3030
0101
0000
,  // measure 11
2200
0000
3300
0022
0000
0033
0101
0000
,  // measure 12
1010
1000
0100
0001
0100
1000
0001
0100
,  // measure 13
0110
0010
1000
2002
0000
3003
0011
0010
,  // measure 14
0200
0000
0000
0000
0300
0000
2002
0000
0000
0000
3003
0000
0101
0000
0100
0001
,  // measure 15
1000
0100
0010
0011
0001
1000
0010
0100
,  // measure 16
0001
0100
0010
0000
1000
0000
0001
0010
0100
0000
1000
0000
1001
0000
0000
0000
,  // measure 17
2002
0000
0000
3003
0000
0000
1100
0000
0000
1000
0010
0100
,  // measure 18
0001
0000
0010
0000
0100
0000
1000
0000
0010
0000
0001
0000
0010
0000
0000
0000
0000
0000
1000
0000
0000
0001
0100
0001
,  // measure 19
0100
0000
0000
0000
0000
0000
0000
0000
0000
0101
0000
0000
0000
0000
0000
0000
0000
0000
0000
0000
0000
0000
0000
0000
1001
0000
0000
0000
0000
0000
0000
0000
0000
0000
0000
0000
1100
0000
0000
0000
1000
0000
0000
0000
0001
0000
0000
0000
,  // measure 20
0200
0000
0000
0300
0000
0000
0000
0000
0000
0000
0000
0000
0000
0000
0000
0000
0200
0000
0000
0300
0000
0000
0000
0000
0000
0000
0000
0000
0000
0000
0000
0000
1000
0000
0000
0000
0000
0000
0000
0000
0000
0000
0000
0000
0000
0000
0000
0000
0200
0000
0000
0300
0000
0000
0000
0000
0000
0000
0000
0000
0000
0000
0000
0000
0200
0000
0000
0300
0000
0000
0000
0000
0000
0000
0000
0000
0000
0000
0000
0000
0001
0000
0000
0000
0000
0000
0000
0000
0000
0000
0000
0000
0000
0000
0000
0000
0010
0000
0000
0000
0000
0000
0000
0000
0000
0000
0000
0000
0000
0000
0000
0000
1000
0000
0000
0000
0000
0000
0000
0000
0000
0000
0000
0000
0000
0000
0000
0000
0010
0000
0000
0000
0000
0000
0000
0000
0000
0000
0000
0000
0000
0000
0000
0000
0001
0000
0000
0000
0000
0000
0000
0000
0000
0000
0000
0000
0000
0000
0000
0000
0100
0000
0000
0000
0000
0000
0000
0000
0000
0000
0000
0000
0000
0000
0000
0000
0010
0000
0000
0000
0000
0000
0000
0000
0000
0000
0000
0000
0000
0000
0000
0000
,  // measure 21
1000
1000
1000
0001
0000
0000
0011
0000
0000
1010
1000
0100
,  // measure 22
0001
0000
0100
0000
1000
0000
0001
0000
0100
0000
0010
0000
2000
0000
0000
0000
0000
0000
0100
0000
0000
3002
0000
0000
,  // measure 23
0103
0000
0000
0000
0000
0000
0000
0000
0010
0000
0000
0000
1000
0000
0000
0000
0000
0000
0000
0000
0200
0300
0000
0000
0000
0000
0000
0000
0200
0300
0000
0000
0001
0000
0000
0000
0000
0000
0000
0000
0000
0000
0000
0000
0010
0000
0000
0000
0100
0000
0000
0000
0000
0000
0000
0000
0010
0000
0000
0000
0000
0000
0000
0000
,  // measure 24
0000
0000
0000
0000
0000
0000
0000
0000
0000
0000
0000
0000
0000
0000
0000
0000
0000
0000
0000
0000
0000
0000
0000
0000
0001
0000
0000
0000
0000
0000
0000
0000
0000
0000
0000
0000
0000
0000
0000
0000
0000
0000
0000
0000
0000
0000
0000
0000
1000
0000
0000
0000
0000
0000
0000
0000
0000
0000
0000
0000
0020
0000
0000
0030
0000
0000
0000
0000
0000
0000
0000
0000
0000
0000
0000
0000
0000
0000
0000
0000
0000
0000
0000
0000
0020
0000
0000
0030
0000
0000
0000
0000
0000
0000
0000
0000
0001
0000
0000
0000
0000
0000
0000
0000
0000
0000
0000
0000
0000
0000
0000
0000
0200
0000
0000
0300
0000
0000
0000
0000
0000
0000
0000
0000
0000
0000
0000
0000
0200
0000
0000
0300
0000
0000
0000
0000
0000
0000
0000
0000
0000
0000
0000
0000
1000
0000
0000
0000
0000
0000
0000
0000
0000
0000
0000
0000
0000
0000
0000
0000
0200
0000
0000
0300
0000
0000
0000
0000
0000
0000
0000
0000
0000
0000
0000
0000
0200
0000
0000
0300
0000
0000
0000
0000
0000
0000
0000
0000
0000
0000
0000
0000
,  // measure 25
0002
0000
0000
0000
0000
0000
0013
0000
0000
1100
1000
0001
,  // measure 26
0100
0000
1000
0000
0100
0000
0001
0000
0010
0000
0100
0000
2000
0000
0000
0000
0000
0000
0000
0000
0000
3001
0100
0001
,  // measure 27
0100
0000
0000
0000
0000
0000
0000
0000
0000
0000
0000
0000
0000
0000
0000
0000
0000
0000
0000
0000
0000
0000
0000
0000
0000
0000
0000
0000
0000
0000
0000
0000
0000
0000
0000
0000
0101
0000
0000
0000
0000
0000
0000
0000
0000
0000
0000
0000
0000
0000
0000
0000
0000
0000
0000
0000
0000
0000
0000
0000
0000
0000
0000
0000
0000
0000
0000
0000
0000
0000
0000
0000
0000
0000
0000
0000
0000
0000
0000
0000
0000
0000
0000
0000
0000
0000
0000
0000
0000
0000
0000
0000
0000
0000
0000
0000
1001
0000
0000
0000
0000
0000
0000
0000
0000
0000
0000
0000
0000
0000
0000
0000
0000
0000
0000
0000
0000
0000
0000
0000
0000
0000
0000
0000
0000
0000
0000
0000
0000
0000
0000
0000
0000
0000
0000
0000
0000
0000
0000
0000
0000
0000
0000
0000
1100
0000
0000
0000
0000
0000
0000
0000
0000
0000
0000
0000
0000
0000
0000
0000
1000
0000
0000
0000
0000
0000
0000
0000
0000
0000
0000
0000
0000
0000
0000
0000
0020
0000
0000
0030
0000
0000
0000
0000
0000
0000
0000
0000
0000
0000
0000
0000
,  // measure 28
0020
0000
0000
0030
0000
0000
0000
0000
0000
0000
0000
0000
0000
0000
0000
0000
0001
0000
0000
0000
0000
0000
0000
0000
0000
0000
0000
0000
0000
0000
0000
0000
0020
0000
0000
0030
0000
0000
0000
0000
0000
0000
0000
0000
0000
0000
0000
0000
0020
0000
0000
0030
0000
0000
0000
0000
0000
0000
0000
0000
0000
0000
0000
0000
1000
0000
0000
0000
0000
0000
0000
0000
0000
0000
0000
0000
0000
0000
0000
0000
0100
0000
0000
0000
0000
0000
0000
0000
0000
0000
0000
0000
0000
0000
0000
0000
0020
0000
0000
0000
0000
0000
0000
0000
0000
0000
0000
0000
0000
0000
0000
0000
0000
0000
0000
0000
0000
0000
0000
0000
0000
0000
0000
0000
0000
0000
0000
0000
0000
0000
0000
0000
0000
0000
0000
0000
0000
0000
0000
0000
0000
0000
0000
0000
0130
0000
0000
0000
0000
0000
0000
0000
0000
0000
0000
0000
0000
0000
0000
0000
0000
0000
0000
0000
0000
0000
0000
0000
1000
0000
0000
0000
0000
0000
0000
0000
0000
0000
0000
0000
0000
0000
0000
0000
0000
0000
0000
0000
0000
0000
0000
0000
,  // measure 29
0001
0001
0001
0100
0000
0000
0101
0000
0000
1001
0000
1000
,  // measure 30
0100
0000
0010
0001
0000
1000
0010
0000
0000
0100
0000
0000
,  // measure 31
0101
0000
0001
1000
0000
0100
0010
0000
,  // measure 32
0001
1000
0000
0001
0200
0000
0300
0000
,  // measure 33
1010
0000
1000
0001
0000
1000
0100
0000
,  // measure 34
0110
0000
0010
0001
0000
1000
0010
0000
,  // measure 35
0100
0001
0000
1000
0100
0000
0010
0001
,  // measure 36
1000
0000
0000
0010
0000
0000
0100
0000
0000
0001
0000
0000
1000
0000
0100
0000
0010
0000
0001
0000
0100
0000
0010
0000
,  // measure 37
0002
0000
0000
0000
0013
0100
0001
0000
2000
0000
0000
0000
0000
0000
0000
0000
,  // measure 38
3100
0000
0000
0000
0010
0000
0001
0000
2000
0000
0000
0000
0000
0000
3010
0100
,  // measure 39
0001
1000
0100
0010
0001
1000
0010
0100
,  // measure 40
0002
0000
0013
0100
2000
0000
3001
0000
,  // measure 41
0100
0000
0010
1000
0100
0000
0010
0001
,  // measure 42
0100
0000
0010
1000
0001
0010
0100
1000
,  // measure 43
0010
0000
0100
0001
0020
0000
0130
1000
,  // measure 44
0001
0000
0100
0000
0010
0100
0101
0000
,  // measure 45
1001
1000
0100
0110
0010
0001
1001
1000
,  // measure 46
0001
0100
0010
0000
1000
0000
0100
0010
0001
0000
1000
0000
0010
0100
0001
0000
,  // measure 47
2002
0000
0000
0000
,  // measure 48
0000
0000
3003
0000
1001
0020
0000
0030
,  // measure 49
1001
0000
1000
0000
0100
0000
0010
0000
0001
0000
1000
0000
0020
0000
0000
0000
0000
0000
0000
0000
0000
1030
0000
0000
,  // measure 50
0200
0310
0021
0130
,  // measure 51
1000
0000
0000
0000
0000
0000
0000
0000
0000
0000
0000
0000
0000
0000
0000
0000
1000
0000
0000
0000
0000
0000
0000
0000
0000
0000
0000
0000
0000
0000
0000
0000
1000
0000
0000
0000
0000
0000
0000
0000
0000
0000
0000
0000
0000
0000
0000
0000
0001
0000
0000
0000
0000
0000
0000
0000
0000
0000
0000
0000
0000
0000
0000
0000
0000
0000
0000
0000
0000
0000
0000
0000
0000
0000
0000
0000
0000
0000
0000
0000
0000
0000
0000
0000
0000
0000
0000
0000
0000
0000
0000
0000
0000
0000
0000
0000
1001
0000
0000
0000
0000
0000
0000
0000
0000
0000
0000
0000
0000
0000
0000
0000
0000
0000
0000
0000
0000
0000
0000
0000
0000
0000
0000
0000
0000
0000
0000
0000
0001
0000
0000
0000
0000
0000
0000
0000
0000
0000
0000
0000
0000
0000
0000
0000
1000
0000
0000
0000
0000
0000
0000
0000
0000
0000
0000
0000
0000
0000
0000
0000
0200
0000
0000
0300
0000
0000
0000
0000
0000
0000
0000
0000
0000
0000
0000
0000
0200
0000
0000
0300
0000
0000
0000
0000
0000
0000
0000
0000
0000
0000
0000
0000
,  // measure 52
0001
0000
0000
0000
0000
0000
0000
0000
0000
0000
0000
0000
0000
0000
0000
0000
0200
0000
0000
0300
0000
0000
0000
0000
0000
0000
0000
0000
0000
0000
0000
0000
0200
0000
0000
0300
0000
0000
0000
0000
0000
0000
0000
0000
0000
0000
0000
0000
1000
0000
0000
0000
0000
0000
0000
0000
0000
0000
0000
0000
0000
0000
0000
0000
0020
0000
0000
0030
0000
0000
0000
0000
0000
0000
0000
0000
0000
0000
0000
0000
0020
0000
0000
0030
0000
0000
0000
0000
0000
0000
0000
0000
0000
0000
0000
0000
0002
0000
0000
0000
0000
0000
0000
0000
0000
0000
0000
0000
0000
0000
0000
0000
0000
0000
0000
0000
0000
0000
0000
0000
0000
0000
0000
0000
0000
0000
0000
0000
0000
0000
0000
0000
0000
0000
0000
0000
0000
0000
0000
0000
0000
0000
0000
0000
0003
0000
0000
0000
0000
0000
0000
0000
0000
0000
0000
0000
0000
0000
0000
0000
0000
0000
0000
0000
0000
0000
0000
0000
0000
0000
0000
0000
0000
0000
0000
0000
0000
0000
0000
0000
0000
0000
0000
0000
0000
0000
0000
0000
0000
0000
0000
0000
,  // measure 53
0202
0000
0303
0000
1010
0000
1000
0100
,  // measure 54
0020
0030
2001
3010
,  // measure 55
0101
0000
0000
0000
0000
0000
0000
0000
0000
0000
0000
0000
0000
0000
0000
0000
0000
0000
0000
0000
0000
0000
0000
0000
0000
0000
0000
0000
0000
0000
0000
0000
0000
0000
0000
0000
0101
0000
0000
0000
0000
0000
0000
0000
0000
0000
0000
0000
0000
0000
0000
0000
0000
0000
0000
0000
0000
0000
0000
0000
0000
0000
0000
0000
0000
0000
0000
0000
0000
0000
0000
0000
0000
0000
0000
0000
0000
0000
0000
0000
0000
0000
0000
0000
0000
0000
0000
0000
0000
0000
0000
0000
0000
0000
0000
0000
1001
0000
0000
0000
0000
0000
0000
0000
0000
0000
0000
0000
0000
0000
0000
0000
0000
0000
0000
0000
0000
0000
0000
0000
0000
0000
0000
0000
0000
0000
0000
0000
0000
0000
0000
0000
0000
0000
0000
0000
0000
0000
0000
0000
0000
0000
0000
0000
0001
0000
0000
0000
0000
0000
0000
0000
0000
0000
0000
0000
0000
0000
0000
0000
0200
0000
0000
0300
0000
0000
0000
0000
0000
0000
0000
0000
0000
0000
0000
0000
0200
0000
0000
0300
0000
0000
0000
0000
0000
0000
0000
0000
0000
0000
0000
0000
,  // measure 56
1000
0000
0000
0000
0000
0000
0000
0000
0000
0000
0000
0000
0000
0000
0000
0000
0200
0000
0000
0300
0000
0000
0000
0000
0000
0000
0000
0000
0000
0000
0000
0000
0200
0000
0000
0300
0000
0000
0000
0000
0000
0000
0000
0000
0000
0000
0000
0000
0010
0000
0000
0000
0000
0000
0000
0000
0000
0000
0000
0000
0000
0000
0000
0000
1000
0000
0000
0000
0000
0000
0000
0000
0000
0000
0000
0000
0000
0000
0000
0000
0100
0000
0000
0000
0000
0000
0000
0000
0000
0000
0000
0000
0000
0000
0000
0000
0010
0000
0000
0000
0000
0000
0000
0000
0000
0000
0000
0000
0000
0000
0000
0000
0200
0000
0000
0300
0000
0000
0000
0000
0000
0000
0000
0000
0000
0000
0000
0000
0200
0000
0000
0300
0000
0000
0000
0000
0000
0000
0000
0000
0000
0000
0000
0000
0001
0000
0000
0000
0000
0000
0000
0000
0000
0000
0000
0000
0000
0000
0000
0000
0200
0000
0000
0300
0000
0000
0000
0000
0000
0000
0000
0000
0000
0000
0000
0000
0200
0000
0000
0300
0000
0000
0000
0000
0000
0000
0000
0000
0000
0000
0000
0000
,  // measure 57
1000
0000
0010
0000
0100
0000
0001
0000
0010
0000
0100
0000
2000
0000
0000
0000
0000
0000
0000
0000
0000
3010
0000
0000
,  // measure 58
0200
0000
0000
0000
0000
0000
0301
0000
0000
0000
0000
0000
2100
0000
0000
0000
0000
0000
3010
0000
0000
1000
0001
1000
,  // measure 59
0001
0000
0000
0000
0000
0000
0000
0000
0000
0000
0000
0000
0000
0000
0000
0000
0001
0000
0000
0000
0000
0000
0000
0000
0000
0000
0000
0000
0000
0000
0000
0000
0001
0000
0000
0000
0000
0000
0000
0000
0000
0000
0000
0000
0000
0000
0000
0000
0100
0000
0000
0000
0000
0000
0000
0000
0000
0000
0000
0000
0000
0000
0000
0000
0000
0000
0000
0000
0000
0000
0000
0000
0000
0000
0000
0000
0000
0000
0000
0000
0000
0000
0000
0000
0000
0000
0000
0000
0000
0000
0000
0000
0000
0000
0000
0000
0101
0000
0000
0000
0000
0000
0000
0000
0000
0000
0000
0000
0000
0000
0000
0000
0000
0000
0000
0000
0000
0000
0000
0000
0000
0000
0000
0000
0000
0000
0000
0000
0001
0000
0000
0000
0000
0000
0000
0000
0000
0000
0000
0000
0000
0000
0000
0000
1000
0000
0000
0000
0000
0000
0000
0000
0000
0000
0000
0000
0000
0000
0000
0000
0200
0000
0000
0300
0000
0000
0000
0000
0000
0000
0000
0000
0000
0000
0000
0000
0200
0000
0000
0300
0000
0000
0000
0000
0000
0000
0000
0000
0000
0000
0000
0000
,  // measure 60
0001
0000
0000
0000
0000
0000
0000
0000
0000
0000
0000
0000
0000
0000
0000
0000
0200
0000
0000
0300
0000
0000
0000
0000
0000
0000
0000
0000
0000
0000
0000
0000
0200
0000
0000
0300
0000
0000
0000
0000
0000
0000
0000
0000
0000
0000
0000
0000
1000
0000
0000
0000
0000
0000
0000
0000
0000
0000
0000
0000
0000
0000
0000
0000
0020
0000
0000
0030
0000
0000
0000
0000
0000
0000
0000
0000
0000
0000
0000
0000
0020
0000
0000
0030
0000
0000
0000
0000
0000
0000
0000
0000
0000
0000
0000
0000
0002
0000
0000
0000
0000
0000
0000
0000
0000
0000
0000
0000
0000
0000
0000
0000
0000
0000
0000
0000
0000
0000
0000
0000
0000
0000
0000
0000
0000
0000
0000
0000
0000
0000
0000
0000
0000
0000
0000
0000
0000
0000
0000
0000
0000
0000
0000
0000
0000
0000
0000
0000
0000
0000
0000
0000
0000
0000
0000
0000
0000
0000
0000
0000
0000
0000
0000
0000
0000
0000
0000
0000
0000
0000
0000
0000
0000
0000
0000
0000
0000
0000
0000
0000
0000
0000
0000
0000
0000
0000
0000
0000
0000
0000
0000
0000
,  // measure 61
0103
0010
1000
0001
0010
0100
0010
0001
1000
0010
0100
0001
,  // measure 62
0020
0130
2100
3010
,  // measure 63
0101
0000
0000
0000
0000
0000
0000
0000
0000
0000
0000
0000
0000
0000
0000
0000
0000
0000
0000
0000
0000
0000
0000
0000
0000
0000
0000
0000
0000
0000
0000
0000
0000
0000
0000
0000
0101
0000
0000
0000
0000
0000
0000
0000
0000
0000
0000
0000
0000
0000
0000
0000
0000
0000
0000
0000
0000
0000
0000
0000
0000
0000
0000
0000
0000
0000
0000
0000
0000
0000
0000
0000
0000
0000
0000
0000
0000
0000
0000
0000
0000
0000
0000
0000
0000
0000
0000
0000
0000
0000
0000
0000
0000
0000
0000
0000
1001
0000
0000
0000
0000
0000
0000
0000
0000
0000
0000
0000
0000
0000
0000
0000
0000
0000
0000
0000
0000
0000
0000
0000
0000
0000
0000
0000
0000
0000
0000
0000
0000
0000
0000
0000
0000
0000
0000
0000
0000
0000
0000
0000
0000
0000
0000
0000
1000
0000
0000
0000
0000
0000
0000
0000
0000
0000
0000
0000
0000
0000
0000
0000
0200
0000
0000
0300
0000
0000
0000
0000
0000
0000
0000
0000
0000
0000
0000
0000
0200
0000
0000
0300
0000
0000
0000
0000
0000
0000
0000
0000
0000
0000
0000
0000
,  // measure 64
0001
0000
0000
0000
0000
0000
0000
0000
0000
0000
0000
0000
0000
0000
0000
0000
0020
0000
0000
0030
0000
0000
0000
0000
0000
0000
0000
0000
0000
0000
0000
0000
0020
0000
0000
0030
0000
0000
0000
0000
0000
0000
0000
0000
0000
0000
0000
0000
0100
0000
0000
0000
0000
0000
0000
0000
0000
0000
0000
0000
0000
0000
0000
0000
0001
0000
0000
0000
0000
0000
0000
0000
0000
0000
0000
0000
0000
0000
0000
0000
0010
0000
0000
0000
0000
0000
0000
0000
0000
0000
0000
0000
0000
0000
0000
0000
0100
0000
0000
0000
0000
0000
0000
0000
0000
0000
0000
0000
0000
0000
0000
0000
0020
0000
0000
0030
0000
0000
0000
0000
0000
0000
0000
0000
0000
0000
0000
0000
0020
0000
0000
0030
0000
0000
0000
0000
0000
0000
0000
0000
0000
0000
0000
0000
1000
0000
0000
0000
0000
0000
0000
0000
0000
0000
0000
0000
0000
0000
0000
0000
0200
0000
0000
0300
0000
0000
0000
0000
0000
0000
0000
0000
0000
0000
0000
0000
0200
0000
0000
0300
0000
0000
0000
0000
0000
0000
0000
0000
0000
0000
0000
0000
,  // measure 65
0002
0000
0000
0000
,  // measure 66
2003
0000
0000
0000
,  // measure 67
3200
1000
0010
0000
,  // measure 68
2300
0010
3001
0000
,  // measure 69
1000
0010
0100
0001
1001
1000
0100
0010
,  // measure 70
0001
0100
0010
1000
2020
0000
3030
0000
,  // measure 71
0022
0000
0000
0033
1001
0000
1010
0010
,  // measure 72
0004
1003
0100
0001
0011
0001
1000
0010
,  // measure 73
0100
0000
0000
0101
0000
0000
1000
0000
1100
0000
0000
0000
1001
0000
0001
0100
,  // measure 74
0020
0000
0000
0000
0000
0000
1030
0000
0000
0100
0000
0000
0110
0000
0000
0000
0000
0000
0010
0000
0001
0000
1000
0000
,  // measure 75
0010
0000
0000
0000
0000
0000
0000
0000
0000
1010
0000
0000
0000
0000
0000
0000
0000
0000
0001
0000
0000
0000
0000
0000
0011
0000
0000
0000
0000
0000
0000
0000
0000
0000
0000
0000
0010
0000
0000
0000
1000
0000
0000
0000
0001
0000
0000
0000
,  // measure 76
0100
1000
0001
0100
0000
0000
1010
0000
0000
1000
0100
0010
,  // measure 77
0001
0000
0000
0101
0000
0000
1000
0000
1100
0000
0000
0000
1001
0000
0000
0000
,  // measure 78
0001
0000
0000
0000
0000
0000
0010
0000
0000
0100
0000
0000
1100
0000
1000
0000
0001
0000
0010
0000
0100
0000
1000
0000
,  // measure 79
1010
0000
0001
0101
0000
1000
2200
0000
,  // measure 80
0000
0000
3300
0000
0220
0000
0030
0300
,  // measure 81
1001
0000
0000
0000
;
