#TITLE:& Intelligence;
#SUBTITLE:;
#ARTIST:lapix;
#MUSIC:& Intelligence.ogg;
#BANNER:MEGA MIX;
#BACKGROUND:& Intelligence-bg.png;
#LYRICSPATH:;
#CDTITLE:../_YSD cdtitles/ysd hypo-scvip cdtitle.png;
#SAMPLESTART:94.500000;
#SAMPLELENGTH:24.000000;
#OFFSET:-0.005;
#BPMS:0.000=160.000;
#STOPS:;
#TIMESIGNATURES:0.000=4=4;
#BGCHANGES:4=& Intelligence.avi=1.000=1=0=0=StretchNoLoop==CrossFade==,
99999=-nosongbg-=1.000=0=0=0=====
;
#FGCHANGES:;
#ATTACKS:;
#TAGS:;
#PREVIEWVID:;
#KEYSOUNDS:;

//---------------dance-single - ---------------
#NOTES:
     dance-single:
     :
     Beginner:
     3:
     0.141212,0.283391,0.175376,0.015943,0.000000,124.000000,102.000000,22.000000,2.000000,0.000000,0.000000,0.000000,0.000000,0.000000,0.141212,0.283391,0.175376,0.015943,0.000000,124.000000,102.000000,22.000000,2.000000,0.000000,0.000000,0.000000,0.000000,0.000000:
// measure 0
0000
0000
0000
0000
,  // measure 1
0000
0000
0000
0000
,  // measure 2
0000
0000
0000
0000
,  // measure 3
0000
0000
0000
0000
,  // measure 4
0000
0000
0000
0000
,  // measure 5
0000
0000
0000
0000
,  // measure 6
0000
0000
0000
0000
,  // measure 7
1000
0000
0000
0000
,  // measure 8
0001
0000
0000
0000
,  // measure 9
0010
0000
0010
0000
,  // measure 10
0010
0000
0000
0000
,  // measure 11
1001
0000
0000
0000
,  // measure 12
1000
0000
0000
0000
,  // measure 13
0110
0000
0000
0000
,  // measure 14
0010
0000
0000
0000
,  // measure 15
1001
0000
0000
0000
,  // measure 16
0110
0000
0000
0000
,  // measure 17
1001
0000
0001
0000
,  // measure 18
1000
0000
0000
0000
,  // measure 19
1001
0000
0001
0000
,  // measure 20
0100
0000
0000
0000
,  // measure 21
0001
0000
1000
0000
,  // measure 22
0100
0000
0000
0000
,  // measure 23
0010
0000
0001
0000
,  // measure 24
1000
0000
0000
0000
,  // measure 25
0010
0000
0100
0000
,  // measure 26
0001
0000
0000
0000
,  // measure 27
1001
0000
0000
0000
,  // measure 28
1000
0000
0100
0000
,  // measure 29
1000
0000
0000
0000
,  // measure 30
0100
0000
0010
0000
,  // measure 31
0001
0000
0000
0000
,  // measure 32
1000
0000
0010
0000
,  // measure 33
0110
0000
0000
0000
,  // measure 34
0100
0000
0001
0000
,  // measure 35
1001
0000
0110
0000
,  // measure 36
1001
0000
0000
0000
,  // measure 37
1000
0000
1000
0000
,  // measure 38
0010
0000
0010
0000
,  // measure 39
0100
0000
0100
0000
,  // measure 40
0001
0000
0001
0000
,  // measure 41
2000
0000
0000
0000
,  // measure 42
0000
0000
0000
3000
,  // measure 43
0002
0000
0000
0000
,  // measure 44
0000
0000
0000
0003
,  // measure 45
1001
0000
0000
0000
,  // measure 46
0001
0000
0000
0000
,  // measure 47
0010
0000
0000
0000
,  // measure 48
0100
0000
0000
0000
,  // measure 49
1000
0000
0000
0000
,  // measure 50
0001
0000
0000
0000
,  // measure 51
0100
0000
0000
0000
,  // measure 52
0010
0000
0000
0000
,  // measure 53
0110
0000
0000
0000
,  // measure 54
1000
0000
0000
0000
,  // measure 55
0100
0000
0000
0000
,  // measure 56
0010
0000
0000
0000
,  // measure 57
0001
0000
0000
0000
,  // measure 58
0100
0000
0000
0000
,  // measure 59
0010
0000
0000
0000
,  // measure 60
1000
0000
0000
0000
,  // measure 61
1001
0000
0000
0000
,  // measure 62
0001
0000
0000
0000
,  // measure 63
1001
0000
1000
0000
,  // measure 64
0100
0000
0010
0000
,  // measure 65
0100
0000
1000
0000
,  // measure 66
0001
0000
0100
0000
,  // measure 67
0010
0000
0100
0000
,  // measure 68
0001
0000
0010
0000
,  // measure 69
0100
0000
1000
0000
,  // measure 70
0010
0000
0100
0000
,  // measure 71
1001
0000
0001
0000
,  // measure 72
0010
0000
1000
0000
,  // measure 73
0010
0000
0100
0000
,  // measure 74
1000
0000
0001
0000
,  // measure 75
1001
0000
1000
0000
,  // measure 76
0110
0000
0010
0000
,  // measure 77
1001
0000
0110
0000
,  // measure 78
1001
0000
0010
0000
,  // measure 79
1001
0000
0000
0000
;

//---------------dance-single - ---------------
#NOTES:
     dance-single:
     :
     Easy:
     8:
     0.337086,0.484276,0.159432,0.231177,0.007972,296.000000,276.000000,20.000000,29.000000,0.000000,0.000000,0.000000,0.000000,0.000000,0.337086,0.484276,0.159432,0.231177,0.007972,296.000000,276.000000,20.000000,29.000000,0.000000,0.000000,0.000000,0.000000,0.000000:
// measure 0
0000
0000
0000
0000
,  // measure 1
0000
0000
0000
0000
,  // measure 2
0000
0000
0000
0000
,  // measure 3
0000
0000
0000
0000
,  // measure 4
0000
0000
0000
0000
,  // measure 5
0000
0000
0000
0000
,  // measure 6
0000
0000
0000
0000
,  // measure 7
1000
0100
0110
0000
,  // measure 8
0001
0100
0110
0000
,  // measure 9
1000
0100
0010
0100
,  // measure 10
1000
0001
0100
0101
,  // measure 11
0001
0100
1000
0100
,  // measure 12
0001
0010
0100
1100
,  // measure 13
1000
0100
0001
0100
,  // measure 14
0010
0001
1000
1001
,  // measure 15
0001
0010
0100
1100
,  // measure 16
1000
0010
0100
0101
,  // measure 17
0001
1000
0001
1000
,  // measure 18
0010
0000
0000
1001
,  // measure 19
1000
0000
0100
0000
0010
0001
0010
0000
,  // measure 20
0100
1000
0001
0000
,  // measure 21
0100
0000
0010
0000
1000
0001
1000
0000
,  // measure 22
0010
0100
0001
0000
,  // measure 23
0010
0000
0100
0000
1000
0001
1000
0000
,  // measure 24
0001
0100
0010
0000
,  // measure 25
1000
0000
0001
0000
0010
0100
0010
0000
,  // measure 26
0001
1000
0010
0000
,  // measure 27
0100
0000
0001
1000
0000
1000
0000
1000
,  // measure 28
0100
0010
0100
1100
,  // measure 29
1000
0100
0001
0100
,  // measure 30
1000
0000
0001
0000
0100
0010
0100
0000
,  // measure 31
0001
0010
1000
0010
,  // measure 32
0001
0000
1000
0000
0010
0100
0010
0000
,  // measure 33
1000
0100
0001
1000
,  // measure 34
0010
0000
0001
0000
1000
0001
1000
0000
,  // measure 35
1001
0000
0110
0000
,  // measure 36
0001
0000
0000
1000
0000
0000
0001
0000
0000
1000
0000
0000
0001
0000
0000
0000
,  // measure 37
1000
0000
0100
0000
0010
0001
0010
0000
,  // measure 38
0100
1000
0010
0001
,  // measure 39
0010
0000
0100
0000
0001
1000
0001
0000
,  // measure 40
0010
0100
1000
0001
,  // measure 41
0201
0000
0320
0000
,  // measure 42
2030
0000
3002
0023
,  // measure 43
0230
0000
0000
0000
,  // measure 44
0000
0000
0000
0300
,  // measure 45
1002
0000
0203
0000
,  // measure 46
0320
0000
2030
0000
,  // measure 47
3002
0000
0020
0003
,  // measure 48
0230
0000
2300
0000
,  // measure 49
3002
0000
0203
0000
,  // measure 50
2300
0000
3200
0000
,  // measure 51
0320
0000
2030
0000
,  // measure 52
3200
0000
0000
0300
,  // measure 53
1002
0000
0000
0000
,  // measure 54
0023
0000
0000
0000
,  // measure 55
0230
0000
0000
0000
,  // measure 56
2300
0000
0000
0000
,  // measure 57
3001
0100
0001
0100
,  // measure 58
0010
1000
0010
1000
,  // measure 59
0001
0010
0001
0010
,  // measure 60
0100
0001
0100
1000
,  // measure 61
2002
0000
0000
3003
,  // measure 62
0001
0000
0000
1001
,  // measure 63
1000
0000
0010
0000
0100
0001
0100
0001
,  // measure 64
0100
0000
0001
0000
1000
0100
1000
0100
,  // measure 65
1000
0000
0001
0000
0100
0001
0100
0001
,  // measure 66
0100
0000
0010
0000
1000
0001
1000
0001
,  // measure 67
1000
0000
0100
0000
0010
0001
0010
0001
,  // measure 68
0010
0000
0100
0000
1000
0001
1000
0001
,  // measure 69
1000
0000
0001
0100
0001
0000
1000
0100
,  // measure 70
1000
0000
0001
0100
0010
0000
1001
0000
,  // measure 71
1000
0100
0010
0100
1000
0000
0001
0000
,  // measure 72
0100
0010
1000
0010
0100
0000
0001
0000
,  // measure 73
1000
0100
0010
0001
1000
0000
0010
0000
,  // measure 74
0100
0001
1000
0100
0010
0000
0100
0000
,  // measure 75
1000
0010
0100
0001
0010
0000
1001
0000
,  // measure 76
0001
0010
0100
1000
0010
0000
1001
0000
,  // measure 77
1000
0010
0001
0000
0001
0010
1000
0000
,  // measure 78
0100
0000
0010
0000
0001
1000
0010
0000
,  // measure 79
2002
0000
0000
0000
,  // measure 80
0000
0000
0000
0000
,  // measure 81
3003
0000
0000
0000
;

//---------------dance-single - ---------------
#NOTES:
     dance-single:
     :
     Medium:
     13:
     0.510184,0.677986,0.119574,0.135518,0.346766,448.000000,433.000000,15.000000,17.000000,0.000000,0.000000,0.000000,0.000000,0.000000,0.510184,0.677986,0.119574,0.135518,0.346766,448.000000,433.000000,15.000000,17.000000,0.000000,0.000000,0.000000,0.000000,0.000000:
// measure 0
0000
0000
0000
0000
,  // measure 1
0000
0000
0000
0000
,  // measure 2
0000
0000
0000
0000
,  // measure 3
0000
0000
0000
0000
,  // measure 4
0000
0000
0000
0000
,  // measure 5
0000
0000
0000
0000
,  // measure 6
0000
0000
0000
0000
,  // measure 7
1000
0000
1000
0000
0001
0100
0010
0000
,  // measure 8
1000
0000
1000
0000
0100
0010
0001
0000
,  // measure 9
1000
0000
0010
0100
0001
0000
0010
0100
,  // measure 10
1000
0000
1000
0000
0001
0100
0010
0000
,  // measure 11
1000
0100
0010
0001
0010
0100
1000
0000
,  // measure 12
0001
0100
0010
1000
0010
0100
0001
0000
,  // measure 13
1000
0001
0100
0001
0010
0100
1000
0000
,  // measure 14
0001
1000
0010
1000
0100
0010
0001
0000
,  // measure 15
1000
0010
0100
0001
0010
0100
1000
0000
,  // measure 16
0001
0100
0010
1000
0100
0010
0001
0000
,  // measure 17
1000
0000
0000
0100
0000
0100
0000
0000
1000
0000
0000
0010
0000
0010
0000
0000
,  // measure 18
0100
0000
0001
0000
1000
0000
0001
0010
,  // measure 19
0100
0000
0000
1000
0000
0000
1000
0000
0001
0000
0100
0000
0010
0000
1000
0000
,  // measure 20
0001
0000
0000
0010
0000
0000
0001
0000
1000
0000
0000
0000
0010
0000
0100
0000
,  // measure 21
0001
0000
0000
1000
0000
0000
1000
0000
0100
0000
0010
0000
0001
0000
1000
0000
,  // measure 22
0010
0000
0000
0100
0000
0000
0001
0000
0010
0000
0000
0000
0110
0000
0000
0000
,  // measure 23
0100
0000
0000
1000
0000
0000
1000
0000
0001
0000
0100
0000
0001
0000
0010
0000
,  // measure 24
0100
0000
0000
0010
0000
0000
0001
0000
1000
0000
0000
0000
0010
0000
0100
0000
,  // measure 25
0001
0000
0000
1000
0000
0000
1000
0000
0100
0000
0010
0000
0001
0000
1000
0000
,  // measure 26
0001
0000
0000
0001
0000
0000
0001
0000
0000
0001
0000
0000
1001
0000
0000
0000
,  // measure 27
1000
0010
0100
0001
0000
0001
0000
0001
,  // measure 28
0010
1000
0010
0001
0100
0000
0110
0000
,  // measure 29
0010
0000
0000
1000
0000
0000
0010
0000
0100
0000
0000
0001
0000
0000
0100
0000
,  // measure 30
0001
0000
0000
1000
0000
0000
0100
0000
0010
0000
0001
0000
1000
0000
0010
0000
,  // measure 31
0100
0000
0000
0001
0000
0000
1000
0000
0100
0000
0000
0010
0000
0000
0100
0000
,  // measure 32
1000
0000
0000
0001
0000
0000
0100
0000
0010
0000
1000
0000
0100
0000
0000
0000
,  // measure 33
0010
0000
0000
1000
0000
0000
0010
0000
0001
0000
0000
0100
0000
0000
0010
0000
,  // measure 34
1000
0000
0000
0001
0000
0000
0010
0000
1000
0000
0010
0000
0001
0000
0000
0000
,  // measure 35
0011
0000
0000
0010
0000
0000
0000
0000
1001
0000
0000
0001
0000
0000
0000
0000
,  // measure 36
1010
0000
0000
1001
0000
0000
0011
0000
0000
1001
0000
0000
1000
0000
0100
0000
,  // measure 37
1000
0010
1000
0001
0100
0010
0001
0010
,  // measure 38
1000
0001
0010
0100
1000
0010
0100
0001
,  // measure 39
1000
0100
1000
0001
0010
0100
0001
0100
,  // measure 40
1000
0001
0100
0010
1000
0100
0010
0001
,  // measure 41
2000
0010
0001
0001
,  // measure 42
0100
0100
0001
0010
,  // measure 43
3002
0000
0000
0000
,  // measure 44
0000
0000
0000
0003
,  // measure 45
2001
0000
3200
0000
,  // measure 46
0320
0000
0230
0000
,  // measure 47
2300
0000
0020
3000
,  // measure 48
0032
0000
0023
0000
,  // measure 49
1030
0000
0001
0000
0010
0100
1000
0000
,  // measure 50
0001
0000
0100
0000
0010
1000
0001
0000
,  // measure 51
0010
0000
0100
0000
0010
0001
1000
0000
,  // measure 52
0020
0000
0000
0130
,  // measure 53
2001
0000
0000
0000
,  // measure 54
3200
0000
0000
0000
,  // measure 55
0320
0000
0000
0000
,  // measure 56
0032
0000
0000
0000
,  // measure 57
1003
0000
0000
0100
0000
0010
0000
0000
0001
0000
0000
0100
0000
0000
0010
0000
,  // measure 58
1000
0000
0000
0001
0000
0010
0000
0000
0100
0000
0000
1000
0000
0000
0001
0000
,  // measure 59
0100
0000
0000
0010
0000
0001
0000
0000
0010
0000
0000
0100
0000
0001
0000
0000
,  // measure 60
0010
0000
0000
0100
0000
1000
0000
0000
0001
0000
0100
0000
0010
0000
1000
0000
,  // measure 61
1001
0000
0000
0000
0001
0000
1000
0010
0000
0000
1000
0000
0001
0010
0000
0000
,  // measure 62
0100
1000
0001
1001
,  // measure 63
1000
0000
0001
0010
0000
0001
0010
0000
0100
1000
0000
0100
1000
0000
0001
0000
,  // measure 64
1000
0000
0001
0100
0000
0001
0100
0000
0010
1000
0000
0010
1000
0000
0001
0000
,  // measure 65
0010
0000
0100
1000
0000
0100
1000
0000
0001
0100
0000
0001
0100
0000
0010
0000
,  // measure 66
1000
0010
0001
0010
0100
0001
1000
0010
,  // measure 67
0100
0000
0001
1000
0000
0001
1000
0000
0100
0010
0000
0100
0010
0000
0001
0000
,  // measure 68
1000
0000
0010
0100
0000
0010
0100
0000
0001
1000
0000
0001
1000
0000
0100
0000
,  // measure 69
0010
0000
0001
1000
0000
0001
1000
0000
0010
0000
1000
0001
0000
1000
0001
0000
,  // measure 70
0010
0000
0000
0000
0010
0100
0010
0000
0001
0000
0000
0000
1001
0000
0000
0000
,  // measure 71
1000
0000
0001
0100
0000
0001
1000
0000
0001
0100
0000
0001
1000
0000
0100
0000
,  // measure 72
0010
0000
0001
1000
0000
0010
1000
0000
0001
1000
0000
0010
1000
0000
0001
0000
,  // measure 73
0010
0000
0100
1000
0000
0001
1000
0000
0100
1000
0000
0001
1000
0000
0010
0000
,  // measure 74
0100
1000
0100
0001
0010
0100
1000
0000
,  // measure 75
0010
0000
1000
0001
0000
1000
0100
0000
0010
0001
0000
1000
0001
0000
0000
0000
,  // measure 76
1000
0000
0001
0010
0000
0001
1000
0000
0010
1000
0000
0001
0010
0000
0000
0000
,  // measure 77
0100
0000
1000
0001
0000
0000
0000
0000
0100
0000
0001
1000
0000
0000
0000
0000
,  // measure 78
0100
0010
0001
1000
0010
0100
0001
1000
,  // measure 79
2002
0000
0000
0000
,  // measure 80
0000
0000
0000
0000
,  // measure 81
3003
0000
0000
0000
;

//---------------dance-single - & Description---------------
#NOTES:
     dance-single:
     & Description:
     Hard:
     16:
     0.726556,1.065407,0.119574,0.151461,0.916736,638.000000,623.000000,15.000000,19.000000,0.000000,0.000000,0.000000,0.000000,0.000000,0.726556,1.065407,0.119574,0.151461,0.916736,638.000000,623.000000,15.000000,19.000000,0.000000,0.000000,0.000000,0.000000,0.000000:
// measure 0
0000
0000
0000
0000
,  // measure 1
0000
0000
0000
0000
,  // measure 2
0000
0000
0000
0000
,  // measure 3
0000
0000
0000
0000
,  // measure 4
0000
0000
0000
0000
,  // measure 5
0000
0000
0000
0000
,  // measure 6
0000
0000
0000
0000
,  // measure 7
1000
0000
0000
0001
0000
0010
0000
0000
0100
0000
1000
0000
0001
0000
0000
0000
,  // measure 8
0100
0000
0000
0010
0000
1000
0000
0000
0001
0000
0010
0000
0100
0000
0000
0000
,  // measure 9
0001
0000
0000
0100
0000
0010
0000
0000
0001
0000
0000
1000
0000
0010
0000
0000
,  // measure 10
0100
0000
0000
0001
0000
1000
0000
0000
0100
0000
0010
0000
0011
0000
0001
0000
,  // measure 11
1000
0010
0100
1000
0100
0001
0010
0100
,  // measure 12
1000
0100
0001
0100
0010
0001
1001
0000
,  // measure 13
1000
0010
0001
0010
0100
0001
0010
0100
,  // measure 14
0001
0100
0010
0001
1000
0010
1001
0000
,  // measure 15
1000
0100
0001
0100
0010
0001
0011
0000
,  // measure 16
0010
0100
1000
0010
0001
0010
0100
0001
,  // measure 17
1000
0000
0000
0100
0000
0100
0000
0000
1000
0001
0000
0100
0000
0100
0000
0000
,  // measure 18
0010
0000
0000
0000
0100
0000
0000
0000
0001
0000
0000
0000
1000
0100
0010
0001
,  // measure 19
0100
0000
0010
1000
0000
0010
1000
0000
0001
0010
0001
0000
1000
0000
0010
0000
,  // measure 20
0100
0000
0010
1000
0000
0001
0010
0000
0100
0000
0000
0000
1000
0001
0100
0001
,  // measure 21
0010
0000
0100
1000
0000
0001
0100
0000
1000
0100
0010
0000
1000
0000
0001
0000
,  // measure 22
0100
0000
0010
1000
0000
0100
0010
0000
0001
0000
1000
0000
1000
0001
0010
0001
,  // measure 23
0100
0000
0001
1000
0000
0001
1000
0000
0100
0010
0100
0000
1000
0000
0001
0000
,  // measure 24
0100
0000
0010
1000
0000
0001
0010
0000
0100
0000
0000
0000
1000
0100
0010
0001
,  // measure 25
0100
0000
0010
1000
0000
0010
1000
0000
1001
0000
0001
0000
0011
0000
0010
0000
,  // measure 26
0100
0000
1000
0000
0001
0000
0100
0000
0010
1000
0010
1000
0001
0000
0000
0000
,  // measure 27
0010
1000
0010
0001
0000
0011
0000
0010
,  // measure 28
0001
1000
0010
0100
0001
0000
1001
0000
,  // measure 29
1000
0100
0000
0010
0000
0100
1000
0000
0001
0100
0000
0010
0000
0100
0001
0000
,  // measure 30
1000
0001
0000
0010
0000
0001
1000
0000
0001
0100
0001
0000
1000
0000
0100
0000
,  // measure 31
0010
0001
0000
1000
0000
0001
0010
0000
0100
1000
0000
0001
0000
1000
0100
0000
,  // measure 32
0010
0001
0000
0100
0000
0001
0010
0000
0001
1000
0001
0000
0100
0000
0010
0000
,  // measure 33
1000
0010
0000
0001
0000
0010
1000
0000
0001
0010
0000
1000
0000
0010
0001
0000
,  // measure 34
1000
0100
0000
0001
0000
0100
1000
0000
0001
0100
0001
0000
0010
0000
0100
0000
,  // measure 35
1100
0000
1000
0001
0000
0000
0100
0000
0101
0000
0001
1000
0000
0000
0001
0000
,  // measure 36
1000
0001
0000
0010
0100
0000
1000
0001
0000
0100
0010
0000
1000
0100
0010
0001
,  // measure 37
1000
0100
1000
0000
0001
0100
0001
0000
1000
0010
1000
0000
0001
0010
0001
0000
,  // measure 38
1000
0100
0010
0000
0001
0100
0010
0000
1000
0001
0100
0000
0001
1000
0100
0000
,  // measure 39
0010
0001
0010
0000
0001
1000
0001
0000
1000
0100
1000
0000
0001
0100
0001
0000
,  // measure 40
1000
0100
0010
0000
0001
0100
0010
0000
1000
0001
0010
0000
0001
1000
0010
0000
,  // measure 41
0200
0010
0001
0001
,  // measure 42
1000
1000
0001
0010
,  // measure 43
0302
0000
0000
0000
,  // measure 44
0000
0000
0000
0003
,  // measure 45
1002
0203
0320
2030
,  // measure 46
3200
0000
0320
0230
,  // measure 47
0000
0000
0320
0000
,  // measure 48
2030
0000
3020
0000
,  // measure 49
0031
0000
0000
0000
1000
0000
0000
0010
0000
0010
0000
0000
0100
0000
0000
0000
,  // measure 50
0001
0000
0000
0000
0010
0000
0000
0100
0000
0100
0000
0000
1000
0000
0000
0000
,  // measure 51
0001
0000
0000
0000
0100
0000
0000
0010
0000
0010
0000
0000
1000
0000
0000
0000
,  // measure 52
0200
0000
0000
0310
,  // measure 53
1002
0000
0000
0000
,  // measure 54
0203
0000
0000
0000
,  // measure 55
0320
0000
0000
0000
,  // measure 56
2030
0000
0000
0000
,  // measure 57
3001
0000
0000
0100
0000
0010
0000
1000
0001
0000
0000
0010
0000
0000
0100
0000
,  // measure 58
1000
0000
0000
0001
0000
0100
0000
0010
0100
0000
0000
0001
0000
0000
1000
0000
,  // measure 59
0100
0000
0000
0010
0000
0001
0000
1000
0010
0000
0000
0001
0000
0010
0000
1000
,  // measure 60
0001
0010
1000
0010
0100
1000
0001
0000
,  // measure 61
0101
0000
0000
0000
0100
0000
0001
1000
0000
0010
1000
0000
0001
0010
0000
0100
,  // measure 62
1000
0010
0001
0010
0100
0001
1001
0000
,  // measure 63
1000
0100
1000
0001
0100
0001
1000
0100
0010
0001
1000
0010
0100
0010
1000
0001
,  // measure 64
0010
0100
1000
0001
0100
0001
1000
0100
0010
0100
1000
0001
0100
0010
1000
0001
,  // measure 65
0010
0100
0010
0001
1000
0010
1000
0001
0010
0001
1000
0010
0100
0001
1000
0100
,  // measure 66
0010
0100
1000
0001
0100
0010
1000
0001
0010
0100
0010
0001
1000
0100
0010
0001
,  // measure 67
0100
0001
1000
0100
0010
0100
1000
0001
0100
0001
1000
0100
0010
0100
1000
0001
,  // measure 68
0100
0001
1000
0010
1000
0001
0010
0100
0010
0001
1000
0010
0100
0001
0010
0001
,  // measure 69
1000
0100
0010
0100
1000
0001
0100
0001
0010
0100
1000
0001
0100
0010
0100
0001
,  // measure 70
1000
0100
0010
0001
0100
0001
1000
0100
0010
0001
0100
0010
1000
0000
0001
0000
,  // measure 71
0010
0100
1000
0010
1000
0001
0010
0001
1000
0010
1000
0001
0010
0100
1000
0001
,  // measure 72
0100
0010
0100
0001
1000
0100
0010
0001
1000
0010
0100
0010
1000
0001
0010
0100
,  // measure 73
1000
0001
0100
0010
0100
0001
1000
0100
0010
0001
0100
0001
1000
0001
0010
0100
,  // measure 74
1000
0001
0100
0010
0100
0001
1000
0100
0010
0001
1000
0010
0100
0000
0000
0000
,  // measure 75
0001
0010
0100
1000
0100
0010
1000
0010
0100
1000
0001
0100
0010
0000
0000
0000
,  // measure 76
1000
0010
0100
1000
0100
0010
1000
0001
0010
0100
0010
0001
1000
0000
0000
0000
,  // measure 77
0001
0010
0100
1000
0010
0000
0000
0000
1000
0100
0010
0001
0100
0000
0010
0000
,  // measure 78
1000
0000
0100
0000
0001
0000
0100
0000
1000
0010
0100
0001
1000
0000
0010
0000
,  // measure 79
2002
0000
0000
0000
,  // measure 80
0000
0000
0000
0000
,  // measure 81
3003
0000
0000
0000
;
