#TITLE:together 4ever;
#SUBTITLE:;
#ARTIST:Sota Fujimori feat.yoshiko;
#TITLETRANSLIT:;
#SUBTITLETRANSLIT:;
#ARTISTTRANSLIT:;
#GENRE:;
#CREDIT:;
#BANNER:together 4ever.png;
#BACKGROUND:together 4ever-bg.png;
#LYRICSPATH:;
#CDTITLE:pop'n music.png;
#MUSIC:together 4ever.ogg;
#OFFSET:-0.400000;
#SAMPLESTART:68.949997;
#SAMPLELENGTH:15.000000;
#SELECTABLE:YES;
#BPMS:0.000000=140.000000
;
#STOPS:
;
#BGCHANGES:;
#KEYSOUNDS:;
#ATTACKS:;

//---------------dance-double - ----------------
#NOTES:
     dance-double:
     :
     Hard:
     13:
     0.000000,0.000000,0.000000,0.000000,0.000000,0.000000,0.000000,0.000000,0.000000,0.000000,0.000000,0.000000,0.000000,0.000000,0.000000,0.000000,0.000000,0.000000,0.000000,0.000000,0.000000,0.000000:
00000000
00000000
00000000
00000000
,
00000000
00000000
00000000
00000000
,
00000000
00000000
00000000
00000000
,
00000000
00000000
00000000
00000000
,
00100000
10000000
00100000
00000000
00010000
00000000
00000010
00000000
00000100
00000000
00000001
00000000
00001000
00000000
00000100
00001000
,
00000000
00000000
00000100
00000010
00000100
00000000
00010000
00000000
00001000
00000000
00010000
00000000
01000000
00000000
00100000
20000000
,
00000000
30200000
00310000
00020000
,
10000000
00000000
00000000
00000000
01030000
00000000
00000000
00000000
00010000
01000000
00010000
01000000
00010000
00000000
00000000
00000000
,
00011000
00000000
00010000
00000100
00000010
00000001
00001000
00000100
,
00001000
00000000
00001000
00000000
00001000
00000001
00000000
00000010
00000000
00000000
00000001
00000000
00000100
00000000
00001000
00000000
,
00011000
00000000
00001000
00100000
01000000
10000000
00010000
00100000
,
00010000
00000000
00010000
00000000
00010000
10000000
00000000
00010000
10000000
00000000
00000000
11000000
00000000
00000000
01000000
00000000
,
01001000
00000000
01000000
00100000
00010000
00100000
00001000
00000010
,
00000001
00000000
00000001
00000000
00000001
00001000
00000000
00000100
00000000
00000000
00001000
00000000
00000100
00010000
00000000
00010000
,
01000000
00000000
10000000
01000000
00010000
01000000
00100000
00001000
,
00100000
00000000
00100000
00000000
00100000
00010000
00000000
00100000
00010000
00000000
00000000
01010000
00000000
01000000
00001000
00000000
,
00010000
00000000
00000010
00000100
00000001
00001000
00000100
00001000
,
00010000
00000000
00001000
00000000
00000100
00000010
00000000
00000001
00000000
00000000
00000000
00000100
00000000
00000001
00001000
00000000
,
00000100
00010000
00001000
00010000
01000000
00100000
01000000
10000000
,
01000000
00000000
00010000
00000000
01000000
10000000
00000000
01000000
10000000
00000000
00000000
10010000
00000000
00010000
00100000
00000000
,
00001000
00100000
00010000
00001000
00010000
00000010
00000001
00000010
,
00000001
00000000
00001000
00000000
00000100
00010000
00000000
00001000
00000000
00000000
00000000
00010000
00000000
00001000
01000000
00000000
,
00100000
10000000
01000000
00010000
01000000
00100000
10000000
00100000
,
00202000
00000000
00000000
00000000
00000000
00000000
00303000
00000000
00001000
00010000
00001000
00010000
00001000
00000000
00000000
00000000
,
00010010
00000000
00000000
00000010
00000100
00000000
00000100
00000001
00000000
00000000
00001000
00000000
00000100
00000000
00010000
00000000
,
00011000
00000000
00000000
00001000
01000000
00000000
01000000
00100000
00000000
00000000
00100000
00000000
10000000
00000000
01000000
00000000
,
01010000
00000000
00000000
01000000
10000000
00000000
10000000
00010000
00000000
00000000
00010000
00000000
00100000
00000000
00001000
00000000
,
00010000
00000000
00010000
00000000
00010000
00000000
00000000
00000000
00010010
00000000
00000000
00000010
00000000
00000000
00000100
00000000
,
00000101
00000000
00000000
00000001
00001000
00000000
00001000
00000100
00000000
00000000
00000100
00000000
00001000
00000000
00010000
00000000
,
00011000
00000000
00000000
00001000
00000010
00000000
00000010
00000100
00000000
00000000
00000000
00000010
00000000
00010000
00000100
00000000
,
00010100
00000000
00000000
00010000
00001000
00000000
00001000
01000000
00000000
00000000
00100000
00000000
00010000
00000000
00100000
00000000
,
10000000
00000000
01000000
00000000
00010000
00000000
00000000
00000000
11000000
00000000
00000000
10010000
00000000
00000000
00010000
00000000
,
00210000
00000000
00000000
00000000
00302000
00000000
00000000
00000000
00023000
00000000
00000000
00000000
00030020
00000000
00000000
00000230
,
00000000
00000000
00000301
00000100
00001000
00000100
00000010
00000100
,
00000001
00001000
00000100
00000000
00010000
00001000
01000000
00000000
,
00010000
00000000
10000000
00000000
01000000
00000000
00100000
00000000
00110000
00000000
00000000
00100000
00010000
00000000
00000000
20010000
,
00000000
00000000
31000000
00000000
00100000
00000000
00001000
00000000
00020000
00000000
00000000
00000000
00032000
00000000
00000000
00013000
,
00000000
00000000
00010000
00000000
00000010
00000000
00000001
00000000
00000010
00000000
00000100
00000000
00000001
00000000
00000000
00001000
,
00000000
00000100
00000000
00010100
00000000
00000000
00000000
00010000
00000000
00001000
00010000
00000000
00001000
00000000
01000000
00000000
,
01020000
00000000
00000000
00000000
20030000
00000000
00000000
00000000
30010000
10000000
00010000
10000000
00010000
00000000
00000000
00000000
,
10010000
00000000
10000000
00000000
01000000
00000000
00001000
00000000
01000000
00000000
00100000
00000000
00010000
00000000
00100000
00001000
,
00000000
00000000
00001000
00000000
00010000
00000000
00000100
00000000
00010000
00000000
00000010
00000100
00000000
00000010
00000100
00000000
,
00000002
00000000
00001003
00000000
00001000
00000100
00010000
01000000
,
20000000
00000000
00000000
00000000
30010000
00000000
00100000
00000000
10000000
00000000
00100000
00000000
00010000
00000000
01000000
00010000
,
02000000
00000000
03001000
00010000
00000100
00000010
00000100
00010000
,
00001000
00000000
00010000
00000000
00000010
00000000
00000100
00000002
00000000
00000000
00001003
00000000
00000100
00000000
00010000
00000000
,
00012000
00000000
00203000
00000000
00310000
00100000
10000000
00000000
,
10000000
00000000
00100000
00000000
00010000
00000000
00000000
00000000
00100000
00010000
00000000
00100000
00010000
00000000
00100000
00000000
,
00011000
00000000
00000000
00000000
00010000
00000000
00000010
00000000
00000100
00000000
00000001
00000000
00001000
00000000
00000100
00001000
,
00000000
00000100
00000000
00000000
00010000
00000000
00001000
00000000
00100000
00000000
01000000
00000000
00010000
00000000
01000000
00000000
,
00200000
00000000
00000000
00000000
00302000
00000000
00000000
00000000
00013000
00000000
00001000
00000000
00000010
00000000
00000000
00000012
,
00000000
00000000
00000000
00000000
00002003
00000000
00000000
00000000
00003100
00000000
00010000
00000000
01000000
00000000
00100000
00010000
,
00100000
00010000
01000000
00100000
10000000
01000000
00010000
01000000
,
00100000
00000000
00001000
00000000
00100000
00000000
00001000
00020000
00000000
00000000
00030100
00000000
00001000
00000000
00000001
00000000
,
00002001
00000000
00000000
00000000
00003100
00000000
00000000
00000000
00001002
00000000
00000000
00000000
00000013
00000000
00000000
00000001
,
00000000
00001000
00000000
00001100
00000000
00000000
00010000
00000000
00001000
00000000
00100000
00010000
00000000
00100000
00010000
00000000
,
20200000
00000000
00000000
00300000
,
00020000
00000000
00000000
00000000
00000000
00000000
00000000
00000000
30030000
00000000
00000000
00000000
00001000
00010000
00000000
00000000
,
00020020
00000000
00000000
00030000
,
00000200
00000000
00000000
00000000
00000030
00000000
00000000
00000000
00000301
00000000
00001000
00000100
00001000
00000100
00001000
00000100
,
00010000
00000000
00001000
00000000
00010000
00000000
00100000
00000000
01000000
00000000
00100000
00000000
10000000
00010000
00000000
00000000
,
00100000
00000000
00010000
00000000
00100000
00000000
10000000
00000000
00100000
00000000
01000000
00000000
00100000
00001000
00100000
00000000
,
00001000
00000000
00000000
00010000
00000000
00000010
00000000
00000100
00000010
00000000
00000000
00000000
00000100
00000000
00000001
00000000
,
00001000
00000000
00000000
00000100
00000000
00010000
00000000
00001000
00010000
00000000
00001000
00000000
01000000
00000000
00100000
00000000
,
20020000
00000000
00000000
00000000
,
30030000
00000000
00000000
00000000
;

//---------------dance-single - ----------------
#NOTES:
     dance-single:
     :
     Easy:
     6:
     0.000000,0.000000,0.000000,0.000000,0.000000,0.000000,0.000000,0.000000,0.000000,0.000000,0.000000,0.000000,0.000000,0.000000,0.000000,0.000000,0.000000,0.000000,0.000000,0.000000,0.000000,0.000000:
0000
0000
0000
0000
,
0000
0000
0000
0000
,
0000
0000
0000
0000
,
0000
0000
0000
0000
,
1000
1000
1000
0000
,
0001
0001
0001
0000
,
1001
0000
0110
0000
,
1001
0000
0220
0330
,
0010
1000
0010
1000
,
0001
0100
0002
0003
,
1000
0100
0010
0001
,
0010
0100
0002
0003
,
0100
1000
0100
0010
,
0100
1000
0002
0003
,
0100
0010
0100
0010
,
1000
0001
2000
3001
,
1000
0010
0100
0001
,
0010
1000
0020
0030
,
0001
0010
0001
1000
,
0100
0001
0200
0300
,
1000
0100
0010
0100
,
1000
0001
0200
0300
,
0010
0100
0010
0001
,
2002
0000
0000
3003
,
1000
1000
1000
0000
,
1000
1000
1000
0000
,
0001
0001
0001
0000
,
0001
0001
0001
0000
,
0100
0100
0100
0000
,
0100
0100
0100
0000
,
0010
0010
0010
0000
,
0010
0010
0010
0000
,
1000
0000
1000
0000
,
0001
0100
1000
0100
,
0001
0000
0100
0000
,
0010
0000
1000
0100
,
1001
0001
0010
0100
,
0011
1000
0001
0100
,
0110
0000
0010
0000
,
2001
0000
0002
3003
,
1000
1000
1000
0010
,
0100
0100
0100
0001
,
0010
0010
0001
0001
,
1000
1000
0100
1000
,
1001
0010
0010
0010
,
0001
0001
1000
1000
,
0100
0010
0001
0010
,
0100
1000
0001
1000
,
1001
0010
0010
0010
,
1000
0100
0100
0100
,
1000
1000
0010
0010
,
0100
0100
0001
0001
,
1001
0010
0100
0010
,
1000
0001
1000
0100
,
0010
0100
1000
0001
,
0100
0100
0010
0010
,
2002
0000
0000
3003
,
0200
0000
0000
0300
,
0020
0000
0000
0030
,
2000
0000
0000
3000
,
0001
0100
0001
0000
,
1000
0010
1000
0000
,
0010
0010
0010
0000
,
0100
0100
0100
0000
,
2002
0000
0000
0000
,
3003
0000
0000
0000
;

//---------------dance-single - ----------------
#NOTES:
     dance-single:
     :
     Medium:
     10:
     0.000000,0.000000,0.000000,0.000000,0.000000,0.000000,0.000000,0.000000,0.000000,0.000000,0.000000,0.000000,0.000000,0.000000,0.000000,0.000000,0.000000,0.000000,0.000000,0.000000,0.000000,0.000000:
0000
0000
0000
0000
,
0000
0000
0000
0000
,
0000
0000
0000
0000
,
0000
0000
0000
0000
,
1000
0000
0000
0000
1000
0000
0000
1000
0000
0000
0000
0000
0001
0000
0010
0000
,
0100
0000
0000
0000
0100
0000
0000
0100
0000
0000
0000
0000
1000
0000
0100
0000
,
0020
0031
0002
1003
,
0200
0310
1000
1001
,
0110
0000
0001
0100
0001
0000
1000
0010
,
1000
0000
0000
0000
0010
0000
0000
0100
0000
0000
0000
0000
0100
0000
0001
0000
,
1000
0000
0001
0010
0001
0000
0100
0010
,
0100
0000
0010
1000
0002
0000
1000
0000
,
0103
0000
0010
0001
0010
0000
0010
1000
,
0010
0000
0000
0000
0100
0000
0000
0001
0000
0000
0000
0000
1000
0000
0100
0000
,
0010
0000
0100
1000
0100
0000
0100
0001
,
0100
1000
0200
0001
,
1300
0000
1000
0010
0001
0000
0001
0010
,
1000
0000
0100
0000
0010
0000
0001
1000
,
0001
0000
0001
0100
1000
0000
1000
0100
,
0001
0000
1000
0000
0100
0000
0010
0100
,
0010
0000
0001
0010
1000
0000
1000
0010
,
0001
0100
0010
1000
,
0001
0000
1000
0100
0001
0000
0001
0100
,
2001
0000
0000
0000
0001
0001
3001
0000
,
0200
0000
0001
0000
0301
0000
0001
0100
,
0002
0000
1000
0000
1003
0000
1000
0010
,
2000
0000
0010
0000
3001
0000
0001
1000
,
0002
0000
0000
0000
0100
0000
0000
0000
0013
0000
0000
0001
1000
0000
0000
0000
,
0200
0000
1000
0000
1300
0000
1000
0010
,
0200
0000
0001
0000
0301
0000
0001
0010
,
0200
0000
1000
0000
1300
0000
0001
1000
,
0010
0000
0100
0000
0010
0000
0000
0000
1001
0000
0000
1000
0010
0000
0000
0000
,
0200
0302
0203
0301
,
1001
0020
2030
3020
,
1030
0010
1000
0000
0001
0100
0001
0000
,
1000
0100
0010
1001
,
0210
0320
2030
3200
,
1300
0000
0100
1000
0001
0000
0001
1000
,
0010
0000
0100
0001
0100
0010
0100
0000
,
1002
0000
2000
3003
,
1100
0000
0000
0000
1000
0000
0000
0000
0010
0000
0000
0000
0100
0000
0000
0001
,
0100
0010
1000
0010
,
0100
0001
0100
0000
0100
0010
0100
0000
,
0100
1000
0100
0000
0100
0000
0001
0000
,
1001
0000
0001
0010
0001
0000
0001
1000
,
0001
0000
0001
0100
0001
0000
1000
0000
,
1010
0000
0000
0000
0010
0000
0000
0000
0100
0000
0000
0000
0001
0000
0000
1000
,
0001
0010
1000
0010
,
0011
0000
0000
0000
0100
0000
0000
0000
0010
0000
0000
0000
0100
0000
0000
0001
,
1000
0100
0010
0100
,
1000
0100
1000
0000
1000
0001
1000
0000
,
1000
0010
1000
0000
0110
0000
0001
0000
,
0110
0000
1000
0001
1000
0000
0001
1000
,
0001
0000
0100
0010
0100
0000
0001
0010
,
0001
1000
0100
0010
,
0001
0000
0010
0001
0010
0100
1000
0001
,
2000
0000
0000
3000
,
0020
0000
0000
0030
,
2000
0000
0000
3000
,
0002
0000
0000
0003
,
1000
0100
1000
0100
1000
0010
1000
0000
,
0001
0010
0001
0010
0001
1000
0001
0000
,
0100
0010
0100
0001
0100
1000
0100
0000
,
0010
0100
0010
1000
0010
0001
0010
0000
,
2002
0000
0000
0000
,
3003
0000
0000
0000
;

//---------------dance-single - ----------------
#NOTES:
     dance-single:
     :
     Hard:
     13:
     0.000000,0.000000,0.000000,0.000000,0.000000,0.000000,0.000000,0.000000,0.000000,0.000000,0.000000,0.000000,0.000000,0.000000,0.000000,0.000000,0.000000,0.000000,0.000000,0.000000,0.000000,0.000000:
0000
0000
0000
0000
,
0000
0000
0000
0000
,
0000
0000
0000
0000
,
0000
0000
0000
0000
,
1000
0000
1000
0010
0000
0000
0010
0000
0100
0000
0001
0000
0010
0001
0000
0000
,
0001
0000
0001
0100
0000
0000
0100
0000
0010
0000
1000
0000
0010
0100
0000
0100
,
0020
0000
0000
0000
1030
0000
1000
0002
0000
0000
0013
0000
0001
0000
0001
0200
,
0000
0000
0310
0000
1000
0000
1000
0001
2000
0000
0000
0000
3020
0000
0000
0000
,
0130
0000
0001
0000
1000
0000
1000
0100
0000
0000
1000
0000
0010
0000
0100
0000
,
0001
0000
0100
0000
0001
0010
0000
0001
0000
0000
1000
0000
0100
0000
1000
0000
,
0010
0000
1000
0000
0100
0000
0100
1000
0000
0000
1000
0000
0010
0000
0100
0000
,
0001
0000
0010
0000
0001
1000
0000
1000
0010
0000
0000
1010
0000
0000
1001
0000
,
0001
0000
0100
0000
0010
0000
0010
1000
0000
0000
1000
0000
0100
0000
1000
0000
,
0010
0000
0100
0000
0001
0100
0000
0001
0000
0000
1000
0000
0010
0000
0100
0000
,
0001
0000
1000
0000
0001
0000
0001
0100
0000
0000
0010
0000
1000
0000
0010
0000
,
0001
0000
0010
0000
0100
0000
0010
0000
1010
0000
0000
1100
0000
0000
1001
0000
,
1000
0000
0010
0000
1000
0000
1000
0100
0000
0000
0100
0000
1000
0000
0010
1000
,
0010
0000
1000
0000
0001
0100
0000
0010
0000
0000
0100
0000
0010
0000
1000
0000
,
0001
0000
1000
0000
0100
0000
0100
0010
0000
0000
0010
0000
0001
0000
1000
0000
,
0001
0000
0100
0000
0001
0010
0000
0001
0100
0000
0000
0110
0000
0000
1001
0000
,
0010
0000
1000
0000
0100
0000
0100
1000
0000
0000
0100
0000
1000
0000
1000
0001
,
1000
0000
0001
0000
0010
0001
0000
0100
0000
0000
0001
0000
1000
0000
0010
1000
,
0010
0000
0100
0000
0001
0000
0001
0010
0000
0000
0001
0000
0100
0000
0010
0000
,
2020
0030
3020
0230
,
0301
0000
0000
0001
1000
0000
1000
0001
0000
0000
0001
0000
1000
0000
0010
0000
,
0100
0000
0000
0001
0010
0000
0010
0100
0000
0000
1000
0000
0100
0000
0010
0000
,
0001
0000
0000
0100
0001
0000
0001
1000
0000
0000
0010
0000
1000
0000
0100
0000
,
1000
0000
0010
0000
0100
0000
0001
0000
0011
0000
0000
1001
0000
0000
1100
0000
,
1000
0000
0000
0010
1000
0000
1000
0100
0000
0000
1000
0000
0010
0000
0100
0000
,
0001
0000
0100
0000
0001
1000
0000
0010
0000
0000
0000
1000
0000
1000
0010
0000
,
0110
0000
0000
0000
0001
0100
0000
0001
0000
1000
0001
0000
0010
0000
0001
0000
,
0100
0000
0010
0000
1000
0000
0100
0000
1100
0000
0000
1001
0000
0000
0011
0000
,
0002
0000
0000
0000
0203
0000
0000
0000
0320
0000
0000
0000
2030
0000
0000
3020
,
0000
0100
0230
0000
0302
0000
0023
0000
,
0031
0010
1000
0000
1000
0010
0001
0000
,
0101
0000
0000
0001
1000
0000
0010
0000
1010
0000
0000
0000
1001
0000
0000
1200
,
0000
0000
1000
0000
2300
0000
0000
0000
3020
0000
0000
0000
0230
0000
0000
0302
,
0000
0000
1000
0000
2003
0000
0000
0000
3010
0000
1000
0000
0010
0100
0000
0201
,
0000
0010
0310
0000
0010
1000
0001
0100
,
0201
0000
0000
0000
0320
0000
0000
0000
1030
0010
1000
0010
1000
0000
0000
0000
,
1001
0000
0000
0000
0001
0000
0100
0000
0010
0000
1000
0000
0010
0000
0100
0001
,
0000
0000
0001
0000
0010
0000
0100
0000
1000
0000
0010
1000
0000
0000
0010
0000
,
0100
0000
0001
0000
0010
0000
0001
0000
1000
0000
0010
0000
1000
0100
0000
1000
,
0000
0010
0100
0000
0102
0000
2003
0000
,
3010
0000
0100
0010
1000
1000
1000
0000
,
1000
0000
0010
0000
0100
0000
0001
0100
0000
0000
0010
0000
0010
0000
0010
0000
,
1020
0000
0230
0000
0301
0100
0020
0000
,
2030
0000
0010
0000
3020
0000
0000
0000
0130
0000
0000
0101
0000
0000
1001
0000
,
0110
0000
0000
0000
0010
0000
1000
0000
0100
0000
1000
0000
0001
0000
0001
1000
,
0000
0100
0000
0000
1000
0000
0010
0000
0100
0000
0001
0100
0000
0001
1000
0000
,
1000
0000
0010
0000
0100
0000
0001
0000
1000
0000
0100
0000
0010
0001
0000
1000
,
0000
0001
0100
0000
0012
0000
2003
0000
,
3010
0000
0000
0000
1000
0000
0010
0000
0100
0010
0000
0100
0000
0000
0001
0000
,
0010
0000
0001
0000
1000
0000
0010
1000
0000
0000
1000
0000
0100
0000
0010
0000
,
0012
0000
0000
0000
0203
0000
0000
0000
0320
0000
0000
0000
2030
0000
0000
3001
,
0000
1001
0000
0101
0000
0000
0001
0000
1001
0000
0000
1100
0000
0000
1001
0000
,
2200
0000
0000
0300
,
0020
0000
3000
0230
,
0002
0000
0300
0023
,
0002
0000
0000
0000
0030
0000
0000
0000
1003
0000
0001
0100
0001
0100
0001
0100
,
0010
0000
0000
1000
0000
0010
0000
1000
0010
0000
0000
0000
0100
0000
0000
0000
,
0001
0000
0000
0001
0000
0100
0000
0001
1000
0000
0010
0000
1000
0001
0000
0000
,
0100
0000
0000
0010
0000
1000
0000
0001
0100
0000
0000
0000
0001
0000
1000
0010
,
1000
0000
0000
0100
0000
1100
0000
1010
0000
0000
1001
0000
0000
0000
0001
0000
,
2002
0000
0000
3003
;

//---------------dance-single - ----------------
#NOTES:
     dance-single:
     :
     Beginner:
     3:
     0.147029,0.228712,0.035186,0.017593,0.000000,117.000000,113.000000,4.000000,2.000000,0.000000,0.000000,0.147029,0.228712,0.035186,0.017593,0.000000,117.000000,113.000000,4.000000,2.000000,0.000000,0.000000:
// measure 0
0000
0000
0000
0000
,  // measure 1
0000
0000
0000
0000
,  // measure 2
0000
0000
0000
0000
,  // measure 3
0000
0000
0000
0000
,  // measure 4
1000
0000
0000
0000
,  // measure 5
1000
0000
0000
0000
,  // measure 6
0001
0000
0000
0000
,  // measure 7
0100
0000
0000
0000
,  // measure 8
0010
0010
0010
0000
,  // measure 9
0010
0000
0000
0000
,  // measure 10
0100
0100
0100
0000
,  // measure 11
0100
0000
0000
0000
,  // measure 12
0001
0001
0001
0000
,  // measure 13
0001
0000
0000
0000
,  // measure 14
1000
1000
1000
0000
,  // measure 15
1000
0000
0000
0000
,  // measure 16
0010
0000
0010
0000
,  // measure 17
0010
0000
0000
0000
,  // measure 18
0100
0000
0100
0000
,  // measure 19
0100
0000
0000
0000
,  // measure 20
0001
0000
0001
0000
,  // measure 21
0001
0000
0000
0000
,  // measure 22
1000
0000
1000
0000
,  // measure 23
1001
0000
0000
0000
,  // measure 24
0100
0100
0100
0000
,  // measure 25
0100
0000
0000
0000
,  // measure 26
0010
0010
0010
0000
,  // measure 27
0010
0000
0000
0000
,  // measure 28
0100
0100
0100
0000
,  // measure 29
0100
0000
0000
0000
,  // measure 30
0010
0010
0010
0000
,  // measure 31
0010
0000
0000
0000
,  // measure 32
1000
0000
1000
0000
,  // measure 33
1000
0000
0000
0000
,  // measure 34
0001
0000
0001
0000
,  // measure 35
0001
0000
0000
0000
,  // measure 36
1000
0000
1000
0000
,  // measure 37
1000
0000
0000
0000
,  // measure 38
0001
0000
0001
0000
,  // measure 39
0001
0000
0000
0000
,  // measure 40
1000
0000
1000
1000
,  // measure 41
1000
0000
0100
0000
,  // measure 42
0010
0000
0001
0001
,  // measure 43
0001
0000
1000
0000
,  // measure 44
0001
0000
1000
0000
,  // measure 45
0010
0000
0000
0000
,  // measure 46
0100
0000
0001
0000
,  // measure 47
1000
0000
0000
0000
,  // measure 48
0010
0000
0100
0100
,  // measure 49
0100
0000
0010
0000
,  // measure 50
1000
0000
0001
0001
,  // measure 51
0001
0000
1000
0000
,  // measure 52
0010
0000
0100
0001
,  // measure 53
0100
0000
0001
1000
,  // measure 54
0001
0000
1000
0000
,  // measure 55
0001
0000
0100
0000
,  // measure 56
1001
0000
0000
0000
,  // measure 57
0010
0000
0000
0000
,  // measure 58
0110
0000
0000
0000
,  // measure 59
1000
0000
0000
0000
,  // measure 60
1000
1000
1000
0000
,  // measure 61
1000
1000
1000
0000
,  // measure 62
0001
0001
0001
0000
,  // measure 63
0001
0001
0001
0000
,  // measure 64
2002
0000
0000
0000
,  // measure 65
3003
0000
0000
0000
;
